  0
SECTION
  2
HEADER
  9
$ACADVER
  1
AC1024
  9
$ACADMAINTVER
 70
   226
  9
$DWGCODEPAGE
  3
ANSI_1252
  9
$LASTSAVEDBY
  1
RubenvandenEijkel
  9
$INSBASE
 10
0.0
 20
0.0
 30
0.0
  9
$EXTMIN
 10
-0.0320410123467809
 20
-0.0453151460337722
 30
-0.0015258207003583
  9
$EXTMAX
 10
1050.03204590179
 20
1485.045322061103
 30
0.0000000349246037
  9
$LIMMIN
 10
0.0
 20
0.0
  9
$LIMMAX
 10
1050.0
 20
1485.0
  9
$ORTHOMODE
 70
     0
  9
$REGENMODE
 70
     1
  9
$FILLMODE
 70
     1
  9
$QTEXTMODE
 70
     0
  9
$MIRRTEXT
 70
     1
  9
$LTSCALE
 40
1.0
  9
$ATTMODE
 70
     1
  9
$TEXTSIZE
 40
0.2
  9
$TRACEWID
 40
0.05
  9
$TEXTSTYLE
  7
Standard
  9
$CLAYER
  8
0
  9
$CELTYPE
  6
ByLayer
  9
$CECOLOR
 62
   256
  9
$CELTSCALE
 40
1.0
  9
$DISPSILH
 70
     0
  9
$DIMSCALE
 40
1.0
  9
$DIMASZ
 40
0.18
  9
$DIMEXO
 40
0.0625
  9
$DIMDLI
 40
0.38
  9
$DIMRND
 40
0.0
  9
$DIMDLE
 40
0.0
  9
$DIMEXE
 40
0.18
  9
$DIMTP
 40
0.0
  9
$DIMTM
 40
0.0
  9
$DIMTXT
 40
0.18
  9
$DIMCEN
 40
0.09
  9
$DIMTSZ
 40
0.0
  9
$DIMTOL
 70
     0
  9
$DIMLIM
 70
     0
  9
$DIMTIH
 70
     1
  9
$DIMTOH
 70
     1
  9
$DIMSE1
 70
     0
  9
$DIMSE2
 70
     0
  9
$DIMTAD
 70
     0
  9
$DIMZIN
 70
     0
  9
$DIMBLK
  1

  9
$DIMASO
 70
     1
  9
$DIMSHO
 70
     1
  9
$DIMPOST
  1

  9
$DIMAPOST
  1

  9
$DIMALT
 70
     0
  9
$DIMALTD
 70
     2
  9
$DIMALTF
 40
25.4
  9
$DIMLFAC
 40
1.0
  9
$DIMTOFL
 70
     0
  9
$DIMTVP
 40
0.0
  9
$DIMTIX
 70
     0
  9
$DIMSOXD
 70
     0
  9
$DIMSAH
 70
     0
  9
$DIMBLK1
  1

  9
$DIMBLK2
  1

  9
$DIMSTYLE
  2
Standard
  9
$DIMCLRD
 70
     0
  9
$DIMCLRE
 70
     0
  9
$DIMCLRT
 70
     0
  9
$DIMTFAC
 40
1.0
  9
$DIMGAP
 40
0.09
  9
$DIMJUST
 70
     0
  9
$DIMSD1
 70
     0
  9
$DIMSD2
 70
     0
  9
$DIMTOLJ
 70
     1
  9
$DIMTZIN
 70
     0
  9
$DIMALTZ
 70
     0
  9
$DIMALTTZ
 70
     0
  9
$DIMUPT
 70
     0
  9
$DIMDEC
 70
     4
  9
$DIMTDEC
 70
     4
  9
$DIMALTU
 70
     2
  9
$DIMALTTD
 70
     2
  9
$DIMTXSTY
  7
Standard
  9
$DIMAUNIT
 70
     0
  9
$DIMADEC
 70
     0
  9
$DIMALTRND
 40
0.0
  9
$DIMAZIN
 70
     0
  9
$DIMDSEP
 70
    46
  9
$DIMATFIT
 70
     3
  9
$DIMFRAC
 70
     0
  9
$DIMLDRBLK
  1

  9
$DIMLUNIT
 70
     2
  9
$DIMLWD
 70
    -2
  9
$DIMLWE
 70
    -2
  9
$DIMTMOVE
 70
     0
  9
$DIMFXL
 40
1.0
  9
$DIMFXLON
 70
     0
  9
$DIMJOGANG
 40
0.7853981633974483
  9
$DIMTFILL
 70
     0
  9
$DIMTFILLCLR
 70
     0
  9
$DIMARCSYM
 70
     0
  9
$DIMLTYPE
  6

  9
$DIMLTEX1
  6

  9
$DIMLTEX2
  6

  9
$DIMTXTDIRECTION
 70
     0
  9
$LUNITS
 70
     2
  9
$LUPREC
 70
     4
  9
$SKETCHINC
 40
0.1
  9
$FILLETRAD
 40
0.5
  9
$AUNITS
 70
     0
  9
$AUPREC
 70
     0
  9
$MENU
  1
.
  9
$ELEVATION
 40
0.0
  9
$PELEVATION
 40
0.0
  9
$THICKNESS
 40
0.0
  9
$LIMCHECK
 70
     0
  9
$CHAMFERA
 40
0.5
  9
$CHAMFERB
 40
0.5
  9
$CHAMFERC
 40
1.0
  9
$CHAMFERD
 40
0.0
  9
$SKPOLY
 70
     0
  9
$TDCREATE
 40
2458964.441574074
  9
$TDUCREATE
 40
2458964.358246702
  9
$TDUPDATE
 40
2458964.474143519
  9
$TDUUPDATE
 40
2458964.390810185
  9
$TDINDWG
 40
0.0232407523
  9
$TDUSRTIMER
 40
0.0232407523
  9
$USRTIMER
 70
     1
  9
$ANGBASE
 50
0.0
  9
$ANGDIR
 70
     0
  9
$PDMODE
 70
    65
  9
$PDSIZE
 40
0.0
  9
$PLINEWID
 40
0.0
  9
$SPLFRAME
 70
     0
  9
$SPLINETYPE
 70
     6
  9
$SPLINESEGS
 70
     8
  9
$HANDSEED
  5
6DB
  9
$SURFTAB1
 70
     6
  9
$SURFTAB2
 70
     6
  9
$SURFTYPE
 70
     6
  9
$SURFU
 70
     6
  9
$SURFV
 70
     6
  9
$UCSBASE
  2

  9
$UCSNAME
  2

  9
$UCSORG
 10
0.0
 20
0.0
 30
0.0
  9
$UCSXDIR
 10
1.0
 20
0.0
 30
0.0
  9
$UCSYDIR
 10
0.0
 20
1.0
 30
0.0
  9
$UCSORTHOREF
  2

  9
$UCSORTHOVIEW
 70
     0
  9
$UCSORGTOP
 10
0.0
 20
0.0
 30
0.0
  9
$UCSORGBOTTOM
 10
0.0
 20
0.0
 30
0.0
  9
$UCSORGLEFT
 10
0.0
 20
0.0
 30
0.0
  9
$UCSORGRIGHT
 10
0.0
 20
0.0
 30
0.0
  9
$UCSORGFRONT
 10
0.0
 20
0.0
 30
0.0
  9
$UCSORGBACK
 10
0.0
 20
0.0
 30
0.0
  9
$PUCSBASE
  2

  9
$PUCSNAME
  2

  9
$PUCSORG
 10
0.0
 20
0.0
 30
0.0
  9
$PUCSXDIR
 10
1.0
 20
0.0
 30
0.0
  9
$PUCSYDIR
 10
0.0
 20
1.0
 30
0.0
  9
$PUCSORTHOREF
  2

  9
$PUCSORTHOVIEW
 70
     0
  9
$PUCSORGTOP
 10
0.0
 20
0.0
 30
0.0
  9
$PUCSORGBOTTOM
 10
0.0
 20
0.0
 30
0.0
  9
$PUCSORGLEFT
 10
0.0
 20
0.0
 30
0.0
  9
$PUCSORGRIGHT
 10
0.0
 20
0.0
 30
0.0
  9
$PUCSORGFRONT
 10
0.0
 20
0.0
 30
0.0
  9
$PUCSORGBACK
 10
0.0
 20
0.0
 30
0.0
  9
$USERI1
 70
     0
  9
$USERI2
 70
     0
  9
$USERI3
 70
     0
  9
$USERI4
 70
     0
  9
$USERI5
 70
     0
  9
$USERR1
 40
0.0
  9
$USERR2
 40
0.0
  9
$USERR3
 40
0.0
  9
$USERR4
 40
0.0
  9
$USERR5
 40
0.0
  9
$WORLDVIEW
 70
     1
  9
$SHADEDGE
 70
     3
  9
$SHADEDIF
 70
    70
  9
$TILEMODE
 70
     1
  9
$MAXACTVP
 70
    64
  9
$PINSBASE
 10
0.0
 20
0.0
 30
0.0
  9
$PLIMCHECK
 70
     0
  9
$PEXTMIN
 10
1.000000000000000E+20
 20
1.000000000000000E+20
 30
1.000000000000000E+20
  9
$PEXTMAX
 10
-1.000000000000000E+20
 20
-1.000000000000000E+20
 30
-1.000000000000000E+20
  9
$PLIMMIN
 10
0.0
 20
0.0
  9
$PLIMMAX
 10
12.0
 20
9.0
  9
$UNITMODE
 70
     0
  9
$VISRETAIN
 70
     1
  9
$PLINEGEN
 70
     0
  9
$PSLTSCALE
 70
     1
  9
$TREEDEPTH
 70
  3020
  9
$CMLSTYLE
  2
Standard
  9
$CMLJUST
 70
     0
  9
$CMLSCALE
 40
1.0
  9
$PROXYGRAPHICS
 70
     1
  9
$MEASUREMENT
 70
     1
  9
$CELWEIGHT
370
    -1
  9
$ENDCAPS
280
     0
  9
$JOINSTYLE
280
     0
  9
$LWDISPLAY
290
     0
  9
$INSUNITS
 70
     4
  9
$HYPERLINKBASE
  1

  9
$STYLESHEET
  1

  9
$XEDIT
290
     1
  9
$CEPSNTYPE
380
     0
  9
$PSTYLEMODE
290
     1
  9
$FINGERPRINTGUID
  2
{FAEC502A-CD86-4CB5-B841-66D53A19FF1B}
  9
$VERSIONGUID
  2
{6618FEF7-6630-9145-9125-12284560B169}
  9
$EXTNAMES
290
     1
  9
$PSVPSCALE
 40
0.0
  9
$OLESTARTUP
290
     0
  9
$SORTENTS
280
   127
  9
$INDEXCTL
280
     0
  9
$HIDETEXT
280
     1
  9
$XCLIPFRAME
280
     2
  9
$HALOGAP
280
     0
  9
$OBSCOLOR
 70
   257
  9
$OBSLTYPE
280
     0
  9
$INTERSECTIONDISPLAY
280
     0
  9
$INTERSECTIONCOLOR
 70
   257
  9
$DIMASSOC
280
     2
  9
$PROJECTNAME
  1

  9
$CAMERADISPLAY
290
     0
  9
$LENSLENGTH
 40
50.0
  9
$CAMERAHEIGHT
 40
0.0
  9
$STEPSPERSEC
 40
2.0
  9
$STEPSIZE
 40
6.0
  9
$3DDWFPREC
 40
2.0
  9
$PSOLWIDTH
 40
0.25
  9
$PSOLHEIGHT
 40
4.0
  9
$LOFTANG1
 40
1.570796326794896
  9
$LOFTANG2
 40
1.570796326794896
  9
$LOFTMAG1
 40
0.0
  9
$LOFTMAG2
 40
0.0
  9
$LOFTPARAM
 70
     7
  9
$LOFTNORMALS
280
     1
  9
$LATITUDE
 40
37.795
  9
$LONGITUDE
 40
-122.394
  9
$NORTHDIRECTION
 40
0.0
  9
$TIMEZONE
 70
 -8000
  9
$LIGHTGLYPHDISPLAY
280
     1
  9
$TILEMODELIGHTSYNCH
280
     1
  9
$CMATERIAL
347
3C
  9
$SOLIDHIST
280
     1
  9
$SHOWHIST
280
     1
  9
$DWFFRAME
280
     2
  9
$DGNFRAME
280
     2
  9
$REALWORLDSCALE
290
     1
  9
$INTERFERECOLOR
 62
   256
  9
$INTERFEREOBJVS
345
33
  9
$INTERFEREVPVS
346
30D
  9
$CSHADOW
280
     0
  9
$SHADOWPLANELOCATION
 40
0.0
  0
ENDSEC
  0
SECTION
  2
CLASSES
  0
CLASS
  1
ACDBDICTIONARYWDFLT
  2
AcDbDictionaryWithDefault
  3
ObjectDBX Classes
 90
        0
 91
        1
280
     0
281
     0
  0
CLASS
  1
VISUALSTYLE
  2
AcDbVisualStyle
  3
ObjectDBX Classes
 90
     4095
 91
       26
280
     0
281
     0
  0
CLASS
  1
MATERIAL
  2
AcDbMaterial
  3
ObjectDBX Classes
 90
     1153
 91
        3
280
     0
281
     0
  0
CLASS
  1
SCALE
  2
AcDbScale
  3
ObjectDBX Classes
 90
     1153
 91
       33
280
     0
281
     0
  0
CLASS
  1
SORTENTSTABLE
  2
AcDbSortentsTable
  3
ObjectDBX Classes
 90
        0
 91
        1
280
     0
281
     0
  0
CLASS
  1
DICTIONARYVAR
  2
AcDbDictionaryVar
  3
ObjectDBX Classes
 90
        0
 91
       21
280
     0
281
     0
  0
CLASS
  1
TABLESTYLE
  2
AcDbTableStyle
  3
ObjectDBX Classes
 90
     4095
 91
        1
280
     0
281
     0
  0
CLASS
  1
MLEADERSTYLE
  2
AcDbMLeaderStyle
  3
ACDB_MLEADERSTYLE_CLASS
 90
     4095
 91
        1
280
     0
281
     0
  0
CLASS
  1
ACDBSECTIONVIEWSTYLE
  2
AcDbSectionViewStyle
  3
ObjectDBX Classes
 90
     1025
 91
        1
280
     0
281
     0
  0
CLASS
  1
ACDBDETAILVIEWSTYLE
  2
AcDbDetailViewStyle
  3
ObjectDBX Classes
 90
     1025
 91
        1
280
     0
281
     0
  0
CLASS
  1
ACAD_EVALUATION_GRAPH
  2
AcDbEvalGraph
  3
ObjectDBX Classes
 90
     1153
 91
        2
280
     0
281
     0
  0
CLASS
  1
ACAECUSTOBJ
  2
AcAeEditorObj
  3
AcAeEditorObj
 90
     1024
 91
        2
280
     0
281
     0
  0
CLASS
  1
ACDB_DYNAMICBLOCKPURGEPREVENTER_VERSION
  2
AcDbDynamicBlockPurgePreventer
  3
ObjectDBX Classes
 90
     1153
 91
        2
280
     0
281
     0
  0
CLASS
  1
CELLSTYLEMAP
  2
AcDbCellStyleMap
  3
ObjectDBX Classes
 90
     1152
 91
        2
280
     0
281
     0
  0
ENDSEC
  0
SECTION
  2
TABLES
  0
TABLE
  2
VPORT
  5
8
330
0
100
AcDbSymbolTable
 70
     1
  0
VPORT
  5
29
330
8
100
AcDbSymbolTableRecord
100
AcDbViewportTableRecord
  2
*Active
 70
     0
 10
0.0
 20
0.0
 11
1.0
 21
1.0
 12
525.0000024447217
 22
742.5000034575348
 13
0.0
 23
0.0
 14
0.5
 24
0.5
 15
0.5
 25
0.5
 16
0.0
 26
0.0
 36
1.0
 17
0.0
 27
0.0
 37
0.0
 40
1495.723744394778
 41
1.806451612903225
 42
50.0
 43
0.0
 44
0.0
 50
0.0
 51
0.0
 71
     0
 72
   100
 73
     1
 74
     3
 75
     0
 76
     0
 77
     0
 78
     0
281
     0
 65
     1
110
0.0
120
0.0
130
0.0
111
1.0
121
0.0
131
0.0
112
0.0
122
1.0
132
0.0
 79
     0
146
0.0
348
2F
 60
     3
 61
     5
292
     1
282
     1
141
0.0
142
0.0
 63
   250
1001
ACAD_NAV_VCDISPLAY
1070
     3
  0
ENDTAB
  0
TABLE
  2
LTYPE
  5
5
330
0
100
AcDbSymbolTable
 70
     7
  0
LTYPE
  5
14
330
5
100
AcDbSymbolTableRecord
100
AcDbLinetypeTableRecord
  2
ByBlock
 70
     0
  3

 72
    65
 73
     0
 40
0.0
  0
LTYPE
  5
15
330
5
100
AcDbSymbolTableRecord
100
AcDbLinetypeTableRecord
  2
ByLayer
 70
     0
  3

 72
    65
 73
     0
 40
0.0
  0
LTYPE
  5
16
330
5
100
AcDbSymbolTableRecord
100
AcDbLinetypeTableRecord
  2
Continuous
 70
     0
  3
Solid line
 72
    65
 73
     0
 40
0.0
  0
LTYPE
  5
41
330
5
100
AcDbSymbolTableRecord
100
AcDbLinetypeTableRecord
  2
ALL_S17
 70
     0
  3
Dotted
 72
    65
 73
     2
 40
3.5
 49
0.0
 74
     0
 49
-3.5
 74
     0
  0
LTYPE
  5
42
330
5
100
AcDbSymbolTableRecord
100
AcDbLinetypeTableRecord
  2
PUNKT2_S9
 70
     0
  3
Eng Punktiert
 72
    65
 73
     2
 40
5.0
 49
0.0
 74
     0
 49
-5.0
 74
     0
  0
LTYPE
  5
43
330
5
100
AcDbSymbolTableRecord
100
AcDbLinetypeTableRecord
  2
STRICHLINIE2_S3
 70
     0
  3
Gestrichelt
 72
    65
 73
     2
 40
25.0
 49
20.0
 74
     0
 49
-5.0
 74
     0
  0
LTYPE
  5
44
330
5
100
AcDbSymbolTableRecord
100
AcDbLinetypeTableRecord
  2
STRICHPUNKT2_S5
 70
     0
  3
Lang eng gestrichelt bzw. punktiert
 72
    65
 73
     4
 40
55.0
 49
40.0
 74
     0
 49
-5.0
 74
     0
 49
5.0
 74
     0
 49
-5.0
 74
     0
  0
LTYPE
  5
45
330
5
100
AcDbSymbolTableRecord
100
AcDbLinetypeTableRecord
  2
VERDECKT2_S2
 70
     0
  3
Kurzgestrichelt
 72
    65
 73
     2
 40
13.5
 49
10.0
 74
     0
 49
-3.5
 74
     0
  0
ENDTAB
  0
TABLE
  2
LAYER
  5
2
102
{ACAD_XDICTIONARY
360
32C
102
}
330
0
100
AcDbSymbolTable
 70
    17
  0
LAYER
  5
10
330
2
100
AcDbSymbolTableRecord
100
AcDbLayerTableRecord
  2
0
 70
     0
 62
     7
  6
Continuous
370
    -3
390
F
347
3E
  0
LAYER
  5
46
330
2
100
AcDbSymbolTableRecord
100
AcDbLayerTableRecord
  2
AANHAALLIJN
 70
     0
 62
     7
  6
Continuous
370
    18
390
F
347
3E
1001
AcAecLayerStandard
1000

1000
000101, on
  0
LAYER
  5
48
330
2
100
AcDbSymbolTableRecord
100
AcDbLayerTableRecord
  2
AFBREEKLIJNEN
 70
     0
 62
     7
  6
Continuous
370
    35
390
F
347
3E
1001
AcAecLayerStandard
1000

1000
000201, on
  0
LAYER
  5
49
330
2
100
AcDbSymbolTableRecord
100
AcDbLayerTableRecord
  2
BAKSTEEN
 70
     0
 62
    30
  6
Continuous
370
    70
390
F
347
3E
1001
AcAecLayerStandard
1000

1000
21121, on
  0
LAYER
  5
4A
330
2
100
AcDbSymbolTableRecord
100
AcDbLayerTableRecord
  2
DILALATIEVOEG EN AFDICHTING
 70
     0
 62
     5
  6
Continuous
370
    35
390
F
347
3E
1001
AcAecLayerStandard
1000

1000
211031, on
  0
LAYER
  5
4B
330
2
100
AcDbSymbolTableRecord
100
AcDbLayerTableRecord
  2
HOUT
 70
     0
 62
     5
  6
Continuous
370
    35
390
F
347
3E
1001
AcAecLayerStandard
1000

1000
43261, on
  0
LAYER
  5
4C
330
2
100
AcDbSymbolTableRecord
100
AcDbLayerTableRecord
  2
KALKZANDSTEEN
 70
     0
 62
     2
  6
Continuous
370
   100
390
F
347
3E
1001
AcAecLayerStandard
1000

1000
22223, on
  0
LAYER
  5
4D
330
2
100
AcDbSymbolTableRecord
100
AcDbLayerTableRecord
  2
Maaiveld
 70
     0
 62
    92
  6
Continuous
370
    25
390
F
347
3E
1001
AcAecLayerStandard
1000

1000
ST_MVLD, on
  0
LAYER
  5
4E
330
2
100
AcDbSymbolTableRecord
100
AcDbLayerTableRecord
  2
Maatlijnen 1_5
 70
     0
 62
     7
  6
Continuous
370
    18
390
F
347
3E
1001
AcAecLayerStandard
1000

1000
ML_5, on
  0
LAYER
  5
4F
330
2
100
AcDbSymbolTableRecord
100
AcDbLayerTableRecord
  2
PS FUNDERINGSBEKISTING
 70
     0
 62
     2
  6
Continuous
370
   100
390
F
347
3E
1001
AcAecLayerStandard
1000

1000
161221, on
  0
LAYER
  5
50
330
2
100
AcDbSymbolTableRecord
100
AcDbLayerTableRecord
  2
RIB-CASSETTE VLOEREN
 70
     0
 62
     2
  6
Continuous
370
   100
390
F
347
3E
1001
AcAecLayerStandard
1000

1000
23216, on
  0
LAYER
  5
51
330
2
100
AcDbSymbolTableRecord
100
AcDbLayerTableRecord
  2
STANDARD
 70
     0
 62
     7
  6
Continuous
370
    25
390
F
347
3E
1001
AcAecLayerStandard
1000

1000
DEFAULT
  0
LAYER
  5
52
330
2
100
AcDbSymbolTableRecord
100
AcDbLayerTableRecord
  2
STEENWOL
 70
     0
 62
     5
  6
Continuous
370
    35
390
F
347
3E
1001
AcAecLayerStandard
1000

1000
223111, on
  0
LAYER
  5
53
330
2
100
AcDbSymbolTableRecord
100
AcDbLayerTableRecord
  2
VENTILATIEKOKERS-ROOSTERS
 70
     0
 62
     5
  6
Continuous
370
    35
390
F
347
3E
1001
AcAecLayerStandard
1000

1000
211021, on
  0
LAYER
  5
54
330
2
100
AcDbSymbolTableRecord
100
AcDbLayerTableRecord
  2
VLOERBEDEKKING
 70
     0
 62
     5
  6
Continuous
370
    35
390
F
347
3E
1001
AcAecLayerStandard
1000

1000
43222, on
  0
LAYER
  5
55
330
2
100
AcDbSymbolTableRecord
100
AcDbLayerTableRecord
  2
ZANDCEMENT DEKVLOEREN
 70
     0
 62
     5
  6
Continuous
370
    35
390
F
347
3E
1001
AcAecLayerStandard
1000

1000
432111, on
  0
LAYER
  5
1A6
330
2
100
AcDbSymbolTableRecord
100
AcDbLayerTableRecord
  2
DEFPOINTS
 70
     0
 62
     7
  6
Continuous
290
     0
370
    -3
390
F
347
3E
  0
ENDTAB
  0
TABLE
  2
STYLE
  5
3
330
0
100
AcDbSymbolTable
 70
     4
  0
STYLE
  5
11
330
3
100
AcDbSymbolTableRecord
100
AcDbTextStyleTableRecord
  2
Standard
 70
     0
 40
0.0
 41
1.0
 50
0.0
 71
     0
 42
0.2
  3
txt
  4

  0
STYLE
  5
3F
330
3
100
AcDbSymbolTableRecord
100
AcDbTextStyleTableRecord
  2
ARIAL
 70
     0
 40
0.0
 41
1.0
 50
0.0
 71
     0
 42
0.0
  3
ARIAL.TTF
  4

1001
ACAD
1000
Arial
1071
       34
  0
STYLE
  5
40
330
3
100
AcDbSymbolTableRecord
100
AcDbTextStyleTableRecord
  2
TAHOMA
 70
     0
 40
0.0
 41
1.0
 50
0.0
 71
     0
 42
0.0
  3
TAHOMA.TTF
  4

1001
ACAD
1000
Tahoma
1071
       34
  0
STYLE
  5
56
330
3
100
AcDbSymbolTableRecord
100
AcDbTextStyleTableRecord
  2
Trebuchet MS
 70
     0
 40
0.0
 41
1.0
 50
0.0
 71
     0
 42
0.0
  3
trebuc.ttf
  4

1001
ACAD
1000
Trebuchet MS
1071
        0
  0
ENDTAB
  0
TABLE
  2
VIEW
  5
6
330
0
100
AcDbSymbolTable
 70
     4
  0
ENDTAB
  0
TABLE
  2
UCS
  5
7
330
0
100
AcDbSymbolTable
 70
     0
  0
ENDTAB
  0
TABLE
  2
APPID
  5
9
330
0
100
AcDbSymbolTable
 70
     8
  0
APPID
  5
12
330
9
100
AcDbSymbolTableRecord
100
AcDbRegAppTableRecord
  2
ACAD
 70
     0
  0
APPID
  5
47
330
9
100
AcDbSymbolTableRecord
100
AcDbRegAppTableRecord
  2
AcAecLayerStandard
 70
     0
  0
APPID
  5
9A
330
9
100
AcDbSymbolTableRecord
100
AcDbRegAppTableRecord
  2
NEM_ODX
 70
     0
  0
APPID
  5
332
330
9
100
AcDbSymbolTableRecord
100
AcDbRegAppTableRecord
  2
ACAD_NAV_VCDISPLAY
 70
     0
  0
APPID
  5
552
330
9
100
AcDbSymbolTableRecord
100
AcDbRegAppTableRecord
  2
ACAUTHENVIRON
 70
     0
  0
APPID
  5
556
330
9
100
AcDbSymbolTableRecord
100
AcDbRegAppTableRecord
  2
ACAD_EXEMPT_FROM_CAD_STANDARDS
 70
     0
  0
APPID
  5
558
330
9
100
AcDbSymbolTableRecord
100
AcDbRegAppTableRecord
  2
AcDbDynamicBlockTrueName
 70
     0
  0
APPID
  5
559
330
9
100
AcDbSymbolTableRecord
100
AcDbRegAppTableRecord
  2
AcDbDynamicBlockGUID
 70
     0
  0
ENDTAB
  0
TABLE
  2
DIMSTYLE
  5
A
330
0
100
AcDbSymbolTable
 70
     5
100
AcDbDimStyleTable
 71
     2
340
1ED
340
1B7
  0
DIMSTYLE
105
27
330
A
100
AcDbSymbolTableRecord
100
AcDbDimStyleTableRecord
  2
Standard
 70
     0
340
11
  0
DIMSTYLE
105
1B7
330
A
100
AcDbSymbolTableRecord
100
AcDbDimStyleTableRecord
  2
_DIMSTYLE_2
 70
     0
  3
<>
 41
15.0
 42
0.001
 43
0.0
 44
0.0
 45
0.1
 73
     0
 74
     0
 75
     1
 76
     1
 77
     2
 78
    12
140
10.0
141
0.0
147
5.0
172
     1
173
     1
174
     1
176
    30
177
    30
178
    30
271
     0
272
     0
274
     0
278
     0
279
     2
283
     0
340
56
343
1A7
344
1A7
371
     0
372
    18
  0
DIMSTYLE
105
1ED
102
{ACAD_REACTORS
330
1EE
330
1F9
330
205
330
214
330
21F
330
22B
330
1B8
330
252
330
25D
330
273
330
245
330
238
330
268
102
}
330
A
100
AcDbSymbolTableRecord
100
AcDbDimStyleTableRecord
  2
_DIMSTYLE_3
 70
     0
  3
<>
 41
15.0
 42
0.001
 43
0.0
 44
0.0
 45
0.1
 73
     0
 74
     0
 75
     1
 76
     1
 77
     2
 78
    12
140
10.0
141
0.0
147
5.0
172
     1
173
     1
174
     1
176
    30
177
    30
178
    30
271
     0
272
     0
274
     0
278
     0
279
     2
283
     0
340
56
343
1A7
344
1A7
371
     0
372
    18
  0
DIMSTYLE
105
204
330
A
100
AcDbSymbolTableRecord
100
AcDbDimStyleTableRecord
  2
_DIMSTYLE_4
 70
     0
  3
<>
 41
15.0
 42
0.001
 43
0.0
 44
0.0
 45
0.1
 73
     0
 74
     0
 75
     1
 76
     1
 77
     2
 78
    12
140
10.0
141
0.0
145
1.199999999999999
147
5.0
172
     1
173
     1
174
     1
176
    30
177
    30
178
    30
271
     0
272
     0
274
     0
278
     0
279
     2
283
     0
340
56
343
1A7
344
1A7
371
     0
372
    18
  0
DIMSTYLE
105
22A
330
A
100
AcDbSymbolTableRecord
100
AcDbDimStyleTableRecord
  2
_DIMSTYLE_5
 70
     0
  3
<>
 41
15.0
 42
0.001
 43
0.0
 44
0.0
 45
0.1
 73
     0
 74
     0
 75
     1
 76
     1
 77
     2
 78
    12
140
10.0
141
0.0
145
1.199999999999999
147
5.0
172
     1
173
     1
174
     1
176
    30
177
    30
178
    30
271
     0
272
     0
274
     0
278
     0
279
     2
283
     0
340
56
343
1A7
344
1A7
371
     0
372
    18
  0
ENDTAB
  0
TABLE
  2
BLOCK_RECORD
  5
1
330
0
100
AcDbSymbolTable
 70
    28
  0
BLOCK_RECORD
  5
1F
102
{ACAD_XDICTIONARY
360
306
102
}
330
1
100
AcDbSymbolTableRecord
100
AcDbBlockTableRecord
  2
*Model_Space
340
22
 70
     0
280
     1
281
     0
  0
BLOCK_RECORD
  5
1B
330
1
100
AcDbSymbolTableRecord
100
AcDbBlockTableRecord
  2
*Paper_Space
340
1E
 70
     0
280
     1
281
     0
  0
BLOCK_RECORD
  5
23
330
1
100
AcDbSymbolTableRecord
100
AcDbBlockTableRecord
  2
*Paper_Space0
340
26
 70
     0
280
     1
281
     0
  0
BLOCK_RECORD
  5
57
330
1
100
AcDbSymbolTableRecord
100
AcDbBlockTableRecord
  2
NSY140
340
0
 70
     4
280
     1
281
     0
  0
BLOCK_RECORD
  5
5D
330
1
100
AcDbSymbolTableRecord
100
AcDbBlockTableRecord
  2
NSY154
340
0
102
{BLKREFS
331
F5
331
FA
331
FC
331
154
331
159
331
15A
331
A3
331
A4
331
A5
331
A6
331
B0
331
B4
331
B6
331
E8
331
E9
331
EA
331
EB
331
17F
331
1A3
331
1B9
331
1BA
331
1BB
331
1BC
331
2FF
331
300
331
296
331
297
331
299
331
29A
331
29D
331
29E
331
2A0
331
2A1
331
2A5
331
2A6
331
2A7
331
1E1
331
208
102
}
 70
     4
280
     1
281
     0
  0
BLOCK_RECORD
  5
BC
330
1
100
AcDbSymbolTableRecord
100
AcDbBlockTableRecord
  2
COMPLEX_ELEVATIONDIM_0
340
0
 70
     4
280
     1
281
     0
  0
BLOCK_RECORD
  5
102
102
{ACAD_XDICTIONARY
360
567
102
}
330
1
100
AcDbSymbolTableRecord
100
AcDbBlockTableRecord
  2
COMPLEX_ELEVATIONDIM_1
340
0
102
{BLKREFS
331
10E
102
}
 70
     4
280
     1
281
     0
1001
AcDbDynamicBlockGUID
1000
{BA023945-AA67-6142-8975-A136AC2ABB72}
  0
BLOCK_RECORD
  5
12E
330
1
100
AcDbSymbolTableRecord
100
AcDbBlockTableRecord
  2
COMPLEXOBJECT_0
340
0
102
{BLKREFS
331
14D
102
}
 70
     4
280
     1
281
     0
  0
BLOCK_RECORD
  5
131
330
1
100
AcDbSymbolTableRecord
100
AcDbBlockTableRecord
  2
PATTERNELEMENT_0
340
0
102
{BLKREFS
331
14B
102
}
 70
     4
280
     1
281
     0
  0
BLOCK_RECORD
  5
1A7
330
1
100
AcDbSymbolTableRecord
100
AcDbBlockTableRecord
  2
ALL_ML_STRICH
340
0
102
{BLKREFS
331
4B2
331
4B3
331
4BB
331
4BC
331
4C2
331
4C3
331
4C9
331
4CA
331
4D2
331
4D3
331
4D9
331
4DA
331
4E0
331
4E1
331
597
331
598
331
59E
331
59F
331
494
331
495
331
49B
331
49C
331
4A4
331
4A5
331
4AB
331
4AC
102
}
 70
     4
280
     1
281
     0
  0
BLOCK_RECORD
  5
1AD
330
1
100
AcDbSymbolTableRecord
100
AcDbBlockTableRecord
  2
*D8
340
0
 70
     4
280
     1
281
     0
  0
BLOCK_RECORD
  5
1BE
330
1
100
AcDbSymbolTableRecord
100
AcDbBlockTableRecord
  2
COMPLEX_ELEVATIONDIM_2
340
0
 70
     4
280
     1
281
     0
  0
BLOCK_RECORD
  5
1CE
102
{ACAD_XDICTIONARY
360
553
102
}
330
1
100
AcDbSymbolTableRecord
100
AcDbBlockTableRecord
  2
COMPLEX_ELEVATIONDIM_3
340
0
102
{BLKREFS
331
1DA
102
}
 70
     4
280
     1
281
     0
1001
AcDbDynamicBlockGUID
1000
{5CE2E2B5-1E03-FA4C-BDAA-205F2640F647}
  0
BLOCK_RECORD
  5
1E3
330
1
100
AcDbSymbolTableRecord
100
AcDbBlockTableRecord
  2
*D11
340
0
 70
     4
280
     1
281
     0
  0
BLOCK_RECORD
  5
1EF
330
1
100
AcDbSymbolTableRecord
100
AcDbBlockTableRecord
  2
*D12
340
0
 70
     4
280
     1
281
     0
  0
BLOCK_RECORD
  5
1FA
330
1
100
AcDbSymbolTableRecord
100
AcDbBlockTableRecord
  2
*D13
340
0
 70
     4
280
     1
281
     0
  0
BLOCK_RECORD
  5
20A
330
1
100
AcDbSymbolTableRecord
100
AcDbBlockTableRecord
  2
*D14
340
0
 70
     4
280
     1
281
     0
  0
BLOCK_RECORD
  5
215
330
1
100
AcDbSymbolTableRecord
100
AcDbBlockTableRecord
  2
*D15
340
0
 70
     4
280
     1
281
     0
  0
BLOCK_RECORD
  5
220
330
1
100
AcDbSymbolTableRecord
100
AcDbBlockTableRecord
  2
*D16
340
0
 70
     4
280
     1
281
     0
  0
BLOCK_RECORD
  5
22E
330
1
100
AcDbSymbolTableRecord
100
AcDbBlockTableRecord
  2
*D17
340
0
 70
     4
280
     1
281
     0
  0
BLOCK_RECORD
  5
23B
330
1
100
AcDbSymbolTableRecord
100
AcDbBlockTableRecord
  2
*D18
340
0
 70
     4
280
     1
281
     0
  0
BLOCK_RECORD
  5
248
330
1
100
AcDbSymbolTableRecord
100
AcDbBlockTableRecord
  2
*D19
340
0
 70
     4
280
     1
281
     0
  0
BLOCK_RECORD
  5
253
330
1
100
AcDbSymbolTableRecord
100
AcDbBlockTableRecord
  2
*D20
340
0
 70
     4
280
     1
281
     0
  0
BLOCK_RECORD
  5
25E
330
1
100
AcDbSymbolTableRecord
100
AcDbBlockTableRecord
  2
*D21
340
0
 70
     4
280
     1
281
     0
  0
BLOCK_RECORD
  5
269
330
1
100
AcDbSymbolTableRecord
100
AcDbBlockTableRecord
  2
*D22
340
0
 70
     4
280
     1
281
     0
  0
BLOCK_RECORD
  5
274
330
1
100
AcDbSymbolTableRecord
100
AcDbBlockTableRecord
  2
COMPLEXOBJECT_1
340
0
102
{BLKREFS
331
294
102
}
 70
     4
280
     1
281
     0
  0
BLOCK_RECORD
  5
277
330
1
100
AcDbSymbolTableRecord
100
AcDbBlockTableRecord
  2
PATTERNELEMENT_1
340
0
102
{BLKREFS
331
292
102
}
 70
     4
280
     1
281
     0
  0
BLOCK_RECORD
  5
2AA
330
1
100
AcDbSymbolTableRecord
100
AcDbBlockTableRecord
  2
COMPLEXOBJECT_2
340
0
102
{BLKREFS
331
2F6
102
}
 70
     4
280
     1
281
     0
  0
ENDTAB
  0
ENDSEC
  0
SECTION
  2
BLOCKS
  0
BLOCK
  5
20
330
1F
100
AcDbEntity
  8
0
100
AcDbBlockBegin
  2
*Model_Space
 70
     0
 10
0.0
 20
0.0
 30
0.0
  3
*Model_Space
  1

  0
ENDBLK
  5
21
330
1F
100
AcDbEntity
  8
0
100
AcDbBlockEnd
  0
BLOCK
  5
1C
330
1B
100
AcDbEntity
 67
     1
  8
0
100
AcDbBlockBegin
  2
*Paper_Space
 70
     0
 10
0.0
 20
0.0
 30
0.0
  3
*Paper_Space
  1

  0
ENDBLK
  5
1D
330
1B
100
AcDbEntity
 67
     1
  8
0
100
AcDbBlockEnd
  0
BLOCK
  5
24
330
23
100
AcDbEntity
 67
     1
  8
0
100
AcDbBlockBegin
  2
*Paper_Space0
 70
     0
 10
0.0
 20
0.0
 30
0.0
  3
*Paper_Space0
  1

  0
ENDBLK
  5
25
330
23
100
AcDbEntity
 67
     1
  8
0
100
AcDbBlockEnd
  0
BLOCK
  5
58
330
57
100
AcDbEntity
  8
0
100
AcDbBlockBegin
  2
NSY140
 70
     0
 10
0.0
 20
0.0
 30
0.0
  3
NSY140
  1

  0
LINE
  5
5A
330
57
100
AcDbEntity
  8
0
  6
ByBlock
 62
     0
370
    -2
100
AcDbLine
 10
0.0
 20
-2.5
 30
0.0
 11
0.0
 21
2.5
 31
0.0
  0
LINE
  5
5B
330
57
100
AcDbEntity
  8
0
  6
ByBlock
 62
     0
370
    -2
100
AcDbLine
 10
-2.5
 20
0.0
 30
0.0
 11
2.5
 21
0.0
 31
0.0
  0
LINE
  5
5C
330
57
100
AcDbEntity
  8
0
  6
ByBlock
 62
     0
370
    -2
100
AcDbLine
 10
-1.499999999999999
 20
-1.499999999999999
 30
0.0
 11
1.499999999999999
 21
1.499999999999999
 31
0.0
  0
ENDBLK
  5
59
330
57
100
AcDbEntity
  8
0
100
AcDbBlockEnd
  0
BLOCK
  5
5E
330
5D
100
AcDbEntity
  8
0
100
AcDbBlockBegin
  2
NSY154
 70
     0
 10
0.0
 20
0.0
 30
0.0
  3
NSY154
  1

  0
LINE
  5
60
330
5D
100
AcDbEntity
  8
0
  6
ByBlock
 62
     0
370
    -2
100
AcDbLine
 10
-0.0000000000000002
 20
-2.625
 30
0.0
 11
0.0000000000000002
 21
2.625
 31
0.0
  0
CIRCLE
  5
61
330
5D
100
AcDbEntity
  8
0
  6
ByBlock
 62
     0
370
    -2
100
AcDbCircle
 10
0.0
 20
0.0
 30
0.0
 40
2.625
  0
LINE
  5
62
330
5D
100
AcDbEntity
  8
0
  6
ByBlock
 62
     0
370
    -2
100
AcDbLine
 10
-2.621249999999999
 20
0.0000000000000002
 30
0.0
 11
2.625
 21
-0.0000000000000002
 31
0.0
  0
ARC
  5
63
330
5D
100
AcDbEntity
  8
0
  6
ByBlock
 62
     0
370
    -2
100
AcDbCircle
 10
0.0
 20
0.0
 30
0.0
 40
0.375
100
AcDbArc
 50
0.0
 51
90.0
  0
ARC
  5
64
330
5D
100
AcDbEntity
  8
0
  6
ByBlock
 62
     0
370
    -2
100
AcDbCircle
 10
0.0
 20
0.0
 30
0.0
 40
0.75
100
AcDbArc
 50
0.0
 51
90.0
  0
ARC
  5
65
330
5D
100
AcDbEntity
  8
0
  6
ByBlock
 62
     0
370
    -2
100
AcDbCircle
 10
0.0
 20
0.0
 30
0.0
 40
1.125
100
AcDbArc
 50
0.0
 51
90.0
  0
ARC
  5
66
330
5D
100
AcDbEntity
  8
0
  6
ByBlock
 62
     0
370
    -2
100
AcDbCircle
 10
0.0
 20
0.0
 30
0.0
 40
1.875
100
AcDbArc
 50
0.0
 51
90.0
  0
ARC
  5
67
330
5D
100
AcDbEntity
  8
0
  6
ByBlock
 62
     0
370
    -2
100
AcDbCircle
 10
0.0
 20
0.0
 30
0.0
 40
1.5
100
AcDbArc
 50
0.0
 51
90.0
  0
ARC
  5
68
330
5D
100
AcDbEntity
  8
0
  6
ByBlock
 62
     0
370
    -2
100
AcDbCircle
 10
0.0
 20
0.0
 30
0.0
 40
2.25
100
AcDbArc
 50
0.0
 51
90.0
  0
ARC
  5
69
330
5D
100
AcDbEntity
  8
0
  6
ByBlock
 62
     0
370
    -2
100
AcDbCircle
 10
0.0
 20
0.0
 30
0.0
 40
0.375
100
AcDbArc
 50
180.0
 51
270.0
  0
ARC
  5
6A
330
5D
100
AcDbEntity
  8
0
  6
ByBlock
 62
     0
370
    -2
100
AcDbCircle
 10
0.0
 20
0.0
 30
0.0
 40
0.75
100
AcDbArc
 50
180.0
 51
270.0
  0
ARC
  5
6B
330
5D
100
AcDbEntity
  8
0
  6
ByBlock
 62
     0
370
    -2
100
AcDbCircle
 10
0.0
 20
0.0
 30
0.0
 40
1.125
100
AcDbArc
 50
180.0
 51
270.0
  0
ARC
  5
6C
330
5D
100
AcDbEntity
  8
0
  6
ByBlock
 62
     0
370
    -2
100
AcDbCircle
 10
0.0
 20
0.0
 30
0.0
 40
1.875
100
AcDbArc
 50
180.0
 51
270.0
  0
ARC
  5
6D
330
5D
100
AcDbEntity
  8
0
  6
ByBlock
 62
     0
370
    -2
100
AcDbCircle
 10
0.0
 20
0.0
 30
0.0
 40
1.5
100
AcDbArc
 50
180.0
 51
270.0
  0
ARC
  5
6E
330
5D
100
AcDbEntity
  8
0
  6
ByBlock
 62
     0
370
    -2
100
AcDbCircle
 10
0.0
 20
0.0
 30
0.0
 40
2.25
100
AcDbArc
 50
180.0
 51
270.0
  0
LINE
  5
6F
330
5D
100
AcDbEntity
  8
0
  6
ByBlock
 62
     0
370
    -2
100
AcDbLine
 10
-0.0000000000000002
 20
-3.75
 30
0.0
 11
0.0000000000000002
 21
3.75
 31
0.0
  0
LINE
  5
70
330
5D
100
AcDbEntity
  8
0
  6
ByBlock
 62
     0
370
    -2
100
AcDbLine
 10
-3.75
 20
0.0000000000000002
 30
0.0
 11
3.75
 21
-0.0000000000000002
 31
0.0
  0
ENDBLK
  5
5F
330
5D
100
AcDbEntity
  8
0
100
AcDbBlockEnd
  0
BLOCK
  5
BD
330
BC
100
AcDbEntity
  8
0
100
AcDbBlockBegin
  2
COMPLEX_ELEVATIONDIM_0
 70
     0
 10
0.0
 20
0.0
 30
0.0
  3
COMPLEX_ELEVATIONDIM_0
  1

  0
LINE
  5
BF
330
BC
100
AcDbEntity
  8
Maatlijnen 1_5
  6
Continuous
 62
    30
370
    18
100
AcDbLine
 10
92.79661254494568
 20
856.9032285897046
 30
0.0
 11
98.04661254494568
 21
864.4032285897047
 31
0.0
  0
LINE
  5
C0
330
BC
100
AcDbEntity
  8
Maatlijnen 1_5
  6
Continuous
 62
    30
370
    18
100
AcDbLine
 10
98.04661254494568
 20
864.4032285897047
 30
0.0
 11
87.54661254494568
 21
864.4032285897047
 31
0.0
  0
LINE
  5
C1
330
BC
100
AcDbEntity
  8
Maatlijnen 1_5
  6
Continuous
 62
    30
370
    18
100
AcDbLine
 10
87.54661254494568
 20
864.4032285897047
 30
0.0
 11
92.79661254494568
 21
856.9032285897046
 31
0.0
  0
HATCH
  5
C2
330
BC
100
AcDbEntity
  8
Maatlijnen 1_5
  6
Continuous
 62
    30
370
    18
100
AcDbHatch
 10
0.0
 20
0.0
 30
0.0
210
0.0
220
0.0
230
1.0
  2
SOLID
 70
     1
 71
     0
 91
        1
 92
        3
 72
     0
 73
     1
 93
        3
 10
92.79661254494568
 20
856.9032285897046
 10
98.04661254494568
 20
864.4032285897047
 10
87.54661254494568
 20
864.4032285897047
 97
        0
 75
     0
 76
     1
 98
        0
450
        0
451
        0
460
0.0
461
0.0
452
        1
462
0.0
453
        0
470

  0
LINE
  5
C3
330
BC
100
AcDbEntity
  8
Maatlijnen 1_5
  6
Continuous
 62
    30
370
    18
100
AcDbLine
 10
92.79661254494568
 20
856.9032285897046
 30
0.0
 11
92.79661254494568
 21
856.9032285897046
 31
0.0
  0
LINE
  5
C4
330
BC
100
AcDbEntity
  8
Maatlijnen 1_5
  6
Continuous
 62
    30
370
    18
100
AcDbLine
 10
92.79661254494568
 20
856.9032285897046
 30
0.0
 11
92.79661254494568
 21
856.9032285897046
 31
0.0
  0
LINE
  5
C5
330
BC
100
AcDbEntity
  8
Maatlijnen 1_5
  6
Continuous
 62
    30
370
    18
100
AcDbLine
 10
92.79661254494568
 20
856.9032285897046
 30
0.0
 11
92.79661254494568
 21
856.9032285897046
 31
0.0
  0
LINE
  5
C6
330
BC
100
AcDbEntity
  8
Maatlijnen 1_5
  6
Continuous
 62
    30
370
    18
100
AcDbLine
 10
92.79661254494568
 20
856.9032285897046
 30
0.0
 11
92.79661254494568
 21
856.9032285897046
 31
0.0
  0
MTEXT
  5
C7
330
BC
100
AcDbEntity
  8
Maatlijnen 1_5
  6
Continuous
 62
    30
370
    18
100
AcDbMText
 10
98.04661254494568
 20
869.4032285897046
 30
0.0
 40
10.0
 41
3.5
 46
0.0
 71
     7
 72
     5
  1
\W0.70;P\~=\~0
  7
Trebuchet MS
 73
     1
 44
1.0
  0
ENDBLK
  5
BE
330
BC
100
AcDbEntity
  8
0
100
AcDbBlockEnd
  0
BLOCK
  5
103
330
102
100
AcDbEntity
  8
0
100
AcDbBlockBegin
  2
COMPLEX_ELEVATIONDIM_1
 70
     0
 10
0.0
 20
0.0
 30
0.0
  3
COMPLEX_ELEVATIONDIM_1
  1

  0
LINE
  5
55E
330
102
100
AcDbEntity
  8
Maatlijnen 1_5
  6
Continuous
 62
    30
370
    18
100
AcDbLine
 10
92.79661254494568
 20
856.9032285897046
 30
0.0
 11
98.04661254494568
 21
864.4032285897047
 31
0.0
  0
LINE
  5
55F
330
102
100
AcDbEntity
  8
Maatlijnen 1_5
  6
Continuous
 62
    30
370
    18
100
AcDbLine
 10
98.04661254494568
 20
864.4032285897047
 30
0.0
 11
87.54661254494568
 21
864.4032285897047
 31
0.0
  0
LINE
  5
560
330
102
100
AcDbEntity
  8
Maatlijnen 1_5
  6
Continuous
 62
    30
370
    18
100
AcDbLine
 10
87.54661254494568
 20
864.4032285897047
 30
0.0
 11
92.79661254494568
 21
856.9032285897046
 31
0.0
  0
HATCH
  5
561
330
102
100
AcDbEntity
  8
Maatlijnen 1_5
  6
Continuous
 62
    30
370
    18
100
AcDbHatch
 10
0.0
 20
0.0
 30
0.0
210
0.0
220
0.0
230
1.0
  2
SOLID
 70
     1
 71
     0
 91
        1
 92
        3
 72
     0
 73
     1
 93
        3
 10
92.79661254494568
 20
856.9032285897046
 10
98.04661254494568
 20
864.4032285897047
 10
87.54661254494568
 20
864.4032285897047
 97
        0
 75
     0
 76
     1
 98
        0
450
        0
451
        0
460
0.0
461
0.0
452
        1
462
0.0
453
        0
470

  0
LINE
  5
562
330
102
100
AcDbEntity
  8
Maatlijnen 1_5
  6
Continuous
 62
    30
370
    18
100
AcDbLine
 10
92.79661254494568
 20
856.9032285897046
 30
0.0
 11
92.79661254494568
 21
856.9032285897046
 31
0.0
  0
LINE
  5
563
330
102
100
AcDbEntity
  8
Maatlijnen 1_5
  6
Continuous
 62
    30
370
    18
100
AcDbLine
 10
92.79661254494568
 20
856.9032285897046
 30
0.0
 11
92.79661254494568
 21
856.9032285897046
 31
0.0
  0
LINE
  5
564
330
102
100
AcDbEntity
  8
Maatlijnen 1_5
  6
Continuous
 62
    30
370
    18
100
AcDbLine
 10
92.79661254494568
 20
856.9032285897046
 30
0.0
 11
92.79661254494568
 21
856.9032285897046
 31
0.0
  0
LINE
  5
565
330
102
100
AcDbEntity
  8
Maatlijnen 1_5
  6
Continuous
 62
    30
370
    18
100
AcDbLine
 10
92.79661254494568
 20
856.9032285897046
 30
0.0
 11
92.79661254494568
 21
856.9032285897046
 31
0.0
  0
MTEXT
  5
566
330
102
100
AcDbEntity
  8
Maatlijnen 1_5
  6
Continuous
 62
    30
370
    18
100
AcDbMText
 10
98.04661254494568
 20
869.4032285897046
 30
0.0
 40
10.0
 41
3.5
 46
0.0
 71
     7
 72
     5
  1
P\~=\~0
  7
Trebuchet MS
 73
     1
 44
1.0
  0
ENDBLK
  5
104
330
102
100
AcDbEntity
  8
0
100
AcDbBlockEnd
  0
BLOCK
  5
12F
330
12E
100
AcDbEntity
  8
0
100
AcDbBlockBegin
  2
COMPLEXOBJECT_0
 70
     0
 10
0.0
 20
0.0
 30
0.0
  3
COMPLEXOBJECT_0
  1

  0
INSERT
  5
14B
330
12E
100
AcDbEntity
  8
Maaiveld
  6
Continuous
 62
     7
370
    25
100
AcDbBlockReference
  2
PATTERNELEMENT_0
 10
0.0
 20
0.0
 30
0.0
  0
LINE
  5
14C
330
12E
100
AcDbEntity
  8
Maaiveld
  6
Continuous
 62
     7
370
    25
100
AcDbLine
 10
297.7966125449129
 20
736.9032285897083
 30
0.0
 11
92.79661254495659
 21
736.9032285897083
 31
0.0
  0
ENDBLK
  5
130
330
12E
100
AcDbEntity
  8
0
100
AcDbBlockEnd
  0
BLOCK
  5
132
330
131
100
AcDbEntity
  8
0
100
AcDbBlockBegin
  2
PATTERNELEMENT_0
 70
     0
 10
0.0
 20
0.0
 30
0.0
  3
PATTERNELEMENT_0
  1

  0
LINE
  5
134
330
131
100
AcDbEntity
  8
Maaiveld
  6
Continuous
 62
     7
370
    25
100
AcDbLine
 10
92.89662254495658
 20
736.7031885897084
 30
0.0
 11
122.7996125449566
 21
686.9932485897083
 31
0.0
  0
LINE
  5
135
330
131
100
AcDbEntity
  8
Maaiveld
  6
Continuous
 62
     7
370
    25
100
AcDbLine
 10
112.7986125449566
 20
736.9032285897084
 30
0.0
 11
142.7016025449566
 21
687.1932885897084
 31
0.0
  0
LINE
  5
136
330
131
100
AcDbEntity
  8
Maaiveld
  6
Continuous
 62
     7
370
    25
100
AcDbLine
 10
132.8006125449566
 20
736.9032285897084
 30
0.0
 11
162.7036025449566
 21
687.1932885897084
 31
0.0
  0
LINE
  5
137
330
131
100
AcDbEntity
  8
Maaiveld
  6
Continuous
 62
     7
370
    25
100
AcDbLine
 10
162.7036025449566
 20
687.1932885897084
 30
0.0
 11
162.7036025449566
 21
687.1932885897084
 31
0.0
  0
LINE
  5
138
330
131
100
AcDbEntity
  8
Maaiveld
  6
Continuous
 62
     7
370
    25
100
AcDbLine
 10
162.8036125449566
 20
686.9932485897083
 30
0.0
 11
192.8066125449566
 21
701.8962285897084
 31
0.0
  0
LINE
  5
139
330
131
100
AcDbEntity
  8
Maaiveld
  6
Continuous
 62
     7
370
    25
100
AcDbLine
 10
146.8020125449566
 20
713.9486385897083
 30
0.0
 11
192.8066125449566
 21
736.7031885897084
 31
0.0
  0
LINE
  5
13A
330
131
100
AcDbEntity
  8
Maaiveld
  6
Continuous
 62
     7
370
    25
100
AcDbLine
 10
155.1028425449566
 20
699.8958285897084
 30
0.0
 11
192.8066125449566
 21
719.1996885897084
 31
0.0
  0
LINE
  5
13B
330
131
100
AcDbEntity
  8
Maaiveld
  6
Continuous
 62
     7
370
    25
100
AcDbLine
 10
92.89662254495658
 20
701.8962285897084
 30
0.0
 11
108.8982225449566
 21
709.9978485897083
 31
0.0
  0
LINE
  5
13C
330
131
100
AcDbEntity
  8
Maaiveld
  6
Continuous
 62
     7
370
    25
100
AcDbLine
 10
92.89662254495658
 20
719.1996885897084
 30
0.0
 11
100.7974125449565
 21
723.2504985897084
 31
0.0
  0
LINE
  5
13D
330
131
100
AcDbEntity
  8
Maaiveld
  6
Continuous
 62
     7
370
    25
100
AcDbLine
 10
100.7974125449565
 20
723.2504985897084
 30
0.0
 11
100.7974125449565
 21
723.2504985897084
 31
0.0
  0
LINE
  5
13E
330
131
100
AcDbEntity
  8
Maaiveld
  6
Continuous
 62
     7
370
    25
100
AcDbLine
 10
192.9066225449566
 20
736.7031885897084
 30
0.0
 11
222.8096125449566
 21
686.9932485897083
 31
0.0
  0
LINE
  5
13F
330
131
100
AcDbEntity
  8
Maaiveld
  6
Continuous
 62
     7
370
    25
100
AcDbLine
 10
212.8086125449566
 20
736.9032285897084
 30
0.0
 11
242.7116025449566
 21
687.1932885897084
 31
0.0
  0
LINE
  5
140
330
131
100
AcDbEntity
  8
Maaiveld
  6
Continuous
 62
     7
370
    25
100
AcDbLine
 10
232.8106125449566
 20
736.9032285897084
 30
0.0
 11
262.7136025449566
 21
687.1932885897084
 31
0.0
  0
LINE
  5
141
330
131
100
AcDbEntity
  8
Maaiveld
  6
Continuous
 62
     7
370
    25
100
AcDbLine
 10
262.7136025449566
 20
687.1932885897084
 30
0.0
 11
262.7136025449566
 21
687.1932885897084
 31
0.0
  0
LINE
  5
142
330
131
100
AcDbEntity
  8
Maaiveld
  6
Continuous
 62
     7
370
    25
100
AcDbLine
 10
262.8136125449566
 20
686.9932485897083
 30
0.0
 11
292.8166125449566
 21
701.8962285897084
 31
0.0
  0
LINE
  5
143
330
131
100
AcDbEntity
  8
Maaiveld
  6
Continuous
 62
     7
370
    25
100
AcDbLine
 10
246.8120125449566
 20
713.9486385897083
 30
0.0
 11
292.8166125449566
 21
736.7031885897084
 31
0.0
  0
LINE
  5
144
330
131
100
AcDbEntity
  8
Maaiveld
  6
Continuous
 62
     7
370
    25
100
AcDbLine
 10
255.1128425449566
 20
699.8958285897084
 30
0.0
 11
292.8166125449566
 21
719.1996885897084
 31
0.0
  0
LINE
  5
145
330
131
100
AcDbEntity
  8
Maaiveld
  6
Continuous
 62
     7
370
    25
100
AcDbLine
 10
192.9066225449566
 20
701.8962285897084
 30
0.0
 11
208.9082225449566
 21
709.9978485897083
 31
0.0
  0
LINE
  5
146
330
131
100
AcDbEntity
  8
Maaiveld
  6
Continuous
 62
     7
370
    25
100
AcDbLine
 10
192.9066225449566
 20
719.1996885897084
 30
0.0
 11
200.8074125449566
 21
723.2504985897084
 31
0.0
  0
LINE
  5
147
330
131
100
AcDbEntity
  8
Maaiveld
  6
Continuous
 62
     7
370
    25
100
AcDbLine
 10
200.8074125449566
 20
723.2504985897084
 30
0.0
 11
200.8074125449566
 21
723.2504985897084
 31
0.0
  0
LINE
  5
148
330
131
100
AcDbEntity
  8
Maaiveld
  6
Continuous
 62
     7
370
    25
100
AcDbLine
 10
292.9166225449566
 20
736.7031885897084
 30
0.0
 11
297.8466175449129
 21
728.5076952411125
 31
0.0
  0
LINE
  5
149
330
131
100
AcDbEntity
  8
Maaiveld
  6
Continuous
 62
     7
370
    25
100
AcDbLine
 10
292.9166225449566
 20
701.8962285897083
 30
0.0
 11
297.8466175449129
 21
704.3922881144775
 31
0.0
  0
LINE
  5
14A
330
131
100
AcDbEntity
  8
Maaiveld
  6
Continuous
 62
     7
370
    25
100
AcDbLine
 10
292.9166225449566
 20
719.1996885897084
 30
0.0
 11
297.8466175449129
 21
721.7273438046646
 31
0.0
  0
ENDBLK
  5
133
330
131
100
AcDbEntity
  8
0
100
AcDbBlockEnd
  0
BLOCK
  5
1A8
330
1A7
100
AcDbEntity
  8
0
100
AcDbBlockBegin
  2
ALL_ML_STRICH
 70
     0
 10
0.0
 20
0.0
 30
0.0
  3
ALL_ML_STRICH
  1

  0
LINE
  5
1AA
330
1A7
100
AcDbEntity
  8
0
  6
ByBlock
 62
     0
370
    -2
100
AcDbLine
 10
-1.0
 20
0.0
 30
0.0
 11
0.5
 21
0.0
 31
0.0
  0
LINE
  5
1AB
330
1A7
100
AcDbEntity
  8
0
  6
ByBlock
 62
     0
370
    -2
100
AcDbLine
 10
0.0
 20
-0.5
 30
0.0
 11
0.0
 21
0.5
 31
0.0
  0
LINE
  5
1AC
330
1A7
100
AcDbEntity
  8
0
  6
ByBlock
 62
     0
370
    -2
100
AcDbLine
 10
-0.3
 20
-0.3
 30
0.0
 11
0.3
 21
0.3
 31
0.0
  0
ENDBLK
  5
1A9
330
1A7
100
AcDbEntity
  8
0
100
AcDbBlockEnd
  0
BLOCK
  5
1AE
330
1AD
100
AcDbEntity
  8
0
100
AcDbBlockBegin
  2
*D8
 70
     1
 10
0.0
 20
0.0
 30
0.0
  3
*D8
  1

  0
LINE
  5
4B0
330
1AD
100
AcDbEntity
  8
Maatlijnen 1_5
  6
Continuous
 62
    30
440
 16777216
370
     0
100
AcDbLine
 10
317.7966125449129
 20
1236.903228589705
 30
0.0
 11
662.7966125449129
 21
1236.903228589705
 31
0.0
  0
MTEXT
  5
4B1
330
1AD
100
AcDbEntity
  8
Maatlijnen 1_5
  6
Continuous
 62
    30
440
 16777216
370
    18
100
AcDbMText
 10
490.1856910432065
 20
1247.039747361036
 30
0.0
 40
10.0
 41
21.0
 46
0.0
 71
     5
 72
     1
  1
375
  7
Trebuchet MS
 73
     1
 44
1.0
  0
INSERT
  5
4B2
330
1AD
100
AcDbEntity
  8
Maatlijnen 1_5
  6
Continuous
 62
    30
440
 16777216
370
     0
100
AcDbBlockReference
  2
ALL_ML_STRICH
 10
302.7966125449129
 20
1236.903228589705
 30
0.0
 41
15.0
 42
15.0
 43
15.0
 50
180.0
  0
INSERT
  5
4B3
330
1AD
100
AcDbEntity
  8
Maatlijnen 1_5
  6
Continuous
 62
    30
440
 16777216
370
     0
100
AcDbBlockReference
  2
ALL_ML_STRICH
 10
677.7966125449129
 20
1236.903228589705
 30
0.0
 41
15.0
 42
15.0
 43
15.0
  0
POINT
  5
4B4
330
1AD
100
AcDbEntity
  8
DEFPOINTS
  6
Continuous
 62
     0
440
 16777216
100
AcDbPoint
 10
302.7966125449129
 20
1176.904228589704
 30
0.0
  0
POINT
  5
4B5
330
1AD
100
AcDbEntity
  8
DEFPOINTS
  6
Continuous
 62
     0
440
 16777216
100
AcDbPoint
 10
677.7966125449129
 20
1176.904228589704
 30
0.0
  0
POINT
  5
4B6
330
1AD
100
AcDbEntity
  8
DEFPOINTS
  6
Continuous
 62
     0
440
 16777216
100
AcDbPoint
 10
677.7966125449129
 20
1236.903228589705
 30
0.0
  0
ENDBLK
  5
1AF
330
1AD
100
AcDbEntity
  8
0
100
AcDbBlockEnd
  0
BLOCK
  5
1BF
330
1BE
100
AcDbEntity
  8
0
100
AcDbBlockBegin
  2
COMPLEX_ELEVATIONDIM_2
 70
     0
 10
0.0
 20
0.0
 30
0.0
  3
COMPLEX_ELEVATIONDIM_2
  1

  0
LINE
  5
1C1
330
1BE
100
AcDbEntity
  8
Maatlijnen 1_5
  6
Continuous
 62
    30
370
    18
100
AcDbLine
 10
92.79661254494568
 20
456.9032285897065
 30
0.0
 11
98.04661254494568
 21
464.4032285897065
 31
0.0
  0
LINE
  5
1C2
330
1BE
100
AcDbEntity
  8
Maatlijnen 1_5
  6
Continuous
 62
    30
370
    18
100
AcDbLine
 10
98.04661254494568
 20
464.4032285897065
 30
0.0
 11
87.54661254494568
 21
464.4032285897065
 31
0.0
  0
LINE
  5
1C3
330
1BE
100
AcDbEntity
  8
Maatlijnen 1_5
  6
Continuous
 62
    30
370
    18
100
AcDbLine
 10
87.54661254494568
 20
464.4032285897065
 30
0.0
 11
92.79661254494568
 21
456.9032285897065
 31
0.0
  0
HATCH
  5
1C4
330
1BE
100
AcDbEntity
  8
Maatlijnen 1_5
  6
Continuous
 62
    30
370
    18
100
AcDbHatch
 10
0.0
 20
0.0
 30
0.0
210
0.0
220
0.0
230
1.0
  2
SOLID
 70
     1
 71
     0
 91
        1
 92
        3
 72
     0
 73
     1
 93
        3
 10
92.79661254494568
 20
456.9032285897065
 10
98.04661254494568
 20
464.4032285897065
 10
87.54661254494568
 20
464.4032285897065
 97
        0
 75
     0
 76
     1
 98
        0
450
        0
451
        0
460
0.0
461
0.0
452
        1
462
0.0
453
        0
470

  0
LINE
  5
1C5
330
1BE
100
AcDbEntity
  8
Maatlijnen 1_5
  6
Continuous
 62
    30
370
    18
100
AcDbLine
 10
92.79661254494568
 20
456.9032285897065
 30
0.0
 11
92.79661254494568
 21
456.9032285897065
 31
0.0
  0
LINE
  5
1C6
330
1BE
100
AcDbEntity
  8
Maatlijnen 1_5
  6
Continuous
 62
    30
370
    18
100
AcDbLine
 10
92.79661254494568
 20
456.9032285897065
 30
0.0
 11
92.79661254494568
 21
456.9032285897065
 31
0.0
  0
LINE
  5
1C7
330
1BE
100
AcDbEntity
  8
Maatlijnen 1_5
  6
Continuous
 62
    30
370
    18
100
AcDbLine
 10
92.79661254494568
 20
456.9032285897065
 30
0.0
 11
92.79661254494568
 21
456.9032285897065
 31
0.0
  0
LINE
  5
1C8
330
1BE
100
AcDbEntity
  8
Maatlijnen 1_5
  6
Continuous
 62
    30
370
    18
100
AcDbLine
 10
92.79661254494568
 20
456.9032285897065
 30
0.0
 11
92.79661254494568
 21
456.9032285897065
 31
0.0
  0
MTEXT
  5
1C9
330
1BE
100
AcDbEntity
  8
Maatlijnen 1_5
  6
Continuous
 62
    30
370
    18
100
AcDbMText
 10
98.04661254494568
 20
469.4032285897065
 30
0.0
 40
10.0
 41
3.5
 46
0.0
 71
     7
 72
     5
  1
\W0.70;-400\~P
  7
Trebuchet MS
 73
     1
 44
1.0
  0
ENDBLK
  5
1C0
330
1BE
100
AcDbEntity
  8
0
100
AcDbBlockEnd
  0
BLOCK
  5
1CF
330
1CE
100
AcDbEntity
  8
0
100
AcDbBlockBegin
  2
COMPLEX_ELEVATIONDIM_3
 70
     0
 10
0.0
 20
0.0
 30
0.0
  3
COMPLEX_ELEVATIONDIM_3
  1

  0
LINE
  5
549
330
1CE
100
AcDbEntity
  8
Maatlijnen 1_5
  6
Continuous
 62
    30
370
    18
100
AcDbLine
 10
92.79661254494568
 20
456.9032285897065
 30
0.0
 11
98.04661254494568
 21
464.4032285897065
 31
0.0
  0
LINE
  5
54A
330
1CE
100
AcDbEntity
  8
Maatlijnen 1_5
  6
Continuous
 62
    30
370
    18
100
AcDbLine
 10
98.04661254494568
 20
464.4032285897065
 30
0.0
 11
87.54661254494568
 21
464.4032285897065
 31
0.0
  0
LINE
  5
54B
330
1CE
100
AcDbEntity
  8
Maatlijnen 1_5
  6
Continuous
 62
    30
370
    18
100
AcDbLine
 10
87.54661254494568
 20
464.4032285897065
 30
0.0
 11
92.79661254494568
 21
456.9032285897065
 31
0.0
  0
HATCH
  5
54C
330
1CE
100
AcDbEntity
  8
Maatlijnen 1_5
  6
Continuous
 62
    30
370
    18
100
AcDbHatch
 10
0.0
 20
0.0
 30
0.0
210
0.0
220
0.0
230
1.0
  2
SOLID
 70
     1
 71
     0
 91
        1
 92
        3
 72
     0
 73
     1
 93
        3
 10
92.79661254494568
 20
456.9032285897065
 10
98.04661254494568
 20
464.4032285897065
 10
87.54661254494568
 20
464.4032285897065
 97
        0
 75
     0
 76
     1
 98
        0
450
        0
451
        0
460
0.0
461
0.0
452
        1
462
0.0
453
        0
470

  0
LINE
  5
54D
330
1CE
100
AcDbEntity
  8
Maatlijnen 1_5
  6
Continuous
 62
    30
370
    18
100
AcDbLine
 10
92.79661254494568
 20
456.9032285897065
 30
0.0
 11
92.79661254494568
 21
456.9032285897065
 31
0.0
  0
LINE
  5
54E
330
1CE
100
AcDbEntity
  8
Maatlijnen 1_5
  6
Continuous
 62
    30
370
    18
100
AcDbLine
 10
92.79661254494568
 20
456.9032285897065
 30
0.0
 11
92.79661254494568
 21
456.9032285897065
 31
0.0
  0
LINE
  5
54F
330
1CE
100
AcDbEntity
  8
Maatlijnen 1_5
  6
Continuous
 62
    30
370
    18
100
AcDbLine
 10
92.79661254494568
 20
456.9032285897065
 30
0.0
 11
92.79661254494568
 21
456.9032285897065
 31
0.0
  0
LINE
  5
550
330
1CE
100
AcDbEntity
  8
Maatlijnen 1_5
  6
Continuous
 62
    30
370
    18
100
AcDbLine
 10
92.79661254494568
 20
456.9032285897065
 30
0.0
 11
92.79661254494568
 21
456.9032285897065
 31
0.0
  0
MTEXT
  5
551
330
1CE
100
AcDbEntity
  8
Maatlijnen 1_5
  6
Continuous
 62
    30
370
    18
100
AcDbMText
 10
98.04661254494568
 20
469.4032285897065
 30
0.0
 40
10.0
 41
3.5
 46
0.0
 71
     7
 72
     5
  1
-400\~P
  7
Trebuchet MS
 73
     1
 44
1.0
  0
ENDBLK
  5
1D0
330
1CE
100
AcDbEntity
  8
0
100
AcDbBlockEnd
  0
BLOCK
  5
1E4
330
1E3
100
AcDbEntity
  8
0
100
AcDbBlockBegin
  2
*D11
 70
     1
 10
0.0
 20
0.0
 30
0.0
  3
*D11
  1

  0
LINE
  5
4DE
330
1E3
100
AcDbEntity
  8
Maatlijnen 1_5
  6
Continuous
 62
    30
440
 16777216
370
     0
100
AcDbLine
 10
967.7966125449172
 20
471.903228589683
 30
0.0
 11
967.796612544917
 21
791.9032285898615
 31
0.0
  0
MTEXT
  5
4DF
330
1E3
100
AcDbEntity
  8
Maatlijnen 1_5
  6
Continuous
 62
    30
440
 16777216
370
    18
100
AcDbMText
 10
957.6600937735854
 20
631.614832685335
 30
0.0
 40
10.0
 41
21.0
 46
0.0
 71
     5
 72
     1
  1
350
  7
Trebuchet MS
 11
0.0000000000000001
 21
1.0
 31
0.0
 73
     1
 44
1.0
  0
INSERT
  5
4E0
330
1E3
100
AcDbEntity
  8
Maatlijnen 1_5
  6
Continuous
 62
    30
440
 16777216
370
     0
100
AcDbBlockReference
  2
ALL_ML_STRICH
 10
967.7966125449172
 20
456.9032285896831
 30
0.0
 41
15.0
 42
15.0
 43
15.0
 50
270.0
  0
INSERT
  5
4E1
330
1E3
100
AcDbEntity
  8
Maatlijnen 1_5
  6
Continuous
 62
    30
440
 16777216
370
     0
100
AcDbBlockReference
  2
ALL_ML_STRICH
 10
967.796612544917
 20
806.9032285898614
 30
0.0
 41
15.0
 42
15.0
 43
15.0
 50
90.0
  0
POINT
  5
4E2
330
1E3
100
AcDbEntity
  8
DEFPOINTS
  6
Continuous
 62
     0
440
 16777216
100
AcDbPoint
 10
717.8296437829594
 20
456.903228589683
 30
0.0
  0
POINT
  5
4E3
330
1E3
100
AcDbEntity
  8
DEFPOINTS
  6
Continuous
 62
     0
440
 16777216
100
AcDbPoint
 10
937.7976125449169
 20
806.9032285898614
 30
0.0
  0
POINT
  5
4E4
330
1E3
100
AcDbEntity
  8
DEFPOINTS
  6
Continuous
 62
     0
440
 16777216
100
AcDbPoint
 10
967.796612544917
 20
806.9032285898614
 30
0.0
  0
ENDBLK
  5
1E5
330
1E3
100
AcDbEntity
  8
0
100
AcDbBlockEnd
  0
BLOCK
  5
1F0
330
1EF
100
AcDbEntity
  8
0
100
AcDbBlockBegin
  2
*D12
 70
     1
 10
0.0
 20
0.0
 30
0.0
  3
*D12
  1

  0
LINE
  5
4D7
330
1EF
100
AcDbEntity
  8
Maatlijnen 1_5
  6
Continuous
 62
    30
440
 16777216
370
     0
100
AcDbLine
 10
967.796612544917
 20
821.9032285898615
 30
0.0
 11
967.796612544917
 21
841.9032285898616
 31
0.0
  0
MTEXT
  5
4D8
330
1EF
100
AcDbEntity
  8
Maatlijnen 1_5
  6
Continuous
 62
    30
440
 16777216
370
    18
100
AcDbMText
 10
957.6600937735854
 20
831.7803616956631
 30
0.0
 40
10.0
 41
14.0
 46
0.0
 71
     5
 72
     1
  1
50
  7
Trebuchet MS
 11
0.0000000000000001
 21
1.0
 31
0.0
 73
     1
 44
1.0
  0
INSERT
  5
4D9
330
1EF
100
AcDbEntity
  8
Maatlijnen 1_5
  6
Continuous
 62
    30
440
 16777216
370
     0
100
AcDbBlockReference
  2
ALL_ML_STRICH
 10
967.796612544917
 20
806.9032285898614
 30
0.0
 41
15.0
 42
15.0
 43
15.0
 50
270.0
  0
INSERT
  5
4DA
330
1EF
100
AcDbEntity
  8
Maatlijnen 1_5
  6
Continuous
 62
    30
440
 16777216
370
     0
100
AcDbBlockReference
  2
ALL_ML_STRICH
 10
967.796612544917
 20
856.9032285898614
 30
0.0
 41
15.0
 42
15.0
 43
15.0
 50
90.0
  0
POINT
  5
4DB
330
1EF
100
AcDbEntity
  8
DEFPOINTS
  6
Continuous
 62
     0
440
 16777216
100
AcDbPoint
 10
937.7976125449169
 20
806.9032285898614
 30
0.0
  0
POINT
  5
4DC
330
1EF
100
AcDbEntity
  8
DEFPOINTS
  6
Continuous
 62
     0
440
 16777216
100
AcDbPoint
 10
937.7976125449169
 20
856.9032285898614
 30
0.0
  0
POINT
  5
4DD
330
1EF
100
AcDbEntity
  8
DEFPOINTS
  6
Continuous
 62
     0
440
 16777216
100
AcDbPoint
 10
967.796612544917
 20
856.9032285898614
 30
0.0
  0
ENDBLK
  5
1F1
330
1EF
100
AcDbEntity
  8
0
100
AcDbBlockEnd
  0
BLOCK
  5
1FB
330
1FA
100
AcDbEntity
  8
0
100
AcDbBlockBegin
  2
*D13
 70
     1
 10
0.0
 20
0.0
 30
0.0
  3
*D13
  1

  0
LINE
  5
4CE
330
1FA
100
AcDbEntity
  8
Maatlijnen 1_5
  6
Continuous
 62
    30
440
 16777216
370
     0
100
AcDbLine
 10
967.796612544917
 20
841.9032285898616
 30
0.0
 11
967.796612544917
 21
826.9032285898616
 31
0.0
  0
LINE
  5
4CF
330
1FA
100
AcDbEntity
  8
Maatlijnen 1_5
  6
Continuous
 62
    30
440
 16777216
370
     0
100
AcDbLine
 10
967.796612544917
 20
891.9032285898616
 30
0.0
 11
967.796612544917
 21
906.9032285898614
 31
0.0
  0
MTEXT
  5
4D0
330
1FA
100
AcDbEntity
  8
Maatlijnen 1_5
  6
Continuous
 62
    30
440
 16777216
370
    18
100
AcDbMText
 10
957.6600937735854
 20
888.403228589861
 30
0.0
 40
10.0
 41
14.0
 46
0.0
 71
     5
 72
     1
  1
20
  7
Trebuchet MS
 11
0.0000000000000001
 21
1.0
 31
0.0
 73
     1
 44
1.0
  0
LINE
  5
4D1
330
1FA
100
AcDbEntity
  8
Maatlijnen 1_5
  6
Continuous
 62
    30
440
 16777216
370
     0
100
AcDbLine
 10
967.796612544917
 20
856.9032285898614
 30
0.0
 11
967.796612544917
 21
876.9032285898616
 31
0.0
  0
INSERT
  5
4D2
330
1FA
100
AcDbEntity
  8
Maatlijnen 1_5
  6
Continuous
 62
    30
440
 16777216
370
     0
100
AcDbBlockReference
  2
ALL_ML_STRICH
 10
967.796612544917
 20
856.9032285898614
 30
0.0
 41
15.0
 42
15.0
 43
15.0
 50
90.0
  0
INSERT
  5
4D3
330
1FA
100
AcDbEntity
  8
Maatlijnen 1_5
  6
Continuous
 62
    30
440
 16777216
370
     0
100
AcDbBlockReference
  2
ALL_ML_STRICH
 10
967.796612544917
 20
876.9032285898616
 30
0.0
 41
15.0
 42
15.0
 43
15.0
 50
270.0
  0
POINT
  5
4D4
330
1FA
100
AcDbEntity
  8
DEFPOINTS
  6
Continuous
 62
     0
440
 16777216
100
AcDbPoint
 10
937.7976125449169
 20
856.9032285898614
 30
0.0
  0
POINT
  5
4D5
330
1FA
100
AcDbEntity
  8
DEFPOINTS
  6
Continuous
 62
     0
440
 16777216
100
AcDbPoint
 10
937.7976125449169
 20
876.9032285898616
 30
0.0
  0
POINT
  5
4D6
330
1FA
100
AcDbEntity
  8
DEFPOINTS
  6
Continuous
 62
     0
440
 16777216
100
AcDbPoint
 10
967.796612544917
 20
876.9032285898616
 30
0.0
  0
ENDBLK
  5
1FC
330
1FA
100
AcDbEntity
  8
0
100
AcDbBlockEnd
  0
BLOCK
  5
20B
330
20A
100
AcDbEntity
  8
0
100
AcDbBlockBegin
  2
*D14
 70
     1
 10
0.0
 20
0.0
 30
0.0
  3
*D14
  1

  0
LINE
  5
4C7
330
20A
100
AcDbEntity
  8
Maatlijnen 1_5
  6
Continuous
 62
    30
440
 16777216
370
     0
100
AcDbLine
 10
967.7966125449172
 20
471.903228589683
 30
0.0
 11
967.796612544917
 21
791.9032285898615
 31
0.0
  0
MTEXT
  5
4C8
330
20A
100
AcDbEntity
  8
Maatlijnen 1_5
  6
Continuous
 62
    30
440
 16777216
370
    18
100
AcDbMText
 10
957.6600937735854
 20
631.614832685335
 30
0.0
 40
10.0
 41
21.0
 46
0.0
 71
     5
 72
     1
  1
350
  7
Trebuchet MS
 11
0.0000000000000001
 21
1.0
 31
0.0
 73
     1
 44
1.0
  0
INSERT
  5
4C9
330
20A
100
AcDbEntity
  8
Maatlijnen 1_5
  6
Continuous
 62
    30
440
 16777216
370
     0
100
AcDbBlockReference
  2
ALL_ML_STRICH
 10
967.7966125449172
 20
456.9032285896831
 30
0.0
 41
15.0
 42
15.0
 43
15.0
 50
270.0
  0
INSERT
  5
4CA
330
20A
100
AcDbEntity
  8
Maatlijnen 1_5
  6
Continuous
 62
    30
440
 16777216
370
     0
100
AcDbBlockReference
  2
ALL_ML_STRICH
 10
967.796612544917
 20
806.9032285898614
 30
0.0
 41
15.0
 42
15.0
 43
15.0
 50
90.0
  0
POINT
  5
4CB
330
20A
100
AcDbEntity
  8
DEFPOINTS
  6
Continuous
 62
     0
440
 16777216
100
AcDbPoint
 10
717.8296437829594
 20
456.903228589683
 30
0.0
  0
POINT
  5
4CC
330
20A
100
AcDbEntity
  8
DEFPOINTS
  6
Continuous
 62
     0
440
 16777216
100
AcDbPoint
 10
937.7976125449169
 20
806.9032285898614
 30
0.0
  0
POINT
  5
4CD
330
20A
100
AcDbEntity
  8
DEFPOINTS
  6
Continuous
 62
     0
440
 16777216
100
AcDbPoint
 10
967.796612544917
 20
806.9032285898614
 30
0.0
  0
ENDBLK
  5
20C
330
20A
100
AcDbEntity
  8
0
100
AcDbBlockEnd
  0
BLOCK
  5
216
330
215
100
AcDbEntity
  8
0
100
AcDbBlockBegin
  2
*D15
 70
     1
 10
0.0
 20
0.0
 30
0.0
  3
*D15
  1

  0
LINE
  5
4C0
330
215
100
AcDbEntity
  8
Maatlijnen 1_5
  6
Continuous
 62
    30
440
 16777216
370
     0
100
AcDbLine
 10
967.796612544917
 20
821.9032285898615
 30
0.0
 11
967.796612544917
 21
841.9032285898616
 31
0.0
  0
MTEXT
  5
4C1
330
215
100
AcDbEntity
  8
Maatlijnen 1_5
  6
Continuous
 62
    30
440
 16777216
370
    18
100
AcDbMText
 10
957.6600937735854
 20
831.7803616956631
 30
0.0
 40
10.0
 41
14.0
 46
0.0
 71
     5
 72
     1
  1
50
  7
Trebuchet MS
 11
0.0000000000000001
 21
1.0
 31
0.0
 73
     1
 44
1.0
  0
INSERT
  5
4C2
330
215
100
AcDbEntity
  8
Maatlijnen 1_5
  6
Continuous
 62
    30
440
 16777216
370
     0
100
AcDbBlockReference
  2
ALL_ML_STRICH
 10
967.796612544917
 20
806.9032285898614
 30
0.0
 41
15.0
 42
15.0
 43
15.0
 50
270.0
  0
INSERT
  5
4C3
330
215
100
AcDbEntity
  8
Maatlijnen 1_5
  6
Continuous
 62
    30
440
 16777216
370
     0
100
AcDbBlockReference
  2
ALL_ML_STRICH
 10
967.796612544917
 20
856.9032285898614
 30
0.0
 41
15.0
 42
15.0
 43
15.0
 50
90.0
  0
POINT
  5
4C4
330
215
100
AcDbEntity
  8
DEFPOINTS
  6
Continuous
 62
     0
440
 16777216
100
AcDbPoint
 10
937.7976125449169
 20
806.9032285898614
 30
0.0
  0
POINT
  5
4C5
330
215
100
AcDbEntity
  8
DEFPOINTS
  6
Continuous
 62
     0
440
 16777216
100
AcDbPoint
 10
937.7976125449169
 20
856.9032285898614
 30
0.0
  0
POINT
  5
4C6
330
215
100
AcDbEntity
  8
DEFPOINTS
  6
Continuous
 62
     0
440
 16777216
100
AcDbPoint
 10
967.796612544917
 20
856.9032285898614
 30
0.0
  0
ENDBLK
  5
217
330
215
100
AcDbEntity
  8
0
100
AcDbBlockEnd
  0
BLOCK
  5
221
330
220
100
AcDbEntity
  8
0
100
AcDbBlockBegin
  2
*D16
 70
     1
 10
0.0
 20
0.0
 30
0.0
  3
*D16
  1

  0
LINE
  5
4B7
330
220
100
AcDbEntity
  8
Maatlijnen 1_5
  6
Continuous
 62
    30
440
 16777216
370
     0
100
AcDbLine
 10
967.796612544917
 20
841.9032285898616
 30
0.0
 11
967.796612544917
 21
826.9032285898616
 31
0.0
  0
LINE
  5
4B8
330
220
100
AcDbEntity
  8
Maatlijnen 1_5
  6
Continuous
 62
    30
440
 16777216
370
     0
100
AcDbLine
 10
967.796612544917
 20
891.9032285898616
 30
0.0
 11
967.796612544917
 21
906.9032285898614
 31
0.0
  0
MTEXT
  5
4B9
330
220
100
AcDbEntity
  8
Maatlijnen 1_5
  6
Continuous
 62
    30
440
 16777216
370
    18
100
AcDbMText
 10
957.6600937735854
 20
888.403228589861
 30
0.0
 40
10.0
 41
14.0
 46
0.0
 71
     5
 72
     1
  1
20
  7
Trebuchet MS
 11
0.0000000000000001
 21
1.0
 31
0.0
 73
     1
 44
1.0
  0
LINE
  5
4BA
330
220
100
AcDbEntity
  8
Maatlijnen 1_5
  6
Continuous
 62
    30
440
 16777216
370
     0
100
AcDbLine
 10
967.796612544917
 20
856.9032285898614
 30
0.0
 11
967.796612544917
 21
876.9032285898616
 31
0.0
  0
INSERT
  5
4BB
330
220
100
AcDbEntity
  8
Maatlijnen 1_5
  6
Continuous
 62
    30
440
 16777216
370
     0
100
AcDbBlockReference
  2
ALL_ML_STRICH
 10
967.796612544917
 20
856.9032285898614
 30
0.0
 41
15.0
 42
15.0
 43
15.0
 50
90.0
  0
INSERT
  5
4BC
330
220
100
AcDbEntity
  8
Maatlijnen 1_5
  6
Continuous
 62
    30
440
 16777216
370
     0
100
AcDbBlockReference
  2
ALL_ML_STRICH
 10
967.796612544917
 20
876.9032285898616
 30
0.0
 41
15.0
 42
15.0
 43
15.0
 50
270.0
  0
POINT
  5
4BD
330
220
100
AcDbEntity
  8
DEFPOINTS
  6
Continuous
 62
     0
440
 16777216
100
AcDbPoint
 10
937.7976125449169
 20
856.9032285898614
 30
0.0
  0
POINT
  5
4BE
330
220
100
AcDbEntity
  8
DEFPOINTS
  6
Continuous
 62
     0
440
 16777216
100
AcDbPoint
 10
937.7976125449169
 20
876.9032285898616
 30
0.0
  0
POINT
  5
4BF
330
220
100
AcDbEntity
  8
DEFPOINTS
  6
Continuous
 62
     0
440
 16777216
100
AcDbPoint
 10
967.796612544917
 20
876.9032285898616
 30
0.0
  0
ENDBLK
  5
222
330
220
100
AcDbEntity
  8
0
100
AcDbBlockEnd
  0
BLOCK
  5
22F
330
22E
100
AcDbEntity
  8
0
100
AcDbBlockBegin
  2
*D17
 70
     1
 10
0.0
 20
0.0
 30
0.0
  3
*D17
  1

  0
LINE
  5
59C
330
22E
100
AcDbEntity
  8
Maatlijnen 1_5
  6
Continuous
 62
    30
440
 16777216
370
     0
100
AcDbLine
 10
312.7966125449093
 20
126.9032285897519
 30
0.0
 11
682.7966125449092
 21
126.9032285897519
 31
0.0
  0
MTEXT
  5
59D
330
22E
100
AcDbEntity
  8
Maatlijnen 1_5
  6
Continuous
 62
    30
440
 16777216
370
    18
100
AcDbMText
 10
497.5082166404724
 20
137.039747361083
 30
0.0
 40
10.0
 41
21.0
 46
0.0
 71
     5
 72
     1
  1
400
  7
Trebuchet MS
 73
     1
 44
1.0
  0
INSERT
  5
59E
330
22E
100
AcDbEntity
  8
Maatlijnen 1_5
  6
Continuous
 62
    30
440
 16777216
370
     0
100
AcDbBlockReference
  2
ALL_ML_STRICH
 10
297.7966125449093
 20
126.9032285897519
 30
0.0
 41
15.0
 42
15.0
 43
15.0
 50
180.0
  0
INSERT
  5
59F
330
22E
100
AcDbEntity
  8
Maatlijnen 1_5
  6
Continuous
 62
    30
440
 16777216
370
     0
100
AcDbBlockReference
  2
ALL_ML_STRICH
 10
697.7966125449093
 20
126.9032285897519
 30
0.0
 41
15.0
 42
15.0
 43
15.0
  0
POINT
  5
5A0
330
22E
100
AcDbEntity
  8
DEFPOINTS
  6
Continuous
 62
     0
440
 16777216
100
AcDbPoint
 10
297.7966125449093
 20
156.9022285897538
 30
0.0
  0
POINT
  5
5A1
330
22E
100
AcDbEntity
  8
DEFPOINTS
  6
Continuous
 62
     0
440
 16777216
100
AcDbPoint
 10
697.7966125449093
 20
156.9022285897519
 30
0.0
  0
POINT
  5
5A2
330
22E
100
AcDbEntity
  8
DEFPOINTS
  6
Continuous
 62
     0
440
 16777216
100
AcDbPoint
 10
697.7966125449093
 20
126.9032285897519
 30
0.0
  0
ENDBLK
  5
230
330
22E
100
AcDbEntity
  8
0
100
AcDbBlockEnd
  0
BLOCK
  5
23C
330
23B
100
AcDbEntity
  8
0
100
AcDbBlockBegin
  2
*D18
 70
     1
 10
0.0
 20
0.0
 30
0.0
  3
*D18
  1

  0
LINE
  5
595
330
23B
100
AcDbEntity
  8
Maatlijnen 1_5
  6
Continuous
 62
    30
440
 16777216
370
     0
100
AcDbLine
 10
312.7966125449093
 20
126.9032285897519
 30
0.0
 11
682.7966125449092
 21
126.9032285897519
 31
0.0
  0
MTEXT
  5
596
330
23B
100
AcDbEntity
  8
Maatlijnen 1_5
  6
Continuous
 62
    30
440
 16777216
370
    18
100
AcDbMText
 10
497.5082166404724
 20
137.039747361083
 30
0.0
 40
10.0
 41
21.0
 46
0.0
 71
     5
 72
     1
  1
400
  7
Trebuchet MS
 73
     1
 44
1.0
  0
INSERT
  5
597
330
23B
100
AcDbEntity
  8
Maatlijnen 1_5
  6
Continuous
 62
    30
440
 16777216
370
     0
100
AcDbBlockReference
  2
ALL_ML_STRICH
 10
297.7966125449093
 20
126.9032285897519
 30
0.0
 41
15.0
 42
15.0
 43
15.0
 50
180.0
  0
INSERT
  5
598
330
23B
100
AcDbEntity
  8
Maatlijnen 1_5
  6
Continuous
 62
    30
440
 16777216
370
     0
100
AcDbBlockReference
  2
ALL_ML_STRICH
 10
697.7966125449093
 20
126.9032285897519
 30
0.0
 41
15.0
 42
15.0
 43
15.0
  0
POINT
  5
599
330
23B
100
AcDbEntity
  8
DEFPOINTS
  6
Continuous
 62
     0
440
 16777216
100
AcDbPoint
 10
297.7966125449093
 20
156.9022285897538
 30
0.0
  0
POINT
  5
59A
330
23B
100
AcDbEntity
  8
DEFPOINTS
  6
Continuous
 62
     0
440
 16777216
100
AcDbPoint
 10
697.7966125449093
 20
156.9022285897519
 30
0.0
  0
POINT
  5
59B
330
23B
100
AcDbEntity
  8
DEFPOINTS
  6
Continuous
 62
     0
440
 16777216
100
AcDbPoint
 10
697.7966125449093
 20
126.9032285897519
 30
0.0
  0
ENDBLK
  5
23D
330
23B
100
AcDbEntity
  8
0
100
AcDbBlockEnd
  0
BLOCK
  5
249
330
248
100
AcDbEntity
  8
0
100
AcDbBlockBegin
  2
*D19
 70
     1
 10
0.0
 20
0.0
 30
0.0
  3
*D19
  1

  0
LINE
  5
4A9
330
248
100
AcDbEntity
  8
Maatlijnen 1_5
  6
Continuous
 62
    30
440
 16777216
370
     0
100
AcDbLine
 10
317.7966125449129
 20
1206.903228589705
 30
0.0
 11
387.7966125449129
 21
1206.903228589705
 31
0.0
  0
MTEXT
  5
4AA
330
248
100
AcDbEntity
  8
Maatlijnen 1_5
  6
Continuous
 62
    30
440
 16777216
370
    18
100
AcDbMText
 10
352.5082166404761
 20
1217.039747361036
 30
0.0
 40
10.0
 41
21.0
 46
0.0
 71
     5
 72
     1
  1
100
  7
Trebuchet MS
 73
     1
 44
1.0
  0
INSERT
  5
4AB
330
248
100
AcDbEntity
  8
Maatlijnen 1_5
  6
Continuous
 62
    30
440
 16777216
370
     0
100
AcDbBlockReference
  2
ALL_ML_STRICH
 10
302.7966125449129
 20
1206.903228589705
 30
0.0
 41
15.0
 42
15.0
 43
15.0
 50
180.0
  0
INSERT
  5
4AC
330
248
100
AcDbEntity
  8
Maatlijnen 1_5
  6
Continuous
 62
    30
440
 16777216
370
     0
100
AcDbBlockReference
  2
ALL_ML_STRICH
 10
402.7966125449129
 20
1206.903228589705
 30
0.0
 41
15.0
 42
15.0
 43
15.0
  0
POINT
  5
4AD
330
248
100
AcDbEntity
  8
DEFPOINTS
  6
Continuous
 62
     0
440
 16777216
100
AcDbPoint
 10
302.7966125449129
 20
1176.904228589704
 30
0.0
  0
POINT
  5
4AE
330
248
100
AcDbEntity
  8
DEFPOINTS
  6
Continuous
 62
     0
440
 16777216
100
AcDbPoint
 10
402.7966125449129
 20
1176.904228589704
 30
0.0
  0
POINT
  5
4AF
330
248
100
AcDbEntity
  8
DEFPOINTS
  6
Continuous
 62
     0
440
 16777216
100
AcDbPoint
 10
402.7966125449129
 20
1206.903228589705
 30
0.0
  0
ENDBLK
  5
24A
330
248
100
AcDbEntity
  8
0
100
AcDbBlockEnd
  0
BLOCK
  5
254
330
253
100
AcDbEntity
  8
0
100
AcDbBlockBegin
  2
*D20
 70
     1
 10
0.0
 20
0.0
 30
0.0
  3
*D20
  1

  0
LINE
  5
4A0
330
253
100
AcDbEntity
  8
Maatlijnen 1_5
  6
Continuous
 62
    30
440
 16777216
370
     0
100
AcDbLine
 10
387.7966125449129
 20
1206.903228589705
 30
0.0
 11
372.7966125449129
 21
1206.903228589705
 31
0.0
  0
LINE
  5
4A1
330
253
100
AcDbEntity
  8
Maatlijnen 1_5
  6
Continuous
 62
    30
440
 16777216
370
     0
100
AcDbLine
 10
457.7966125449075
 20
1206.903228589705
 30
0.0
 11
472.7966125449074
 21
1206.903228589705
 31
0.0
  0
MTEXT
  5
4A2
330
253
100
AcDbEntity
  8
Maatlijnen 1_5
  6
Continuous
 62
    30
440
 16777216
370
    18
100
AcDbMText
 10
422.6737456507122
 20
1217.039747361036
 30
0.0
 40
10.0
 41
14.0
 46
0.0
 71
     5
 72
     1
  1
40
  7
Trebuchet MS
 73
     1
 44
1.0
  0
LINE
  5
4A3
330
253
100
AcDbEntity
  8
Maatlijnen 1_5
  6
Continuous
 62
    30
440
 16777216
370
     0
100
AcDbLine
 10
402.7966125449129
 20
1206.903228589705
 30
0.0
 11
442.7966125449074
 21
1206.903228589705
 31
0.0
  0
INSERT
  5
4A4
330
253
100
AcDbEntity
  8
Maatlijnen 1_5
  6
Continuous
 62
    30
440
 16777216
370
     0
100
AcDbBlockReference
  2
ALL_ML_STRICH
 10
402.7966125449129
 20
1206.903228589705
 30
0.0
 41
15.0
 42
15.0
 43
15.0
  0
INSERT
  5
4A5
330
253
100
AcDbEntity
  8
Maatlijnen 1_5
  6
Continuous
 62
    30
440
 16777216
370
     0
100
AcDbBlockReference
  2
ALL_ML_STRICH
 10
442.7966125449074
 20
1206.903228589705
 30
0.0
 41
15.0
 42
15.0
 43
15.0
 50
180.0
  0
POINT
  5
4A6
330
253
100
AcDbEntity
  8
DEFPOINTS
  6
Continuous
 62
     0
440
 16777216
100
AcDbPoint
 10
402.7966125449129
 20
1176.904228589704
 30
0.0
  0
POINT
  5
4A7
330
253
100
AcDbEntity
  8
DEFPOINTS
  6
Continuous
 62
     0
440
 16777216
100
AcDbPoint
 10
442.7966125449074
 20
1176.904228589705
 30
0.0
  0
POINT
  5
4A8
330
253
100
AcDbEntity
  8
DEFPOINTS
  6
Continuous
 62
     0
440
 16777216
100
AcDbPoint
 10
442.7966125449074
 20
1206.903228589705
 30
0.0
  0
ENDBLK
  5
255
330
253
100
AcDbEntity
  8
0
100
AcDbBlockEnd
  0
BLOCK
  5
25F
330
25E
100
AcDbEntity
  8
0
100
AcDbBlockBegin
  2
*D21
 70
     1
 10
0.0
 20
0.0
 30
0.0
  3
*D21
  1

  0
LINE
  5
499
330
25E
100
AcDbEntity
  8
Maatlijnen 1_5
  6
Continuous
 62
    30
440
 16777216
370
     0
100
AcDbLine
 10
457.7966125449075
 20
1206.903228589705
 30
0.0
 11
562.7966125449163
 21
1206.903228589705
 31
0.0
  0
MTEXT
  5
49A
330
25E
100
AcDbEntity
  8
Maatlijnen 1_5
  6
Continuous
 62
    30
440
 16777216
370
    18
100
AcDbMText
 10
510.1856910432053
 20
1217.039747361036
 30
0.0
 40
10.0
 41
21.0
 46
0.0
 71
     5
 72
     1
  1
135
  7
Trebuchet MS
 73
     1
 44
1.0
  0
INSERT
  5
49B
330
25E
100
AcDbEntity
  8
Maatlijnen 1_5
  6
Continuous
 62
    30
440
 16777216
370
     0
100
AcDbBlockReference
  2
ALL_ML_STRICH
 10
442.7966125449074
 20
1206.903228589705
 30
0.0
 41
15.0
 42
15.0
 43
15.0
 50
180.0
  0
INSERT
  5
49C
330
25E
100
AcDbEntity
  8
Maatlijnen 1_5
  6
Continuous
 62
    30
440
 16777216
370
     0
100
AcDbBlockReference
  2
ALL_ML_STRICH
 10
577.7966125449163
 20
1206.903228589705
 30
0.0
 41
15.0
 42
15.0
 43
15.0
  0
POINT
  5
49D
330
25E
100
AcDbEntity
  8
DEFPOINTS
  6
Continuous
 62
     0
440
 16777216
100
AcDbPoint
 10
442.7966125449074
 20
1176.904228589705
 30
0.0
  0
POINT
  5
49E
330
25E
100
AcDbEntity
  8
DEFPOINTS
  6
Continuous
 62
     0
440
 16777216
100
AcDbPoint
 10
577.7966125449163
 20
1176.904228589707
 30
0.0
  0
POINT
  5
49F
330
25E
100
AcDbEntity
  8
DEFPOINTS
  6
Continuous
 62
     0
440
 16777216
100
AcDbPoint
 10
577.7966125449163
 20
1206.903228589705
 30
0.0
  0
ENDBLK
  5
260
330
25E
100
AcDbEntity
  8
0
100
AcDbBlockEnd
  0
BLOCK
  5
26A
330
269
100
AcDbEntity
  8
0
100
AcDbBlockBegin
  2
*D22
 70
     1
 10
0.0
 20
0.0
 30
0.0
  3
*D22
  1

  0
LINE
  5
492
330
269
100
AcDbEntity
  8
Maatlijnen 1_5
  6
Continuous
 62
    30
440
 16777216
370
     0
100
AcDbLine
 10
592.7966125449163
 20
1206.903228589705
 30
0.0
 11
662.7966125449129
 21
1206.903228589705
 31
0.0
  0
MTEXT
  5
493
330
269
100
AcDbEntity
  8
Maatlijnen 1_5
  6
Continuous
 62
    30
440
 16777216
370
    18
100
AcDbMText
 10
627.5082166404778
 20
1217.039747361036
 30
0.0
 40
10.0
 41
21.0
 46
0.0
 71
     5
 72
     1
  1
100
  7
Trebuchet MS
 73
     1
 44
1.0
  0
INSERT
  5
494
330
269
100
AcDbEntity
  8
Maatlijnen 1_5
  6
Continuous
 62
    30
440
 16777216
370
     0
100
AcDbBlockReference
  2
ALL_ML_STRICH
 10
577.7966125449163
 20
1206.903228589705
 30
0.0
 41
15.0
 42
15.0
 43
15.0
 50
180.0
  0
INSERT
  5
495
330
269
100
AcDbEntity
  8
Maatlijnen 1_5
  6
Continuous
 62
    30
440
 16777216
370
     0
100
AcDbBlockReference
  2
ALL_ML_STRICH
 10
677.7966125449129
 20
1206.903228589705
 30
0.0
 41
15.0
 42
15.0
 43
15.0
  0
POINT
  5
496
330
269
100
AcDbEntity
  8
DEFPOINTS
  6
Continuous
 62
     0
440
 16777216
100
AcDbPoint
 10
577.7966125449163
 20
1176.904228589707
 30
0.0
  0
POINT
  5
497
330
269
100
AcDbEntity
  8
DEFPOINTS
  6
Continuous
 62
     0
440
 16777216
100
AcDbPoint
 10
677.7966125449129
 20
1176.904228589704
 30
0.0
  0
POINT
  5
498
330
269
100
AcDbEntity
  8
DEFPOINTS
  6
Continuous
 62
     0
440
 16777216
100
AcDbPoint
 10
677.7966125449129
 20
1206.903228589705
 30
0.0
  0
ENDBLK
  5
26B
330
269
100
AcDbEntity
  8
0
100
AcDbBlockEnd
  0
BLOCK
  5
275
330
274
100
AcDbEntity
  8
0
100
AcDbBlockBegin
  2
COMPLEXOBJECT_1
 70
     0
 10
0.0
 20
0.0
 30
0.0
  3
COMPLEXOBJECT_1
  1

  0
INSERT
  5
292
330
274
100
AcDbEntity
  8
Maaiveld
  6
Continuous
 62
     7
370
    25
100
AcDbBlockReference
  2
PATTERNELEMENT_1
 10
0.0
 20
0.0
 30
0.0
  0
LINE
  5
293
330
274
100
AcDbEntity
  8
Maaiveld
  6
Continuous
 62
     7
370
    25
100
AcDbLine
 10
302.7966125449129
 20
736.9032285897083
 30
0.0
 11
92.79661254495659
 21
736.9032285897083
 31
0.0
  0
ENDBLK
  5
276
330
274
100
AcDbEntity
  8
0
100
AcDbBlockEnd
  0
BLOCK
  5
278
330
277
100
AcDbEntity
  8
0
100
AcDbBlockBegin
  2
PATTERNELEMENT_1
 70
     0
 10
0.0
 20
0.0
 30
0.0
  3
PATTERNELEMENT_1
  1

  0
LINE
  5
27A
330
277
100
AcDbEntity
  8
Maaiveld
  6
Continuous
 62
     7
370
    25
100
AcDbLine
 10
92.89662254495658
 20
736.7031885897084
 30
0.0
 11
122.7996125449566
 21
686.9932485897083
 31
0.0
  0
LINE
  5
27B
330
277
100
AcDbEntity
  8
Maaiveld
  6
Continuous
 62
     7
370
    25
100
AcDbLine
 10
112.7986125449566
 20
736.9032285897084
 30
0.0
 11
142.7016025449566
 21
687.1932885897084
 31
0.0
  0
LINE
  5
27C
330
277
100
AcDbEntity
  8
Maaiveld
  6
Continuous
 62
     7
370
    25
100
AcDbLine
 10
132.8006125449566
 20
736.9032285897084
 30
0.0
 11
162.7036025449566
 21
687.1932885897084
 31
0.0
  0
LINE
  5
27D
330
277
100
AcDbEntity
  8
Maaiveld
  6
Continuous
 62
     7
370
    25
100
AcDbLine
 10
162.7036025449566
 20
687.1932885897084
 30
0.0
 11
162.7036025449566
 21
687.1932885897084
 31
0.0
  0
LINE
  5
27E
330
277
100
AcDbEntity
  8
Maaiveld
  6
Continuous
 62
     7
370
    25
100
AcDbLine
 10
162.8036125449566
 20
686.9932485897083
 30
0.0
 11
192.8066125449566
 21
701.8962285897084
 31
0.0
  0
LINE
  5
27F
330
277
100
AcDbEntity
  8
Maaiveld
  6
Continuous
 62
     7
370
    25
100
AcDbLine
 10
146.8020125449566
 20
713.9486385897083
 30
0.0
 11
192.8066125449566
 21
736.7031885897084
 31
0.0
  0
LINE
  5
280
330
277
100
AcDbEntity
  8
Maaiveld
  6
Continuous
 62
     7
370
    25
100
AcDbLine
 10
155.1028425449566
 20
699.8958285897084
 30
0.0
 11
192.8066125449566
 21
719.1996885897084
 31
0.0
  0
LINE
  5
281
330
277
100
AcDbEntity
  8
Maaiveld
  6
Continuous
 62
     7
370
    25
100
AcDbLine
 10
92.89662254495658
 20
701.8962285897084
 30
0.0
 11
108.8982225449566
 21
709.9978485897083
 31
0.0
  0
LINE
  5
282
330
277
100
AcDbEntity
  8
Maaiveld
  6
Continuous
 62
     7
370
    25
100
AcDbLine
 10
92.89662254495658
 20
719.1996885897084
 30
0.0
 11
100.7974125449565
 21
723.2504985897084
 31
0.0
  0
LINE
  5
283
330
277
100
AcDbEntity
  8
Maaiveld
  6
Continuous
 62
     7
370
    25
100
AcDbLine
 10
100.7974125449565
 20
723.2504985897084
 30
0.0
 11
100.7974125449565
 21
723.2504985897084
 31
0.0
  0
LINE
  5
284
330
277
100
AcDbEntity
  8
Maaiveld
  6
Continuous
 62
     7
370
    25
100
AcDbLine
 10
192.9066225449566
 20
736.7031885897084
 30
0.0
 11
222.8096125449566
 21
686.9932485897083
 31
0.0
  0
LINE
  5
285
330
277
100
AcDbEntity
  8
Maaiveld
  6
Continuous
 62
     7
370
    25
100
AcDbLine
 10
212.8086125449566
 20
736.9032285897084
 30
0.0
 11
242.7116025449566
 21
687.1932885897084
 31
0.0
  0
LINE
  5
286
330
277
100
AcDbEntity
  8
Maaiveld
  6
Continuous
 62
     7
370
    25
100
AcDbLine
 10
232.8106125449566
 20
736.9032285897084
 30
0.0
 11
262.7136025449566
 21
687.1932885897084
 31
0.0
  0
LINE
  5
287
330
277
100
AcDbEntity
  8
Maaiveld
  6
Continuous
 62
     7
370
    25
100
AcDbLine
 10
262.7136025449566
 20
687.1932885897084
 30
0.0
 11
262.7136025449566
 21
687.1932885897084
 31
0.0
  0
LINE
  5
288
330
277
100
AcDbEntity
  8
Maaiveld
  6
Continuous
 62
     7
370
    25
100
AcDbLine
 10
262.8136125449566
 20
686.9932485897083
 30
0.0
 11
292.8166125449566
 21
701.8962285897084
 31
0.0
  0
LINE
  5
289
330
277
100
AcDbEntity
  8
Maaiveld
  6
Continuous
 62
     7
370
    25
100
AcDbLine
 10
246.8120125449566
 20
713.9486385897083
 30
0.0
 11
292.8166125449566
 21
736.7031885897084
 31
0.0
  0
LINE
  5
28A
330
277
100
AcDbEntity
  8
Maaiveld
  6
Continuous
 62
     7
370
    25
100
AcDbLine
 10
255.1128425449566
 20
699.8958285897084
 30
0.0
 11
292.8166125449566
 21
719.1996885897084
 31
0.0
  0
LINE
  5
28B
330
277
100
AcDbEntity
  8
Maaiveld
  6
Continuous
 62
     7
370
    25
100
AcDbLine
 10
192.9066225449566
 20
701.8962285897084
 30
0.0
 11
208.9082225449566
 21
709.9978485897083
 31
0.0
  0
LINE
  5
28C
330
277
100
AcDbEntity
  8
Maaiveld
  6
Continuous
 62
     7
370
    25
100
AcDbLine
 10
192.9066225449566
 20
719.1996885897084
 30
0.0
 11
200.8074125449566
 21
723.2504985897084
 31
0.0
  0
LINE
  5
28D
330
277
100
AcDbEntity
  8
Maaiveld
  6
Continuous
 62
     7
370
    25
100
AcDbLine
 10
200.8074125449566
 20
723.2504985897084
 30
0.0
 11
200.8074125449566
 21
723.2504985897084
 31
0.0
  0
LINE
  5
28E
330
277
100
AcDbEntity
  8
Maaiveld
  6
Continuous
 62
     7
370
    25
100
AcDbLine
 10
292.9166225449566
 20
736.7031885897084
 30
0.0
 11
302.8466175449129
 21
720.1958274312381
 31
0.0
  0
LINE
  5
28F
330
277
100
AcDbEntity
  8
Maaiveld
  6
Continuous
 62
     7
370
    25
100
AcDbLine
 10
292.9166225449566
 20
701.8962285897083
 30
0.0
 11
302.8466175449129
 21
706.9237912141675
 31
0.0
  0
LINE
  5
290
330
277
100
AcDbEntity
  8
Maaiveld
  6
Continuous
 62
     7
370
    25
100
AcDbLine
 10
292.9166225449566
 20
719.1996885897084
 30
0.0
 11
300.8174125449566
 21
723.2504985897084
 31
0.0
  0
LINE
  5
291
330
277
100
AcDbEntity
  8
Maaiveld
  6
Continuous
 62
     7
370
    25
100
AcDbLine
 10
300.8174125449566
 20
723.2504985897084
 30
0.0
 11
300.8174125449566
 21
723.2504985897084
 31
0.0
  0
ENDBLK
  5
279
330
277
100
AcDbEntity
  8
0
100
AcDbBlockEnd
  0
BLOCK
  5
2AB
330
2AA
100
AcDbEntity
  8
0
100
AcDbBlockBegin
  2
COMPLEXOBJECT_2
 70
     0
 10
0.0
 20
0.0
 30
0.0
  3
COMPLEXOBJECT_2
  1

  0
LINE
  5
2AD
330
2AA
100
AcDbEntity
  8
VENTILATIEKOKERS-ROOSTERS
  6
ALL_S17
 62
    30
370
    18
100
AcDbLine
 10
532.7001297031191
 20
506.5036754886837
 30
0.0
 11
532.7001297031191
 21
463.7032854886833
 31
0.0
  0
LWPOLYLINE
  5
2AE
330
2AA
100
AcDbEntity
  8
VENTILATIEKOKERS-ROOSTERS
  6
ALL_S17
 62
    30
370
    18
100
AcDbPolyline
 90
        8
 70
     0
 43
0.0
 10
439.5001297031184
 20
460.1032854886812
 10
507.7001297031191
 20
460.1034804886817
 10
507.7001297031191
 20
461.9032854886841
 10
532.7001297031191
 20
461.9032854886841
 10
532.7001437431107
 20
463.7032854886288
 10
505.9001076275279
 20
463.7034945287828
 10
505.9001186654175
 20
461.9034694509114
 10
439.5001297031184
 20
461.9032854886841
  0
LWPOLYLINE
  5
2AF
330
2AA
100
AcDbEntity
  8
VENTILATIEKOKERS-ROOSTERS
  6
ALL_S17
 62
    30
370
    18
100
AcDbPolyline
 90
        9
 70
     1
 43
0.0
 10
777.8001297031192
 20
506.5036754886837
 10
555.9003247031186
 20
506.5036754886837
 10
555.9003247031186
 20
508.303675488683
 10
507.7001297031191
 20
508.303675488683
 10
507.7001297031191
 20
510.1034804886817
 10
557.7001297031191
 20
510.1034804886817
 10
557.7001297031191
 20
508.3034804886824
 10
777.8001297031192
 20
508.3034804886824
 10
777.8001297031192
 20
506.5036754886837
  0
LWPOLYLINE
  5
2B0
330
2AA
100
AcDbEntity
  8
VENTILATIEKOKERS-ROOSTERS
  6
ALL_S17
 62
    30
370
    18
100
AcDbPolyline
 90
        9
 70
     1
 43
0.0
 10
777.8001297031192
 20
463.7032854886833
 10
555.9003247031186
 20
463.7032854886833
 10
555.9003247031186
 20
461.9032854886841
 10
507.7001297031191
 20
461.9032854886841
 10
507.7001297031191
 20
460.1034804886817
 10
557.7001297031191
 20
460.1034804886817
 10
557.7001297031191
 20
461.9034804886846
 10
777.8001297031192
 20
461.9034804886846
 10
777.8001297031192
 20
463.7032854886833
  0
LINE
  5
2B1
330
2AA
100
AcDbEntity
  8
VENTILATIEKOKERS-ROOSTERS
  6
ALL_S17
 62
    30
370
    18
100
AcDbLine
 10
777.8001297031192
 20
463.7032854886833
 30
0.0
 11
777.8001297031192
 21
506.5036754886837
 31
0.0
  0
LWPOLYLINE
  5
2B2
330
2AA
100
AcDbEntity
  8
VENTILATIEKOKERS-ROOSTERS
  6
ALL_S17
 62
    30
370
    18
100
AcDbPolyline
 90
        5
 70
     1
 43
0.0
 10
302.7966125449129
 20
886.9032285897047
 10
347.7966125449129
 20
886.9032285897047
 10
347.7966125449129
 20
888.7030335897033
 10
302.7966125449129
 20
888.7030335897033
 10
302.7966125449129
 20
886.9032285897047
  0
LWPOLYLINE
  5
2B3
330
2AA
100
AcDbEntity
  8
VENTILATIEKOKERS-ROOSTERS
  6
ALL_S17
 62
    30
370
    18
100
AcDbPolyline
 90
        5
 70
     1
 43
0.0
 10
302.7966125449129
 20
935.1034235897023
 10
347.7966125449129
 20
935.1034235897023
 10
347.7966125449129
 20
936.9032285897047
 10
302.7966125449129
 20
936.9032285897047
 10
302.7966125449129
 20
935.1034235897023
  0
LINE
  5
2B4
330
2AA
100
AcDbEntity
  8
VENTILATIEKOKERS-ROOSTERS
  6
ALL_S17
 62
    30
370
    18
100
AcDbLine
 10
302.7966125449129
 20
892.0848695897038
 30
0.0
 11
302.7966125449129
 21
892.7157285897036
 31
0.0
  0
ARC
  5
2B5
330
2AA
100
AcDbEntity
  8
VENTILATIEKOKERS-ROOSTERS
  6
ALL_S17
 62
    30
370
    18
100
AcDbCircle
 10
303.7966110771049
 20
892.7157296598343
 30
0.0
 40
0.9999985321937288
100
AcDbArc
 50
114.9627627492237
 51
180.0000613173551
  0
LWPOLYLINE
  5
2B6
330
2AA
100
AcDbEntity
  8
VENTILATIEKOKERS-ROOSTERS
  6
ALL_S17
 62
    30
370
    18
100
AcDbPolyline
 90
        3
 70
     0
 43
0.0
 10
303.3745825449132
 20
893.6223105897042
 10
310.7966125449129
 20
897.0829155897044
 10
310.7966125449129
 20
896.0653375897054
  0
ARC
  5
2B7
330
2AA
100
AcDbEntity
  8
VENTILATIEKOKERS-ROOSTERS
  6
ALL_S17
 62
    30
370
    18
100
AcDbCircle
 10
309.7966135127208
 20
896.065337303855
 30
0.0
 40
0.9999990321931589
100
AcDbArc
 50
294.9627178132507
 51
0.0
  0
LWPOLYLINE
  5
2B8
330
2AA
100
AcDbEntity
  8
VENTILATIEKOKERS-ROOSTERS
  6
ALL_S17
 62
    30
370
    18
100
AcDbPolyline
 90
        4
 70
     0
 43
0.0
 10
310.2186415449141
 20
895.1587555897058
 10
304.296612544913
 20
892.3973695897039
 10
304.296612544913
 20
891.6835015897049
 10
302.7966125449129
 20
892.0848695897038
  0
ARC
  5
2B9
330
2AA
100
AcDbEntity
  8
VENTILATIEKOKERS-ROOSTERS
  6
ALL_S17
 62
    30
370
    18
100
AcDbCircle
 10
303.7966110771049
 20
892.7157296598343
 30
0.0
 40
0.9999985321937288
100
AcDbArc
 50
114.9627627492237
 51
180.0000613173551
  0
LWPOLYLINE
  5
2BA
330
2AA
100
AcDbEntity
  8
VENTILATIEKOKERS-ROOSTERS
  6
ALL_S17
 62
    30
370
    18
100
AcDbPolyline
 90
        3
 70
     0
 43
0.0
 10
303.3745825449132
 20
893.6223105897042
 10
310.7966125449129
 20
897.0829155897044
 10
310.7966125449129
 20
896.0653375897054
  0
ARC
  5
2BB
330
2AA
100
AcDbEntity
  8
VENTILATIEKOKERS-ROOSTERS
  6
ALL_S17
 62
    30
370
    18
100
AcDbCircle
 10
309.7966135127208
 20
896.065337303855
 30
0.0
 40
0.9999990321931589
100
AcDbArc
 50
294.9627178132507
 51
0.0
  0
LWPOLYLINE
  5
2BC
330
2AA
100
AcDbEntity
  8
VENTILATIEKOKERS-ROOSTERS
  6
ALL_S17
 62
    30
370
    18
100
AcDbPolyline
 90
        4
 70
     0
 43
0.0
 10
310.2186415449141
 20
895.1587555897058
 10
304.296612544913
 20
892.3973695897039
 10
304.296612544913
 20
891.6835015897049
 10
302.7966125449129
 20
892.0848695897038
  0
LINE
  5
2BD
330
2AA
100
AcDbEntity
  8
VENTILATIEKOKERS-ROOSTERS
  6
ALL_S17
 62
    30
370
    18
100
AcDbLine
 10
302.7966125449129
 20
927.0047915897039
 30
0.0
 11
302.7966125449129
 21
927.6356505897037
 31
0.0
  0
ARC
  5
2BE
330
2AA
100
AcDbEntity
  8
VENTILATIEKOKERS-ROOSTERS
  6
ALL_S17
 62
    30
370
    18
100
AcDbCircle
 10
303.7966110771049
 20
927.6356516598315
 30
0.0
 40
0.9999985321937288
100
AcDbArc
 50
114.9627627492237
 51
180.0000613173551
  0
LWPOLYLINE
  5
2BF
330
2AA
100
AcDbEntity
  8
VENTILATIEKOKERS-ROOSTERS
  6
ALL_S17
 62
    30
370
    18
100
AcDbPolyline
 90
        3
 70
     0
 43
0.0
 10
303.3745825449132
 20
928.5422325897016
 10
310.7966125449129
 20
932.0028375897019
 10
310.7966125449129
 20
930.9852595897027
  0
ARC
  5
2C0
330
2AA
100
AcDbEntity
  8
VENTILATIEKOKERS-ROOSTERS
  6
ALL_S17
 62
    30
370
    18
100
AcDbCircle
 10
309.7966135127208
 20
930.9852593038522
 30
0.0
 40
0.9999990321931589
100
AcDbArc
 50
294.9627178132507
 51
0.0
  0
LWPOLYLINE
  5
2C1
330
2AA
100
AcDbEntity
  8
VENTILATIEKOKERS-ROOSTERS
  6
ALL_S17
 62
    30
370
    18
100
AcDbPolyline
 90
        4
 70
     0
 43
0.0
 10
310.2186415449141
 20
930.0786775897032
 10
304.296612544913
 20
927.3172915897047
 10
304.296612544913
 20
926.6034235897022
 10
302.7966125449129
 20
927.0047915897048
  0
ARC
  5
2C2
330
2AA
100
AcDbEntity
  8
VENTILATIEKOKERS-ROOSTERS
  6
ALL_S17
 62
    30
370
    18
100
AcDbCircle
 10
303.7966110771049
 20
927.6356516598315
 30
0.0
 40
0.9999985321937288
100
AcDbArc
 50
114.9627627492237
 51
180.0000613173551
  0
LWPOLYLINE
  5
2C3
330
2AA
100
AcDbEntity
  8
VENTILATIEKOKERS-ROOSTERS
  6
ALL_S17
 62
    30
370
    18
100
AcDbPolyline
 90
        3
 70
     0
 43
0.0
 10
303.3745825449132
 20
928.5422325897016
 10
310.7966125449129
 20
932.0028375897019
 10
310.7966125449129
 20
930.9852595897027
  0
ARC
  5
2C4
330
2AA
100
AcDbEntity
  8
VENTILATIEKOKERS-ROOSTERS
  6
ALL_S17
 62
    30
370
    18
100
AcDbCircle
 10
309.7966135127208
 20
930.9852593038522
 30
0.0
 40
0.9999990321931589
100
AcDbArc
 50
294.9627178132507
 51
0.0
  0
LWPOLYLINE
  5
2C5
330
2AA
100
AcDbEntity
  8
VENTILATIEKOKERS-ROOSTERS
  6
ALL_S17
 62
    30
370
    18
100
AcDbPolyline
 90
        4
 70
     0
 43
0.0
 10
310.2186415449141
 20
930.0786775897032
 10
304.296612544913
 20
927.3172915897047
 10
304.296612544913
 20
926.6034235897022
 10
302.7966125449129
 20
927.0047915897048
  0
LINE
  5
2C6
330
2AA
100
AcDbEntity
  8
VENTILATIEKOKERS-ROOSTERS
  6
ALL_S17
 62
    30
370
    18
100
AcDbLine
 10
302.7966125449129
 20
918.2743225897038
 30
0.0
 11
302.7966125449129
 21
918.9051815897038
 31
0.0
  0
ARC
  5
2C7
330
2AA
100
AcDbEntity
  8
VENTILATIEKOKERS-ROOSTERS
  6
ALL_S17
 62
    30
370
    18
100
AcDbCircle
 10
303.7966110771049
 20
918.9051826598333
 30
0.0
 40
0.9999985321937288
100
AcDbArc
 50
114.9627627492237
 51
180.0000613173551
  0
LWPOLYLINE
  5
2C8
330
2AA
100
AcDbEntity
  8
VENTILATIEKOKERS-ROOSTERS
  6
ALL_S17
 62
    30
370
    18
100
AcDbPolyline
 90
        3
 70
     0
 43
0.0
 10
303.3745825449132
 20
919.8117635897032
 10
310.7966125449129
 20
923.2723695897039
 10
310.7966125449129
 20
922.2547915897049
  0
ARC
  5
2C9
330
2AA
100
AcDbEntity
  8
VENTILATIEKOKERS-ROOSTERS
  6
ALL_S17
 62
    30
370
    18
100
AcDbCircle
 10
309.7966127284417
 20
922.254790803854
 30
0.0
 40
0.99999981647278
100
AcDbArc
 50
294.9627464611313
 51
0.0
  0
LWPOLYLINE
  5
2CA
330
2AA
100
AcDbEntity
  8
VENTILATIEKOKERS-ROOSTERS
  6
ALL_S17
 62
    30
370
    18
100
AcDbPolyline
 90
        4
 70
     0
 43
0.0
 10
310.2186415449141
 20
921.3482085897048
 10
304.296612544913
 20
918.586822589703
 10
304.296612544913
 20
917.8729555897044
 10
302.7966125449129
 20
918.2743225897029
  0
ARC
  5
2CB
330
2AA
100
AcDbEntity
  8
VENTILATIEKOKERS-ROOSTERS
  6
ALL_S17
 62
    30
370
    18
100
AcDbCircle
 10
303.7966110771049
 20
918.9051826598333
 30
0.0
 40
0.9999985321937288
100
AcDbArc
 50
114.9627627492237
 51
180.0000613173551
  0
LWPOLYLINE
  5
2CC
330
2AA
100
AcDbEntity
  8
VENTILATIEKOKERS-ROOSTERS
  6
ALL_S17
 62
    30
370
    18
100
AcDbPolyline
 90
        3
 70
     0
 43
0.0
 10
303.3745825449132
 20
919.8117635897032
 10
310.7966125449129
 20
923.2723695897039
 10
310.7966125449129
 20
922.2547915897049
  0
ARC
  5
2CD
330
2AA
100
AcDbEntity
  8
VENTILATIEKOKERS-ROOSTERS
  6
ALL_S17
 62
    30
370
    18
100
AcDbCircle
 10
309.7966127284417
 20
922.254790803854
 30
0.0
 40
0.99999981647278
100
AcDbArc
 50
294.9627464611313
 51
0.0
  0
LWPOLYLINE
  5
2CE
330
2AA
100
AcDbEntity
  8
VENTILATIEKOKERS-ROOSTERS
  6
ALL_S17
 62
    30
370
    18
100
AcDbPolyline
 90
        4
 70
     0
 43
0.0
 10
310.2186415449141
 20
921.3482085897048
 10
304.296612544913
 20
918.586822589703
 10
304.296612544913
 20
917.8729555897044
 10
302.7966125449129
 20
918.2743225897029
  0
LINE
  5
2CF
330
2AA
100
AcDbEntity
  8
VENTILATIEKOKERS-ROOSTERS
  6
ALL_S17
 62
    30
370
    18
100
AcDbLine
 10
302.7966125449129
 20
909.5448305897043
 30
0.0
 11
302.7966125449129
 21
910.1756895897041
 31
0.0
  0
ARC
  5
2D0
330
2AA
100
AcDbEntity
  8
VENTILATIEKOKERS-ROOSTERS
  6
ALL_S17
 62
    30
370
    18
100
AcDbCircle
 10
303.7966110771049
 20
910.1756906598348
 30
0.0
 40
0.9999985321937288
100
AcDbArc
 50
114.9627627492237
 51
180.0000613173551
  0
LWPOLYLINE
  5
2D1
330
2AA
100
AcDbEntity
  8
VENTILATIEKOKERS-ROOSTERS
  6
ALL_S17
 62
    30
370
    18
100
AcDbPolyline
 90
        3
 70
     0
 43
0.0
 10
303.3745825449132
 20
911.0822715897047
 10
310.7966125449129
 20
914.5428765897049
 10
310.7966125449129
 20
913.5252985897023
  0
ARC
  5
2D2
330
2AA
100
AcDbEntity
  8
VENTILATIEKOKERS-ROOSTERS
  6
ALL_S17
 62
    30
370
    18
100
AcDbCircle
 10
309.7966135127208
 20
913.5252983038517
 30
0.0
 40
0.9999990321931589
100
AcDbArc
 50
294.9627178132507
 51
0.0
  0
LWPOLYLINE
  5
2D3
330
2AA
100
AcDbEntity
  8
VENTILATIEKOKERS-ROOSTERS
  6
ALL_S17
 62
    30
370
    18
100
AcDbPolyline
 90
        4
 70
     0
 43
0.0
 10
310.2186415449141
 20
912.6187165897027
 10
304.296612544913
 20
909.8573305897044
 10
304.296612544913
 20
909.1434625897054
 10
302.7966125449129
 20
909.5448305897043
  0
ARC
  5
2D4
330
2AA
100
AcDbEntity
  8
VENTILATIEKOKERS-ROOSTERS
  6
ALL_S17
 62
    30
370
    18
100
AcDbCircle
 10
303.7966110771049
 20
910.1756906598348
 30
0.0
 40
0.9999985321937288
100
AcDbArc
 50
114.9627627492237
 51
180.0000613173551
  0
LWPOLYLINE
  5
2D5
330
2AA
100
AcDbEntity
  8
VENTILATIEKOKERS-ROOSTERS
  6
ALL_S17
 62
    30
370
    18
100
AcDbPolyline
 90
        3
 70
     0
 43
0.0
 10
303.3745825449132
 20
911.0822715897047
 10
310.7966125449129
 20
914.5428765897049
 10
310.7966125449129
 20
913.5252985897023
  0
ARC
  5
2D6
330
2AA
100
AcDbEntity
  8
VENTILATIEKOKERS-ROOSTERS
  6
ALL_S17
 62
    30
370
    18
100
AcDbCircle
 10
309.7966135127208
 20
913.5252983038517
 30
0.0
 40
0.9999990321931589
100
AcDbArc
 50
294.9627178132507
 51
0.0
  0
LWPOLYLINE
  5
2D7
330
2AA
100
AcDbEntity
  8
VENTILATIEKOKERS-ROOSTERS
  6
ALL_S17
 62
    30
370
    18
100
AcDbPolyline
 90
        4
 70
     0
 43
0.0
 10
310.2186415449141
 20
912.6187165897027
 10
304.296612544913
 20
909.8573305897044
 10
304.296612544913
 20
909.1434625897054
 10
302.7966125449129
 20
909.5448305897043
  0
LINE
  5
2D8
330
2AA
100
AcDbEntity
  8
VENTILATIEKOKERS-ROOSTERS
  6
ALL_S17
 62
    30
370
    18
100
AcDbLine
 10
302.7966125449129
 20
900.8143615897042
 30
0.0
 11
302.7966125449129
 21
901.4452205897041
 31
0.0
  0
ARC
  5
2D9
330
2AA
100
AcDbEntity
  8
VENTILATIEKOKERS-ROOSTERS
  6
ALL_S17
 62
    30
370
    18
100
AcDbCircle
 10
303.7966110771049
 20
901.4452216598328
 30
0.0
 40
0.9999985321937288
100
AcDbArc
 50
114.9627627492237
 51
180.0000613173551
  0
LWPOLYLINE
  5
2DA
330
2AA
100
AcDbEntity
  8
VENTILATIEKOKERS-ROOSTERS
  6
ALL_S17
 62
    30
370
    18
100
AcDbPolyline
 90
        3
 70
     0
 43
0.0
 10
303.3745825449132
 20
902.3518025897029
 10
310.7966125449129
 20
905.8124085897034
 10
310.7966125449129
 20
904.7948305897044
  0
ARC
  5
2DB
330
2AA
100
AcDbEntity
  8
VENTILATIEKOKERS-ROOSTERS
  6
ALL_S17
 62
    30
370
    18
100
AcDbCircle
 10
309.7966127284417
 20
904.7948298038535
 30
0.0
 40
0.9999998164727799
100
AcDbArc
 50
294.9627464611341
 51
0.0
  0
LWPOLYLINE
  5
2DC
330
2AA
100
AcDbEntity
  8
VENTILATIEKOKERS-ROOSTERS
  6
ALL_S17
 62
    30
370
    18
100
AcDbPolyline
 90
        4
 70
     0
 43
0.0
 10
310.2186415449141
 20
903.8882475897043
 10
304.296612544913
 20
901.1268615897025
 10
304.296612544913
 20
900.4129945897039
 10
302.7966125449129
 20
900.8143615897024
  0
ARC
  5
2DD
330
2AA
100
AcDbEntity
  8
VENTILATIEKOKERS-ROOSTERS
  6
ALL_S17
 62
    30
370
    18
100
AcDbCircle
 10
303.7966110771049
 20
901.4452216598328
 30
0.0
 40
0.9999985321937288
100
AcDbArc
 50
114.9627627492237
 51
180.0000613173551
  0
LWPOLYLINE
  5
2DE
330
2AA
100
AcDbEntity
  8
VENTILATIEKOKERS-ROOSTERS
  6
ALL_S17
 62
    30
370
    18
100
AcDbPolyline
 90
        3
 70
     0
 43
0.0
 10
303.3745825449132
 20
902.3518025897029
 10
310.7966125449129
 20
905.8124085897034
 10
310.7966125449129
 20
904.7948305897044
  0
ARC
  5
2DF
330
2AA
100
AcDbEntity
  8
VENTILATIEKOKERS-ROOSTERS
  6
ALL_S17
 62
    30
370
    18
100
AcDbCircle
 10
309.7966127284417
 20
904.7948298038535
 30
0.0
 40
0.9999998164727799
100
AcDbArc
 50
294.9627464611341
 51
0.0
  0
LWPOLYLINE
  5
2E0
330
2AA
100
AcDbEntity
  8
VENTILATIEKOKERS-ROOSTERS
  6
ALL_S17
 62
    30
370
    18
100
AcDbPolyline
 90
        4
 70
     0
 43
0.0
 10
310.2186415449141
 20
903.8882475897043
 10
304.296612544913
 20
901.1268615897025
 10
304.296612544913
 20
900.4129945897039
 10
302.7966125449129
 20
900.8143615897024
  0
LINE
  5
2E1
330
2AA
100
AcDbEntity
  8
VENTILATIEKOKERS-ROOSTERS
  6
ALL_S17
 62
    30
370
    18
100
AcDbLine
 10
332.7966125449129
 20
890.5030335897036
 30
0.0
 11
332.7966125449129
 21
933.303423589704
 31
0.0
  0
ARC
  5
2E2
330
2AA
100
AcDbEntity
  8
VENTILATIEKOKERS-ROOSTERS
  6
ALL_S17
 62
    30
370
    18
100
AcDbCircle
 10
407.7966125449129
 20
906.9034235897051
 30
0.0
 40
28.19999999999982
100
AcDbArc
 50
0.0
 51
90.0
  0
LWPOLYLINE
  5
2E3
330
2AA
100
AcDbEntity
  8
VENTILATIEKOKERS-ROOSTERS
  6
ALL_S17
 62
    30
370
    18
100
AcDbPolyline
 90
        4
 70
     0
 43
0.0
 10
437.7966125449129
 20
906.9034235897051
 10
437.7001297031191
 20
605.1032285897051
 10
435.9001297031198
 20
605.1032285897051
 10
435.9966125449136
 20
906.9034235897051
  0
LWPOLYLINE
  5
2E4
330
2AA
100
AcDbEntity
  8
VENTILATIEKOKERS-ROOSTERS
  6
ALL_S17
 62
    30
370
    18
100
AcDbPolyline
 90
        8
 70
     0
 43
0.0
 10
407.7966125449129
 20
936.9034235897052
 10
357.7966125449129
 20
936.9032285897047
 10
357.7966125449129
 20
935.1034235897023
 10
332.7966125449129
 20
935.1034235897023
 10
332.7965985049214
 20
933.3034235897576
 10
359.5966346205059
 20
933.3032145496035
 10
359.5966235826163
 20
935.1032396274749
 10
407.7966125449129
 20
935.1034235897023
  0
LINE
  5
2E5
330
2AA
100
AcDbEntity
  8
VENTILATIEKOKERS-ROOSTERS
  6
ALL_S17
 62
    30
370
    18
100
AcDbLine
 10
426.0147034563233
 20
972.1580990309321
 30
0.0
 11
427.7966125449129
 21
971.9035405897047
 31
0.0
  0
LINE
  5
2E6
330
2AA
100
AcDbEntity
  8
VENTILATIEKOKERS-ROOSTERS
  6
ALL_S17
 62
    30
370
    18
100
AcDbLine
 10
422.2652240159459
 20
933.1838208869349
 30
0.0
 11
427.7966125449129
 21
971.9035405897047
 31
0.0
  0
ARC
  5
2E7
330
2AA
100
AcDbEntity
  8
VENTILATIEKOKERS-ROOSTERS
  6
ALL_S17
 62
    30
370
    18
100
AcDbCircle
 10
407.7966125449129
 20
906.9034235897051
 30
0.0
 40
30.0
100
AcDbArc
 50
0.0
 51
90.0
  0
LINE
  5
2E8
330
2AA
100
AcDbEntity
  8
VENTILATIEKOKERS-ROOSTERS
  6
ALL_S17
 62
    30
370
    18
100
AcDbLine
 10
420.5704091023435
 20
934.04803855307
 30
0.0
 11
426.0147034563233
 21
972.1580990309321
 31
0.0
  0
LWPOLYLINE
  5
2E9
330
2AA
100
AcDbEntity
  8
VENTILATIEKOKERS-ROOSTERS
  6
ALL_S17
 62
    30
370
    18
100
AcDbPolyline
 90
        4
 70
     0
 43
0.0
 10
409.5001297031184
 20
490.1032854886811
 10
409.5966125449121
 20
791.9030225218754
 10
411.3966125449133
 20
791.9030225218754
 10
411.3001297031194
 20
490.1032854886811
  0
LINE
  5
2EA
330
2AA
100
AcDbEntity
  8
VENTILATIEKOKERS-ROOSTERS
  6
ALL_S17
 62
    30
370
    18
100
AcDbLine
 10
411.3966125449133
 20
791.9030225218754
 30
0.0
 11
434.1966125449125
 21
791.9030225218754
 31
0.0
  0
LINE
  5
2EB
330
2AA
100
AcDbEntity
  8
VENTILATIEKOKERS-ROOSTERS
  6
ALL_S17
 62
    30
370
    18
100
AcDbLine
 10
302.7966125449129
 20
888.7030335897033
 30
0.0
 11
302.7966125449129
 21
935.103423589704
 31
0.0
  0
ARC
  5
2EC
330
2AA
100
AcDbEntity
  8
VENTILATIEKOKERS-ROOSTERS
  6
ALL_S17
 62
    30
370
    18
100
AcDbCircle
 10
397.7966125449129
 20
876.9032285897047
 30
0.0
 40
10.0
100
AcDbArc
 50
0.0
 51
90.0
  0
ARC
  5
2ED
330
2AA
100
AcDbEntity
  8
VENTILATIEKOKERS-ROOSTERS
  6
ALL_S17
 62
    30
370
    18
100
AcDbCircle
 10
397.7967351865173
 20
876.9031059473491
 30
0.0
 40
11.79987735839627
100
AcDbArc
 50
0.0
 51
89.99964865795519
  0
LWPOLYLINE
  5
2EE
330
2AA
100
AcDbEntity
  8
VENTILATIEKOKERS-ROOSTERS
  6
ALL_S17
 62
    30
370
    18
100
AcDbPolyline
 90
        4
 70
     0
 43
0.0
 10
409.5966125449121
 20
876.9031059473491
 10
409.5001297031184
 20
605.1032285897051
 10
407.7001297031191
 20
605.1032285897051
 10
407.7966125449129
 20
876.9032285897047
  0
LWPOLYLINE
  5
2EF
330
2AA
100
AcDbEntity
  8
VENTILATIEKOKERS-ROOSTERS
  6
ALL_S17
 62
    30
370
    18
100
AcDbPolyline
 90
        8
 70
     0
 43
0.0
 10
397.7966125449129
 20
886.9032285897047
 10
357.7966125449129
 20
886.9032285897047
 10
357.7966125449129
 20
888.7030335897033
 10
332.7966125449129
 20
888.7030335897033
 10
332.7965985049214
 20
890.5030335896482
 10
359.5966346205059
 20
890.5032426298021
 10
359.5966235826163
 20
888.7032175519344
 10
397.796807544255
 20
888.7029833055203
  0
ARC
  5
2F0
330
2AA
100
AcDbEntity
  8
VENTILATIEKOKERS-ROOSTERS
  6
ALL_S17
 62
    30
370
    18
100
AcDbCircle
 10
439.5001297031184
 20
490.1032854886811
 30
0.0
 40
28.19999999999982
100
AcDbArc
 50
180.0
 51
270.0
  0
ARC
  5
2F1
330
2AA
100
AcDbEntity
  8
VENTILATIEKOKERS-ROOSTERS
  6
ALL_S17
 62
    30
370
    18
100
AcDbCircle
 10
439.5001297031184
 20
490.1032854886811
 30
0.0
 40
30.0
100
AcDbArc
 50
180.0
 51
270.0
  0
ARC
  5
2F2
330
2AA
100
AcDbEntity
  8
VENTILATIEKOKERS-ROOSTERS
  6
ALL_S17
 62
    30
370
    18
100
AcDbCircle
 10
445.9001297031199
 20
520.1034804886817
 30
0.0
 40
10.0
100
AcDbArc
 50
180.0
 51
270.0
  0
ARC
  5
2F3
330
2AA
100
AcDbEntity
  8
VENTILATIEKOKERS-ROOSTERS
  6
ALL_S17
 62
    30
370
    18
100
AcDbCircle
 10
445.9000070615137
 20
520.1036031310373
 30
0.0
 40
11.79987735839627
100
AcDbArc
 50
180.0
 51
269.9996486579552
  0
LWPOLYLINE
  5
2F4
330
2AA
100
AcDbEntity
  8
VENTILATIEKOKERS-ROOSTERS
  6
ALL_S17
 62
    30
370
    18
100
AcDbPolyline
 90
        8
 70
     0
 43
0.0
 10
445.899945741511
 20
510.103530772832
 10
507.7001297031191
 20
510.1034804886817
 10
507.7001297031191
 20
508.303675488683
 10
532.7001297031191
 20
508.303675488683
 10
532.7001437431107
 20
506.5036754887382
 10
505.9001076275279
 20
506.5034664485843
 10
505.9001186654175
 20
508.303491526452
 10
445.8999347037759
 20
508.303725772866
  0
LWPOLYLINE
  5
2F5
330
2AA
100
AcDbEntity
  8
VENTILATIEKOKERS-ROOSTERS
  6
ALL_S17
 62
    30
370
    18
100
AcDbPolyline
 90
        4
 70
     0
 43
0.0
 10
434.1001297031188
 20
520.1036031310373
 10
434.1966125449125
 20
791.9030225218754
 10
435.9966125449136
 20
791.9030225218754
 10
435.9001297031198
 20
520.1036031310373
  0
ENDBLK
  5
2AC
330
2AA
100
AcDbEntity
  8
0
100
AcDbBlockEnd
  0
ENDSEC
  0
SECTION
  2
ENTITIES
  0
LWPOLYLINE
  5
71
330
1F
100
AcDbEntity
  8
AANHAALLIJN
  6
PUNKT2_S9
 62
     7
370
    13
100
AcDbPolyline
 90
        5
 70
     1
 43
0.0
 10
990.0
 20
59.99999999999636
 10
60.0
 20
59.99999999999636
 10
60.0
 20
1259.999999999996
 10
990.0
 20
1259.999999999996
 10
990.0
 20
59.99999999999636
  0
LWPOLYLINE
  5
72
330
1F
100
AcDbEntity
  8
AANHAALLIJN
  6
Continuous
 62
     7
370
    25
100
AcDbPolyline
 90
        5
 70
     1
 43
0.0
 10
1050.0
 20
-0.000000000003638
 10
0.0
 20
0.0
 10
0.0
 20
1485.0
 10
1050.0
 20
1485.0
 10
1050.0
 20
-0.000000000003638
  0
LWPOLYLINE
  5
73
330
1F
100
AcDbEntity
  8
DEFPOINTS
  6
PUNKT2_S9
 62
     7
370
    13
100
AcDbPolyline
 90
        5
 70
     1
 43
0.0
 10
990.0
 20
59.99999999999636
 10
60.0
 20
59.99999999999636
 10
60.0
 20
1259.999999999996
 10
990.0
 20
1259.999999999996
 10
990.0
 20
59.99999999999636
  0
LWPOLYLINE
  5
74
330
1F
100
AcDbEntity
  8
AANHAALLIJN
  6
Continuous
 62
     7
370
    25
100
AcDbPolyline
 90
        5
 70
     1
 43
0.0
 10
1050.0
 20
-0.000000000003638
 10
0.0
 20
0.0
 10
0.0
 20
1485.0
 10
1050.0
 20
1485.0
 10
1050.0
 20
-0.000000000003638
  0
LINE
  5
75
330
1F
100
AcDbEntity
  8
Maatlijnen 1_5
  6
ALL_S17
 62
    30
370
    18
100
AcDbLine
 10
142.7966125449566
 20
456.9032285897046
 30
0.0
 11
92.79661254495659
 21
456.9032285897046
 31
0.0
  0
LWPOLYLINE
  5
99
330
1F
100
AcDbEntity
  8
DILALATIEVOEG EN AFDICHTING
  6
Continuous
 62
     5
370
    13
100
AcDbPolyline
 90
        5
 70
     1
 43
0.0
 10
687.7966125449129
 20
806.9032285897046
 10
677.7966125449129
 20
806.9032285897046
 10
677.7966125449129
 20
856.9032285897046
 10
687.7966125449129
 20
856.9032285897046
 10
687.7966125449129
 20
806.9032285897046
  0
HATCH
  5
9B
330
1F
100
AcDbEntity
  8
DILALATIEVOEG EN AFDICHTING
  6
Continuous
 62
     5
370
    13
100
AcDbHatch
 10
0.0
 20
0.0
 30
0.0
210
0.0
220
0.0
230
1.0
  2
HATCHING_341
 70
     0
 71
     0
 91
        1
 92
        0
 93
        4
 72
     1
 10
677.7966125449129
 20
806.9032285897046
 11
687.7966125449129
 21
806.9032285897046
 72
     1
 10
687.7966125449129
 20
806.9032285897046
 11
687.7966125449129
 21
856.9032285897046
 72
     1
 10
687.7966125449129
 20
856.9032285897046
 11
677.7966125449129
 21
856.9032285897046
 72
     1
 10
677.7966125449129
 20
856.9032285897046
 11
677.7966125449129
 21
806.9032285897046
 97
        0
 75
     0
 76
     2
 52
90.00000000000001
 41
5.0
 77
     0
 78
     2
 53
180.0
 43
0.0
 44
0.0
 45
-0.0000000000000018
 46
-15.0
 79
     0
 53
180.0
 43
0.0000000000000003
 44
-7.5
 45
-0.0000000000000018
 46
-15.0
 79
     0
 98
        0
1001
ACAD
1010
687.7966125449129
1020
831.9032285897046
1030
0.0
1001
NEM_ODX
1002
{
1000
BZM_DEPEND
1070
     1
1000
BZM_SCALE
1040
5.0
1000
HATCHING_341
1002
}
  0
HATCH
  5
9C
330
1F
100
AcDbEntity
  8
DILALATIEVOEG EN AFDICHTING
  6
Continuous
 62
   255
370
    13
100
AcDbHatch
 10
0.0
 20
0.0
 30
0.0
210
0.0
220
0.0
230
1.0
  2
SOLID
 70
     1
 71
     0
 91
        1
 92
        0
 93
        4
 72
     1
 10
677.7966125449129
 20
856.9032285897046
 11
687.7966125449129
 21
856.9032285897046
 72
     1
 10
687.7966125449129
 20
856.9032285897046
 11
687.7966125449129
 21
876.9032285897047
 72
     1
 10
687.7966125449129
 20
876.9032285897047
 11
677.7966125449129
 21
876.9032285897047
 72
     1
 10
677.7966125449129
 20
876.9032285897047
 11
677.7966125449129
 21
856.9032285897046
 97
        0
 75
     0
 76
     1
 98
        0
450
        0
451
        0
460
1.570796326794896
461
0.0
452
        1
462
0.0
453
        0
470

1001
ACAD
1010
687.7966125449129
1020
881.9032285897046
1030
0.0
1001
NEM_ODX
1002
{
1000
BZM_DEPEND
1070
     1
1000
BZM_SCALE
1040
5.0
1000
HATCHING_341
1002
}
  0
HATCH
  5
9D
330
1F
100
AcDbEntity
  8
DILALATIEVOEG EN AFDICHTING
  6
Continuous
 62
     7
370
    13
100
AcDbHatch
 10
0.0
 20
0.0
 30
0.0
210
0.0
220
0.0
230
1.0
  2
HATCHING_341
 70
     0
 71
     0
 91
        1
 92
        0
 93
        4
 72
     1
 10
677.7966125449129
 20
856.9032285897046
 11
687.7966125449129
 21
856.9032285897046
 72
     1
 10
687.7966125449129
 20
856.9032285897046
 11
687.7966125449129
 21
876.9032285897047
 72
     1
 10
687.7966125449129
 20
876.9032285897047
 11
677.7966125449129
 21
876.9032285897047
 72
     1
 10
677.7966125449129
 20
876.9032285897047
 11
677.7966125449129
 21
856.9032285897046
 97
        0
 75
     0
 76
     2
 52
90.00000000000001
 41
5.0
 77
     0
 78
     2
 53
180.0
 43
0.0
 44
0.0
 45
-0.0000000000000018
 46
-15.0
 79
     0
 53
180.0
 43
0.0000000000000003
 44
-7.5
 45
-0.0000000000000018
 46
-15.0
 79
     0
 98
        0
1001
ACAD
1010
687.7966125449129
1020
881.9032285897046
1030
0.0
1001
NEM_ODX
1002
{
1000
BZM_DEPEND
1070
     1
1000
BZM_SCALE
1040
5.0
1000
HATCHING_341
1002
}
  0
LWPOLYLINE
  5
9E
330
1F
100
AcDbEntity
  8
DILALATIEVOEG EN AFDICHTING
  6
Continuous
 62
     5
370
    13
100
AcDbPolyline
 90
        5
 70
     1
 43
0.0
 10
687.7966125449129
 20
856.9032285897046
 10
677.7966125449129
 20
856.9032285897046
 10
677.7966125449129
 20
876.9032285897047
 10
687.7966125449129
 20
876.9032285897047
 10
687.7966125449129
 20
856.9032285897046
  0
LINE
  5
9F
330
1F
100
AcDbEntity
  8
KALKZANDSTEEN
  6
STRICHLINIE2_S3
 62
    30
370
    18
100
AcDbLine
 10
577.7966125449165
 20
901.9032285897065
 30
0.0
 11
677.7966125449165
 21
901.9032285897065
 31
0.0
  0
LWPOLYLINE
  5
A0
330
1F
100
AcDbEntity
  8
DILALATIEVOEG EN AFDICHTING
  6
Continuous
 62
     7
370
    25
100
AcDbPolyline
 90
        5
 70
     1
 43
0.0
 10
677.7966125449129
 20
806.9032285897046
 10
677.7966125449129
 20
821.9032285897046
 10
577.7966125449129
 20
821.9032285897046
 10
577.7966125449093
 20
806.9032285897046
 10
677.7966125449129
 20
806.9032285897046
  0
HATCH
  5
A1
330
1F
100
AcDbEntity
  8
DILALATIEVOEG EN AFDICHTING
  6
Continuous
 62
   252
370
    25
100
AcDbHatch
 10
0.0
 20
0.0
 30
0.0
210
0.0
220
0.0
230
1.0
  2
SOLID
 70
     1
 71
     0
 91
        1
 92
        3
 72
     0
 73
     1
 93
        4
 10
677.7966125449129
 20
806.9032285897046
 10
677.7966125449129
 20
821.9032285897046
 10
577.7966125449129
 20
821.9032285897046
 10
577.7966125449129
 20
806.9032285897046
 97
        0
 75
     0
 76
     1
 98
        0
450
        0
451
        0
460
0.0
461
0.0
452
        1
462
0.0
453
        0
470

  0
LWPOLYLINE
  5
A2
330
1F
100
AcDbEntity
  8
DILALATIEVOEG EN AFDICHTING
  6
Continuous
 62
     7
370
    25
100
AcDbPolyline
 90
       13
 70
     0
 43
0.0
 10
577.7966125449093
 20
812.6211962869419
 10
583.1555963935389
 20
821.9032285897046
 10
591.8158504313833
 20
806.9032285897046
 10
600.4761044692277
 20
821.9032285897046
 10
609.1363585070685
 20
806.9032285897046
 10
617.7966125449129
 20
821.9032285897046
 10
626.4568665827574
 20
806.9032285897046
 10
635.1171206206018
 20
821.9032285897046
 10
643.7773746584426
 20
806.9032285897046
 10
652.4376286962869
 20
821.9032285897046
 10
661.0978827341313
 20
806.9032285897046
 10
669.7581367719758
 20
821.9032285897046
 10
677.7966125449129
 20
807.9801801355642
  0
INSERT
  5
A3
330
1F
100
AcDbEntity
  8
AANHAALLIJN
  6
Continuous
 62
    30
370
    18
100
AcDbBlockReference
  2
NSY154
 10
804.3480287096899
 20
831.9032285894682
 30
0.0
 41
1.962533333333333
 42
1.962533333333333
 43
1.962533333333333
  0
INSERT
  5
A4
330
1F
100
AcDbEntity
  8
AANHAALLIJN
  6
Continuous
 62
    30
370
    18
100
AcDbBlockReference
  2
NSY154
 10
804.3480287096899
 20
781.9032285894682
 30
0.0
 41
1.962533333333333
 42
1.962533333333333
 43
1.962533333333333
  0
INSERT
  5
A5
330
1F
100
AcDbEntity
  8
AANHAALLIJN
  6
Continuous
 62
    30
370
    18
100
AcDbBlockReference
  2
NSY154
 10
804.3480287096899
 20
866.9032285894681
 30
0.0
 41
1.962533333333333
 42
1.962533333333333
 43
1.962533333333333
  0
INSERT
  5
A6
330
1F
100
AcDbEntity
  8
AANHAALLIJN
  6
Continuous
 62
    30
370
    18
100
AcDbBlockReference
  2
NSY154
 10
682.7966125449129
 20
831.9032285897046
 30
0.0
 41
1.962533333333333
 42
1.962533333333333
 43
1.962533333333333
  0
HATCH
  5
A7
330
1F
100
AcDbEntity
  8
RIB-CASSETTE VLOEREN
  6
Continuous
 62
   254
370
    18
100
AcDbHatch
 10
0.0
 20
0.0
 30
0.0
210
0.0
220
0.0
230
1.0
  2
SOLID
 70
     1
 71
     0
 91
        1
 92
        3
 72
     0
 73
     1
 93
        4
 10
607.7966125449129
 20
746.9032285897046
 10
577.7966125449129
 20
766.9032285897046
 10
577.7966125449129
 20
676.9032285897046
 10
607.7966125449129
 20
696.9032285897046
 97
        0
 75
     0
 76
     1
 98
        0
450
        0
451
        0
460
0.0
461
0.0
452
        1
462
0.0
453
        0
470

  0
LWPOLYLINE
  5
A8
330
1F
100
AcDbEntity
  8
RIB-CASSETTE VLOEREN
  6
Continuous
 62
    30
370
    18
100
AcDbPolyline
 90
        5
 70
     1
 43
0.0
 10
577.7966125449129
 20
676.9032285897046
 10
577.7966125449129
 20
766.9032285897046
 10
607.7966125449129
 20
746.9032285897046
 10
607.7966125449129
 20
696.9032285897046
 10
577.7966125449129
 20
676.9032285897046
  0
LINE
  5
A9
330
1F
100
AcDbEntity
  8
RIB-CASSETTE VLOEREN
  6
VERDECKT2_S2
 62
    30
370
    18
100
AcDbLine
 10
677.7966125449129
 20
456.9032285897065
 30
0.0
 11
587.7966125449129
 21
556.9032285897065
 31
0.0
  0
LINE
  5
AA
330
1F
100
AcDbEntity
  8
RIB-CASSETTE VLOEREN
  6
VERDECKT2_S2
 62
    30
370
    18
100
AcDbLine
 10
587.7966125449129
 20
456.9032285897065
 30
0.0
 11
667.7966125449129
 21
563.3061169887932
 31
0.0
  0
LWPOLYLINE
  5
AB
330
1F
100
AcDbEntity
  8
RIB-CASSETTE VLOEREN
  6
VERDECKT2_S2
 62
    30
370
    18
100
AcDbPolyline
 90
       10
 70
     1
 43
0.0
 10
587.7966125449129
 20
456.9032285897046
 10
677.7966125449129
 20
456.9032285897046
 10
677.7966125449129
 20
603.5698965986666
 10
670.3374117729144
 20
568.7602934966417
 10
667.7966125449129
 20
563.3061169887914
 10
665.1005388723424
 20
560.2382371833991
 10
660.6716320414925
 20
557.7615372827131
 10
655.670375691403
 20
556.9032285897046
 10
587.7966125449129
 20
556.9032285897046
 10
587.7966125449129
 20
456.9032285897046
  0
LWPOLYLINE
  5
AC
330
1F
100
AcDbEntity
  8
DILALATIEVOEG EN AFDICHTING
  6
Continuous
 62
     5
370
    13
100
AcDbPolyline
 90
        5
 70
     1
 43
0.0
 10
587.7966125449129
 20
461.9032285897083
 10
677.7966125449129
 20
461.9032285897083
 10
677.7966125449129
 20
456.9032285897046
 10
587.7966125449129
 20
456.9032285897046
 10
587.7966125449129
 20
461.9032285897083
  0
LWPOLYLINE
  5
AD
330
1F
100
AcDbEntity
  8
DILALATIEVOEG EN AFDICHTING
  6
Continuous
 62
     7
370
    25
100
AcDbPolyline
 90
        5
 70
     1
 43
0.0
 10
587.7966125449129
 20
456.9032285897046
 10
677.7966125449129
 20
456.9032285897046
 10
677.7966125449129
 20
461.9032285897083
 10
587.7966125449129
 20
461.9032285897083
 10
587.7966125449129
 20
456.9032285897046
  0
HATCH
  5
AE
330
1F
100
AcDbEntity
  8
DILALATIEVOEG EN AFDICHTING
  6
Continuous
 62
   254
370
    13
100
AcDbHatch
 10
0.0
 20
0.0
 30
0.0
210
0.0
220
0.0
230
1.0
  2
SOLID
 70
     1
 71
     0
 91
        1
 92
        0
 93
        4
 72
     1
 10
587.7966125449129
 20
456.9032285897046
 11
677.7966125449129
 21
456.9032285897046
 72
     1
 10
677.7966125449129
 20
456.9032285897046
 11
677.7966125449129
 21
461.9032285897083
 72
     1
 10
677.7966125449129
 20
461.9032285897083
 11
587.7966125449129
 21
461.9032285897083
 72
     1
 10
587.7966125449129
 20
461.9032285897083
 11
587.7966125449129
 21
456.9032285897046
 97
        0
 75
     0
 76
     1
 98
        0
450
        0
451
        0
460
0.0
461
0.0
452
        1
462
0.0
453
        0
470

1001
ACAD
1010
632.7966125449129
1020
459.4032285897083
1030
0.0
1001
NEM_ODX
1002
{
1000
BZM_DEPEND
1070
     1
1000
BZM_SCALE
1040
5.0
1000
HATCHING_6
1002
}
  0
HATCH
  5
AF
330
1F
100
AcDbEntity
  8
DILALATIEVOEG EN AFDICHTING
  6
Continuous
 62
     7
370
    13
100
AcDbHatch
 10
0.0
 20
0.0
 30
0.0
210
0.0
220
0.0
230
1.0
  2
HATCHING_6
 70
     0
 71
     0
 91
        1
 92
        0
 93
        4
 72
     1
 10
587.7966125449129
 20
456.9032285897046
 11
677.7966125449129
 21
456.9032285897046
 72
     1
 10
677.7966125449129
 20
456.9032285897046
 11
677.7966125449129
 21
461.9032285897083
 72
     1
 10
677.7966125449129
 20
461.9032285897083
 11
587.7966125449129
 21
461.9032285897083
 72
     1
 10
587.7966125449129
 20
461.9032285897083
 11
587.7966125449129
 21
456.9032285897046
 97
        0
 75
     0
 76
     2
 52
0.0
 41
5.0
 77
     0
 78
     2
 53
45.0
 43
0.0
 44
0.0
 45
-5.303300858899105
 46
5.303300858899106
 79
     0
 53
135.0
 43
0.0
 44
0.0
 45
-5.303300858899106
 46
-5.303300858899105
 79
     0
 98
        0
1001
ACAD
1010
632.7966125449129
1020
459.4032285897083
1030
0.0
1001
NEM_ODX
1002
{
1000
BZM_DEPEND
1070
     1
1000
BZM_SCALE
1040
5.0
1000
HATCHING_6
1002
}
  0
INSERT
  5
B0
330
1F
100
AcDbEntity
  8
AANHAALLIJN
  6
Continuous
 62
    30
370
    18
100
AcDbBlockReference
  2
NSY154
 10
627.7966125449129
 20
1091.903228589708
 30
0.0
 41
1.962533333333333
 42
1.962533333333333
 43
1.962533333333333
  0
HATCH
  5
B1
330
1F
100
AcDbEntity
  8
KALKZANDSTEEN
  6
Continuous
 62
     7
370
    25
100
AcDbHatch
 10
0.0
 20
0.0
 30
0.0
210
0.0
220
0.0
230
1.0
  2
HATCHING_9
 70
     0
 71
     0
 91
        1
 92
        0
 93
        4
 72
     1
 10
677.7966125449129
 20
821.9032285897046
 11
677.7966125449129
 21
1176.903228589704
 72
     1
 10
677.7966125449129
 20
1176.903228589704
 11
577.7966125449129
 21
1176.903228589704
 72
     1
 10
577.7966125449129
 20
1176.903228589704
 11
577.7966125449129
 21
821.9032285897046
 72
     1
 10
577.7966125449129
 20
821.9032285897046
 11
677.7966125449129
 21
821.9032285897046
 97
        0
 75
     0
 76
     2
 52
0.0
 41
5.0
 77
     0
 78
     2
 53
45.0
 43
0.0
 44
0.0
 45
-176.7766952966368
 46
176.7766952966369
 79
     0
 53
45.0
 43
-88.38834764831842
 44
88.38834764831844
 45
-176.7766952966368
 46
176.7766952966369
 79
     0
 98
        0
1001
ACAD
1010
0.0
1020
0.0
1030
0.0
1001
NEM_ODX
1002
{
1000
BZM_DEPEND
1070
     1
1000
BZM_SCALE
1040
5.0
1000
HATCHING_9
1002
}
  0
LWPOLYLINE
  5
B2
330
1F
100
AcDbEntity
  8
KALKZANDSTEEN
  6
Continuous
 62
     3
370
    70
100
AcDbPolyline
 90
        4
 70
     0
 43
0.0
 10
577.7966125449129
 20
1176.903228589704
 10
577.7966125449093
 20
821.9032285897046
 10
677.7966125449129
 20
821.9032285897046
 10
677.7966125449129
 20
1176.903228589704
  0
INSERT
  5
B4
330
1F
100
AcDbEntity
  8
AANHAALLIJN
  6
Continuous
 62
    30
370
    18
100
AcDbBlockReference
  2
NSY154
 10
632.7966125449129
 20
459.4032285897083
 30
0.0
 41
1.962533333333333
 42
1.962533333333333
 43
1.962533333333333
  0
INSERT
  5
B6
330
1F
100
AcDbEntity
  8
AANHAALLIJN
  6
Continuous
 62
    30
370
    18
100
AcDbBlockReference
  2
NSY154
 10
627.7966125449129
 20
814.4032285897047
 30
0.0
 41
1.962533333333333
 42
1.962533333333333
 43
1.962533333333333
  0
LWPOLYLINE
  5
B9
330
1F
100
AcDbEntity
  8
DILALATIEVOEG EN AFDICHTING
  6
Continuous
 62
     5
370
    13
100
AcDbPolyline
 90
        5
 70
     1
 43
0.0
 10
573.7966125449129
 20
876.9032285897047
 10
573.7966125449129
 20
746.9032285897046
 10
574.7966125449129
 20
746.9032285897046
 10
574.7966125449129
 20
876.9032285897047
 10
573.7966125449129
 20
876.9032285897047
  0
HATCH
  5
BA
330
1F
100
AcDbEntity
  8
DILALATIEVOEG EN AFDICHTING
  6
Continuous
 62
   250
370
    25
100
AcDbHatch
 10
0.0
 20
0.0
 30
0.0
210
0.0
220
0.0
230
1.0
  2
SOLID
 70
     1
 71
     0
 91
        1
 92
        3
 72
     0
 73
     1
 93
        4
 10
573.7966125449129
 20
746.9032285897046
 10
574.7966125449129
 20
746.9032285897046
 10
574.7966125449129
 20
876.9032285897047
 10
573.7966125449129
 20
876.9032285897047
 97
        0
 75
     0
 76
     1
 98
        0
450
        0
451
        0
460
0.0
461
0.0
452
        1
462
0.0
453
        0
470

  0
LINE
  5
BB
330
1F
100
AcDbEntity
  8
Maatlijnen 1_5
  6
ALL_S17
 62
    30
370
    18
100
AcDbLine
 10
142.7966125449456
 20
856.9032285897064
 30
0.0
 11
92.79661254494568
 21
856.9032285897064
 31
0.0
  0
LWPOLYLINE
  5
C9
330
1F
100
AcDbEntity
  8
HOUT
  6
Continuous
 62
    30
370
    18
100
AcDbPolyline
 90
        6
 70
     1
 43
0.0
 10
677.7966125449129
 20
887.9032285897046
 10
683.7966125449129
 20
881.9032285897046
 10
689.7966125449129
 20
881.9032285897046
 10
689.7966125449129
 20
936.9032285897047
 10
677.7966125449129
 20
936.9032285897047
 10
677.7966125449129
 20
887.9032285897046
  0
HATCH
  5
CA
330
1F
100
AcDbEntity
  8
HOUT
  6
Continuous
 62
     5
370
    13
100
AcDbHatch
 10
0.0
 20
0.0
 30
0.0
210
0.0
220
0.0
230
1.0
  2
HATCHING
 70
     0
 71
     0
 91
        1
 92
        0
 93
        5
 72
     1
 10
689.7966125449129
 20
881.9032285897046
 11
689.7966125449129
 21
936.9032285897047
 72
     1
 10
689.7966125449129
 20
936.9032285897047
 11
677.7966125449129
 21
936.9032285897047
 72
     1
 10
677.7966125449129
 20
936.9032285897047
 11
677.7966125449129
 21
887.9032285897046
 72
     1
 10
677.7966125449129
 20
887.9032285897046
 11
683.7966125449129
 21
881.9032285897046
 72
     1
 10
683.7966125449129
 20
881.9032285897046
 11
689.7966125449129
 21
881.9032285897046
 97
        0
 75
     0
 76
     2
 52
0.0
 41
5.0
 77
     0
 78
     2
 53
45.0
 43
-10.00009590137954
 44
10.00009590137954
 45
-3.535533905932737
 46
3.535533905932737
 79
     0
 53
135.0
 43
-10.00009590137954
 44
-10.00009590137954
 45
-3.535533905932737
 46
-3.535533905932737
 79
     0
 98
        0
1001
ACAD
1010
683.7966125449129
1020
909.4032285897046
1030
0.0
1001
NEM_ODX
1002
{
1000
BZM_DEPEND
1070
     1
1000
BZM_SCALE
1040
5.0
1000
HATCHING
1002
}
  0
LINE
  5
CB
330
1F
100
AcDbEntity
  8
AFBREEKLIJNEN
  6
STRICHPUNKT2_S5
 62
     7
370
    25
100
AcDbLine
 10
937.7966125449166
 20
906.9032285896538
 30
0.0
 11
937.7966125449166
 21
426.9032285897065
 31
0.0
  0
LWPOLYLINE
  5
CC
330
1F
100
AcDbEntity
  8
ZANDCEMENT DEKVLOEREN
  6
Continuous
 62
    30
370
    18
100
AcDbPolyline
 90
        6
 70
     0
 43
0.0
 10
937.7966125449166
 20
856.9032285897046
 10
887.7966125449166
 20
806.9032285897046
 10
837.7966125449166
 20
856.9032285897046
 10
787.7966125449165
 20
806.9032285897046
 10
737.7966125449129
 20
856.9032285897046
 10
687.7966125449129
 20
806.9032285897046
  0
HATCH
  5
CD
330
1F
100
AcDbEntity
  8
ZANDCEMENT DEKVLOEREN
  6
Continuous
 62
   254
370
    25
100
AcDbHatch
 10
0.0
 20
0.0
 30
0.0
210
0.0
220
0.0
230
1.0
  2
SOLID
 70
     1
 71
     0
 91
        1
 92
        3
 72
     0
 73
     1
 93
        4
 10
687.7966125449129
 20
806.9032285897046
 10
937.7966125449166
 20
806.9032285894463
 10
937.7966125449166
 20
856.9032285894463
 10
687.7966125449129
 20
856.9032285897046
 97
        0
 75
     0
 76
     1
 98
        0
450
        0
451
        0
460
0.0
461
0.0
452
        1
462
0.0
453
        0
470

  0
LWPOLYLINE
  5
CE
330
1F
100
AcDbEntity
  8
ZANDCEMENT DEKVLOEREN
  6
Continuous
 62
     7
370
    25
100
AcDbPolyline
 90
        4
 70
     0
 43
0.0
 10
937.7966125449166
 20
806.9032285894463
 10
687.7966125449129
 20
806.9032285897046
 10
687.7966125449129
 20
856.9032285897046
 10
937.7966125449166
 20
856.9032285894463
  0
HATCH
  5
CF
330
1F
100
AcDbEntity
  8
RIB-CASSETTE VLOEREN
  6
Continuous
 62
   253
100
AcDbHatch
 10
0.0
 20
0.0
 30
0.0
210
0.0
220
0.0
230
1.0
  2
SOLID
 70
     1
 71
     0
 91
        1
 92
        3
 72
     0
 73
     1
 93
       15
 10
697.7966125449129
 20
696.9032285897046
 10
742.7966125449129
 20
756.9032285897046
 10
937.7966125449166
 20
756.90322858945
 10
937.7966125449166
 20
806.9032285894463
 10
577.7966125449129
 20
806.9032285897046
 10
577.7966125449129
 20
766.9032285897046
 10
607.7966125449129
 20
746.9032285897046
 10
607.7966125449129
 20
696.9032285897046
 10
577.7966125449129
 20
676.9032285897046
 10
577.7966125449129
 20
556.9032285897046
 10
655.670375691403
 20
556.9032285897046
 10
660.6716320414925
 20
557.7615372827131
 10
665.1005388723424
 20
560.2382371833991
 10
668.4502474322434
 20
564.0498923875675
 10
670.3374117729144
 20
568.7602934966417
 97
        0
 75
     0
 76
     1
 98
        0
450
        0
451
        0
460
0.0
461
0.0
452
        1
462
0.0
453
        0
470

  0
HATCH
  5
D0
330
1F
100
AcDbEntity
  8
RIB-CASSETTE VLOEREN
  6
Continuous
 62
     7
370
    25
100
AcDbHatch
 10
0.0
 20
0.0
 30
0.0
210
0.0
220
0.0
230
1.0
  2
HATCHING_9
 70
     0
 71
     0
 91
        1
 92
        0
 93
       15
 72
     1
 10
937.7966125449166
 20
806.9032285894463
 11
577.7966125449129
 21
806.9032285897046
 72
     1
 10
577.7966125449129
 20
806.9032285897046
 11
577.7966125449129
 21
766.9032285897046
 72
     1
 10
577.7966125449129
 20
766.9032285897046
 11
607.7966125449129
 21
746.9032285897046
 72
     1
 10
607.7966125449129
 20
746.9032285897046
 11
607.7966125449129
 21
696.9032285897046
 72
     1
 10
607.7966125449129
 20
696.9032285897046
 11
577.7966125449129
 21
676.9032285897046
 72
     1
 10
577.7966125449129
 20
676.9032285897046
 11
577.7966125449129
 21
556.9032285897046
 72
     1
 10
577.7966125449129
 20
556.9032285897046
 11
655.670375691403
 21
556.9032285897046
 72
     1
 10
655.670375691403
 20
556.9032285897046
 11
660.6716320414925
 21
557.7615372827131
 72
     1
 10
660.6716320414925
 20
557.7615372827131
 11
665.1005388723424
 21
560.2382371833991
 72
     1
 10
665.1005388723424
 20
560.2382371833991
 11
668.4502474322434
 21
564.0498923875675
 72
     1
 10
668.4502474322434
 20
564.0498923875675
 11
670.3374117729144
 21
568.7602934966417
 72
     1
 10
670.3374117729144
 20
568.7602934966417
 11
697.7966125449129
 21
696.9032285897046
 72
     1
 10
697.7966125449129
 20
696.9032285897046
 11
742.7966125449129
 21
756.9032285897046
 72
     1
 10
742.7966125449129
 20
756.9032285897046
 11
937.7966125449166
 21
756.90322858945
 72
     1
 10
937.7966125449166
 20
756.90322858945
 11
937.7966125449166
 21
806.9032285894463
 97
        0
 75
     0
 76
     2
 52
0.0
 41
5.0
 77
     0
 78
     2
 53
45.0
 43
0.0
 44
0.0
 45
-176.7766952966368
 46
176.7766952966369
 79
     0
 53
45.0
 43
-88.38834764831842
 44
88.38834764831844
 45
-176.7766952966368
 46
176.7766952966369
 79
     0
 98
        0
1001
ACAD
1010
0.0
1020
0.0
1030
0.0
1001
NEM_ODX
1002
{
1000
BZM_DEPEND
1070
     1
1000
BZM_SCALE
1040
5.0
1000
HATCHING_9
1002
}
  0
LWPOLYLINE
  5
D1
330
1F
100
AcDbEntity
  8
RIB-CASSETTE VLOEREN
  6
Continuous
 62
     3
370
    70
100
AcDbPolyline
 90
       15
 70
     0
 43
0.0
 10
937.7966125449166
 20
806.9032285894463
 10
577.7966125449129
 20
806.9032285897046
 10
577.7966125449129
 20
766.9032285897046
 10
607.7966125449129
 20
746.9032285897046
 10
607.7966125449129
 20
696.9032285897046
 10
577.7966125449129
 20
676.9032285897046
 10
577.7966125449129
 20
556.9032285897046
 10
655.670375691403
 20
556.9032285897046
 10
660.6716320414925
 20
557.7615372827131
 10
665.1005388723424
 20
560.2382371833991
 10
668.4502474322434
 20
564.0498923875675
 10
670.3374117729144
 20
568.7602934966417
 10
697.7966125449129
 20
696.9032285897046
 10
742.7966125449129
 20
756.9032285897046
 10
937.7966125449166
 20
756.90322858945
  0
LINE
  5
D2
330
1F
100
AcDbEntity
  8
VLOERBEDEKKING
  6
VERDECKT2_S2
 62
    30
370
    18
100
AcDbLine
 10
677.7966125449129
 20
876.9032285897065
 30
0.0
 11
937.7966125449166
 21
876.9032285894537
 31
0.0
  0
LWPOLYLINE
  5
D3
330
1F
100
AcDbEntity
  8
RIB-CASSETTE VLOEREN
  6
Continuous
 62
     7
370
    25
100
AcDbPolyline
 90
        3
 70
     0
 43
0.0
 10
577.7966125449129
 20
556.9032285897046
 10
577.7966125449129
 20
456.9032285897046
 10
937.7966125449166
 20
456.9032285897046
  0
LWPOLYLINE
  5
D4
330
1F
100
AcDbEntity
  8
AANHAALLIJN
  6
Continuous
 62
    30
370
    18
100
AcDbPolyline
 90
        3
 70
     0
 43
0.0
 10
967.7966125449165
 20
936.9032285896574
 10
804.3480287096899
 20
936.9032285896283
 10
804.3480287096899
 20
781.9032285894682
  0
LWPOLYLINE
  5
D6
330
1F
100
AcDbEntity
  8
AANHAALLIJN
  6
Continuous
 62
    30
370
    18
100
AcDbPolyline
 90
        3
 70
     0
 43
0.0
 10
967.7966125449165
 20
1016.900413394338
 10
776.2832606632946
 20
1016.900413394338
 10
682.7966125449129
 20
831.9032285897046
  0
LWPOLYLINE
  5
D8
330
1F
100
AcDbEntity
  8
AANHAALLIJN
  6
Continuous
 62
    30
370
    18
100
AcDbPolyline
 90
        3
 70
     0
 43
0.0
 10
967.7966125449165
 20
1046.900413394338
 10
736.2832606632946
 20
1046.900413394338
 10
627.7966125449129
 20
814.4032285897047
  0
LINE
  5
DC
330
1F
100
AcDbEntity
  8
VENTILATIEKOKERS-ROOSTERS
  6
ALL_S17
 62
    30
370
    18
100
AcDbLine
 10
425.1654610514069
 20
974.279419374494
 30
0.0
 11
426.9473701399966
 21
974.0248609332665
 31
0.0
  0
LINE
  5
DD
330
1F
100
AcDbEntity
  8
Maatlijnen 1_5
  6
ALL_S17
 62
    30
370
    18
100
AcDbLine
 10
142.7966125449566
 20
456.9032285897046
 30
0.0
 11
92.79661254495659
 21
456.9032285897046
 31
0.0
  0
MTEXT
  5
DE
330
1F
100
AcDbEntity
  8
AANHAALLIJN
  6
Continuous
 62
    30
370
    18
100
AcDbMText
 10
92.7966125449566
 20
741.4865619230424
 30
0.0
 40
12.5
 41
124.375
 46
0.0
 71
     7
 72
     5
  1
maaiveld 125-P
  7
Trebuchet MS
 73
     1
 44
1.0
  0
LWPOLYLINE
  5
DF
330
1F
100
AcDbEntity
  8
DILALATIEVOEG EN AFDICHTING
  6
Continuous
 62
     5
370
    13
100
AcDbPolyline
 90
        5
 70
     1
 43
0.0
 10
687.7966125449129
 20
806.9032285897046
 10
677.7966125449129
 20
806.9032285897046
 10
677.7966125449129
 20
856.9032285897046
 10
687.7966125449129
 20
856.9032285897046
 10
687.7966125449129
 20
806.9032285897046
  0
HATCH
  5
E0
330
1F
100
AcDbEntity
  8
DILALATIEVOEG EN AFDICHTING
  6
Continuous
 62
     5
370
    13
100
AcDbHatch
 10
0.0
 20
0.0
 30
0.0
210
0.0
220
0.0
230
1.0
  2
HATCHING_341
 70
     0
 71
     0
 91
        1
 92
        0
 93
        4
 72
     1
 10
677.7966125449129
 20
806.9032285897046
 11
687.7966125449129
 21
806.9032285897046
 72
     1
 10
687.7966125449129
 20
806.9032285897046
 11
687.7966125449129
 21
856.9032285897046
 72
     1
 10
687.7966125449129
 20
856.9032285897046
 11
677.7966125449129
 21
856.9032285897046
 72
     1
 10
677.7966125449129
 20
856.9032285897046
 11
677.7966125449129
 21
806.9032285897046
 97
        0
 75
     0
 76
     2
 52
90.00000000000001
 41
5.0
 77
     0
 78
     2
 53
180.0
 43
0.0
 44
0.0
 45
-0.0000000000000018
 46
-15.0
 79
     0
 53
180.0
 43
0.0000000000000003
 44
-7.5
 45
-0.0000000000000018
 46
-15.0
 79
     0
 98
        0
1001
ACAD
1010
687.7966125449129
1020
831.9032285897046
1030
0.0
1001
NEM_ODX
1002
{
1000
BZM_DEPEND
1070
     1
1000
BZM_SCALE
1040
5.0
1000
HATCHING_341
1002
}
  0
HATCH
  5
E1
330
1F
100
AcDbEntity
  8
DILALATIEVOEG EN AFDICHTING
  6
Continuous
 62
   255
370
    13
100
AcDbHatch
 10
0.0
 20
0.0
 30
0.0
210
0.0
220
0.0
230
1.0
  2
SOLID
 70
     1
 71
     0
 91
        1
 92
        0
 93
        4
 72
     1
 10
677.7966125449129
 20
856.9032285897046
 11
687.7966125449129
 21
856.9032285897046
 72
     1
 10
687.7966125449129
 20
856.9032285897046
 11
687.7966125449129
 21
876.9032285897047
 72
     1
 10
687.7966125449129
 20
876.9032285897047
 11
677.7966125449129
 21
876.9032285897047
 72
     1
 10
677.7966125449129
 20
876.9032285897047
 11
677.7966125449129
 21
856.9032285897046
 97
        0
 75
     0
 76
     1
 98
        0
450
        0
451
        0
460
1.570796326794896
461
0.0
452
        1
462
0.0
453
        0
470

1001
ACAD
1010
687.7966125449129
1020
881.9032285897046
1030
0.0
1001
NEM_ODX
1002
{
1000
BZM_DEPEND
1070
     1
1000
BZM_SCALE
1040
5.0
1000
HATCHING_341
1002
}
  0
HATCH
  5
E2
330
1F
100
AcDbEntity
  8
DILALATIEVOEG EN AFDICHTING
  6
Continuous
 62
     7
370
    13
100
AcDbHatch
 10
0.0
 20
0.0
 30
0.0
210
0.0
220
0.0
230
1.0
  2
HATCHING_341
 70
     0
 71
     0
 91
        1
 92
        0
 93
        4
 72
     1
 10
677.7966125449129
 20
856.9032285897046
 11
687.7966125449129
 21
856.9032285897046
 72
     1
 10
687.7966125449129
 20
856.9032285897046
 11
687.7966125449129
 21
876.9032285897047
 72
     1
 10
687.7966125449129
 20
876.9032285897047
 11
677.7966125449129
 21
876.9032285897047
 72
     1
 10
677.7966125449129
 20
876.9032285897047
 11
677.7966125449129
 21
856.9032285897046
 97
        0
 75
     0
 76
     2
 52
90.00000000000001
 41
5.0
 77
     0
 78
     2
 53
180.0
 43
0.0
 44
0.0
 45
-0.0000000000000018
 46
-15.0
 79
     0
 53
180.0
 43
0.0000000000000003
 44
-7.5
 45
-0.0000000000000018
 46
-15.0
 79
     0
 98
        0
1001
ACAD
1010
687.7966125449129
1020
881.9032285897046
1030
0.0
1001
NEM_ODX
1002
{
1000
BZM_DEPEND
1070
     1
1000
BZM_SCALE
1040
5.0
1000
HATCHING_341
1002
}
  0
LWPOLYLINE
  5
E3
330
1F
100
AcDbEntity
  8
DILALATIEVOEG EN AFDICHTING
  6
Continuous
 62
     5
370
    13
100
AcDbPolyline
 90
        5
 70
     1
 43
0.0
 10
687.7966125449129
 20
856.9032285897046
 10
677.7966125449129
 20
856.9032285897046
 10
677.7966125449129
 20
876.9032285897047
 10
687.7966125449129
 20
876.9032285897047
 10
687.7966125449129
 20
856.9032285897046
  0
LINE
  5
E4
330
1F
100
AcDbEntity
  8
KALKZANDSTEEN
  6
STRICHLINIE2_S3
 62
    30
370
    18
100
AcDbLine
 10
577.7966125449165
 20
901.9032285897065
 30
0.0
 11
677.7966125449165
 21
901.9032285897065
 31
0.0
  0
LWPOLYLINE
  5
E5
330
1F
100
AcDbEntity
  8
DILALATIEVOEG EN AFDICHTING
  6
Continuous
 62
     7
370
    25
100
AcDbPolyline
 90
        5
 70
     1
 43
0.0
 10
677.7966125449129
 20
806.9032285897046
 10
677.7966125449129
 20
821.9032285897046
 10
577.7966125449129
 20
821.9032285897046
 10
577.7966125449093
 20
806.9032285897046
 10
677.7966125449129
 20
806.9032285897046
  0
HATCH
  5
E6
330
1F
100
AcDbEntity
  8
DILALATIEVOEG EN AFDICHTING
  6
Continuous
 62
   252
370
    25
100
AcDbHatch
 10
0.0
 20
0.0
 30
0.0
210
0.0
220
0.0
230
1.0
  2
SOLID
 70
     1
 71
     0
 91
        1
 92
        3
 72
     0
 73
     1
 93
        4
 10
677.7966125449129
 20
806.9032285897046
 10
677.7966125449129
 20
821.9032285897046
 10
577.7966125449129
 20
821.9032285897046
 10
577.7966125449129
 20
806.9032285897046
 97
        0
 75
     0
 76
     1
 98
        0
450
        0
451
        0
460
0.0
461
0.0
452
        1
462
0.0
453
        0
470

  0
LWPOLYLINE
  5
E7
330
1F
100
AcDbEntity
  8
DILALATIEVOEG EN AFDICHTING
  6
Continuous
 62
     7
370
    25
100
AcDbPolyline
 90
       13
 70
     0
 43
0.0
 10
577.7966125449093
 20
812.6211962869419
 10
583.1555963935389
 20
821.9032285897046
 10
591.8158504313833
 20
806.9032285897046
 10
600.4761044692277
 20
821.9032285897046
 10
609.1363585070685
 20
806.9032285897046
 10
617.7966125449129
 20
821.9032285897046
 10
626.4568665827574
 20
806.9032285897046
 10
635.1171206206018
 20
821.9032285897046
 10
643.7773746584426
 20
806.9032285897046
 10
652.4376286962869
 20
821.9032285897046
 10
661.0978827341313
 20
806.9032285897046
 10
669.7581367719758
 20
821.9032285897046
 10
677.7966125449129
 20
807.9801801355642
  0
INSERT
  5
E8
330
1F
100
AcDbEntity
  8
AANHAALLIJN
  6
Continuous
 62
    30
370
    18
100
AcDbBlockReference
  2
NSY154
 10
804.3480287096899
 20
831.9032285894682
 30
0.0
 41
1.962533333333333
 42
1.962533333333333
 43
1.962533333333333
  0
INSERT
  5
E9
330
1F
100
AcDbEntity
  8
AANHAALLIJN
  6
Continuous
 62
    30
370
    18
100
AcDbBlockReference
  2
NSY154
 10
804.3480287096899
 20
781.9032285894682
 30
0.0
 41
1.962533333333333
 42
1.962533333333333
 43
1.962533333333333
  0
INSERT
  5
EA
330
1F
100
AcDbEntity
  8
AANHAALLIJN
  6
Continuous
 62
    30
370
    18
100
AcDbBlockReference
  2
NSY154
 10
804.3480287096899
 20
866.9032285894681
 30
0.0
 41
1.962533333333333
 42
1.962533333333333
 43
1.962533333333333
  0
INSERT
  5
EB
330
1F
100
AcDbEntity
  8
AANHAALLIJN
  6
Continuous
 62
    30
370
    18
100
AcDbBlockReference
  2
NSY154
 10
682.7966125449129
 20
831.9032285897046
 30
0.0
 41
1.962533333333333
 42
1.962533333333333
 43
1.962533333333333
  0
HATCH
  5
EC
330
1F
100
AcDbEntity
  8
RIB-CASSETTE VLOEREN
  6
Continuous
 62
   254
370
    18
100
AcDbHatch
 10
0.0
 20
0.0
 30
0.0
210
0.0
220
0.0
230
1.0
  2
SOLID
 70
     1
 71
     0
 91
        1
 92
        3
 72
     0
 73
     1
 93
        4
 10
607.7966125449129
 20
746.9032285897046
 10
577.7966125449129
 20
766.9032285897046
 10
577.7966125449129
 20
676.9032285897046
 10
607.7966125449129
 20
696.9032285897046
 97
        0
 75
     0
 76
     1
 98
        0
450
        0
451
        0
460
0.0
461
0.0
452
        1
462
0.0
453
        0
470

  0
LWPOLYLINE
  5
ED
330
1F
100
AcDbEntity
  8
RIB-CASSETTE VLOEREN
  6
Continuous
 62
    30
370
    18
100
AcDbPolyline
 90
        5
 70
     1
 43
0.0
 10
577.7966125449129
 20
676.9032285897046
 10
577.7966125449129
 20
766.9032285897046
 10
607.7966125449129
 20
746.9032285897046
 10
607.7966125449129
 20
696.9032285897046
 10
577.7966125449129
 20
676.9032285897046
  0
LINE
  5
EE
330
1F
100
AcDbEntity
  8
RIB-CASSETTE VLOEREN
  6
VERDECKT2_S2
 62
    30
370
    18
100
AcDbLine
 10
677.7966125449129
 20
456.9032285897065
 30
0.0
 11
587.7966125449129
 21
556.9032285897065
 31
0.0
  0
LINE
  5
EF
330
1F
100
AcDbEntity
  8
RIB-CASSETTE VLOEREN
  6
VERDECKT2_S2
 62
    30
370
    18
100
AcDbLine
 10
587.7966125449129
 20
456.9032285897065
 30
0.0
 11
667.7966125449129
 21
563.3061169887932
 31
0.0
  0
LWPOLYLINE
  5
F0
330
1F
100
AcDbEntity
  8
RIB-CASSETTE VLOEREN
  6
VERDECKT2_S2
 62
    30
370
    18
100
AcDbPolyline
 90
       10
 70
     1
 43
0.0
 10
587.7966125449129
 20
456.9032285897046
 10
677.7966125449129
 20
456.9032285897046
 10
677.7966125449129
 20
603.5698965986666
 10
670.3374117729144
 20
568.7602934966417
 10
667.7966125449129
 20
563.3061169887914
 10
665.1005388723424
 20
560.2382371833991
 10
660.6716320414925
 20
557.7615372827131
 10
655.670375691403
 20
556.9032285897046
 10
587.7966125449129
 20
556.9032285897046
 10
587.7966125449129
 20
456.9032285897046
  0
LWPOLYLINE
  5
F1
330
1F
100
AcDbEntity
  8
DILALATIEVOEG EN AFDICHTING
  6
Continuous
 62
     5
370
    13
100
AcDbPolyline
 90
        5
 70
     1
 43
0.0
 10
587.7966125449129
 20
461.9032285897083
 10
677.7966125449129
 20
461.9032285897083
 10
677.7966125449129
 20
456.9032285897046
 10
587.7966125449129
 20
456.9032285897046
 10
587.7966125449129
 20
461.9032285897083
  0
LWPOLYLINE
  5
F2
330
1F
100
AcDbEntity
  8
DILALATIEVOEG EN AFDICHTING
  6
Continuous
 62
     7
370
    25
100
AcDbPolyline
 90
        5
 70
     1
 43
0.0
 10
587.7966125449129
 20
456.9032285897046
 10
677.7966125449129
 20
456.9032285897046
 10
677.7966125449129
 20
461.9032285897083
 10
587.7966125449129
 20
461.9032285897083
 10
587.7966125449129
 20
456.9032285897046
  0
HATCH
  5
F3
330
1F
100
AcDbEntity
  8
DILALATIEVOEG EN AFDICHTING
  6
Continuous
 62
   254
370
    13
100
AcDbHatch
 10
0.0
 20
0.0
 30
0.0
210
0.0
220
0.0
230
1.0
  2
SOLID
 70
     1
 71
     0
 91
        1
 92
        0
 93
        4
 72
     1
 10
587.7966125449129
 20
456.9032285897046
 11
677.7966125449129
 21
456.9032285897046
 72
     1
 10
677.7966125449129
 20
456.9032285897046
 11
677.7966125449129
 21
461.9032285897083
 72
     1
 10
677.7966125449129
 20
461.9032285897083
 11
587.7966125449129
 21
461.9032285897083
 72
     1
 10
587.7966125449129
 20
461.9032285897083
 11
587.7966125449129
 21
456.9032285897046
 97
        0
 75
     0
 76
     1
 98
        0
450
        0
451
        0
460
0.0
461
0.0
452
        1
462
0.0
453
        0
470

1001
ACAD
1010
632.7966125449129
1020
459.4032285897083
1030
0.0
1001
NEM_ODX
1002
{
1000
BZM_DEPEND
1070
     1
1000
BZM_SCALE
1040
5.0
1000
HATCHING_6
1002
}
  0
HATCH
  5
F4
330
1F
100
AcDbEntity
  8
DILALATIEVOEG EN AFDICHTING
  6
Continuous
 62
     7
370
    13
100
AcDbHatch
 10
0.0
 20
0.0
 30
0.0
210
0.0
220
0.0
230
1.0
  2
HATCHING_6
 70
     0
 71
     0
 91
        1
 92
        0
 93
        4
 72
     1
 10
587.7966125449129
 20
456.9032285897046
 11
677.7966125449129
 21
456.9032285897046
 72
     1
 10
677.7966125449129
 20
456.9032285897046
 11
677.7966125449129
 21
461.9032285897083
 72
     1
 10
677.7966125449129
 20
461.9032285897083
 11
587.7966125449129
 21
461.9032285897083
 72
     1
 10
587.7966125449129
 20
461.9032285897083
 11
587.7966125449129
 21
456.9032285897046
 97
        0
 75
     0
 76
     2
 52
0.0
 41
5.0
 77
     0
 78
     2
 53
45.0
 43
0.0
 44
0.0
 45
-5.303300858899105
 46
5.303300858899106
 79
     0
 53
135.0
 43
0.0
 44
0.0
 45
-5.303300858899106
 46
-5.303300858899105
 79
     0
 98
        0
1001
ACAD
1010
632.7966125449129
1020
459.4032285897083
1030
0.0
1001
NEM_ODX
1002
{
1000
BZM_DEPEND
1070
     1
1000
BZM_SCALE
1040
5.0
1000
HATCHING_6
1002
}
  0
INSERT
  5
F5
330
1F
100
AcDbEntity
  8
AANHAALLIJN
  6
Continuous
 62
    30
370
    18
100
AcDbBlockReference
  2
NSY154
 10
627.7966125449129
 20
1091.903228589708
 30
0.0
 41
1.962533333333333
 42
1.962533333333333
 43
1.962533333333333
  0
LINE
  5
F6
330
1F
100
AcDbEntity
  8
AFBREEKLIJNEN
  6
STRICHPUNKT2_S5
 62
     7
370
    25
100
AcDbLine
 10
707.7966125449129
 20
1176.903228589704
 30
0.0
 11
287.7966125449129
 21
1176.903228589704
 31
0.0
  0
HATCH
  5
F7
330
1F
100
AcDbEntity
  8
KALKZANDSTEEN
  6
Continuous
 62
     7
370
    25
100
AcDbHatch
 10
0.0
 20
0.0
 30
0.0
210
0.0
220
0.0
230
1.0
  2
HATCHING_9
 70
     0
 71
     0
 91
        1
 92
        0
 93
        4
 72
     1
 10
677.7966125449129
 20
821.9032285897046
 11
677.7966125449129
 21
1176.903228589704
 72
     1
 10
677.7966125449129
 20
1176.903228589704
 11
577.7966125449129
 21
1176.903228589704
 72
     1
 10
577.7966125449129
 20
1176.903228589704
 11
577.7966125449129
 21
821.9032285897046
 72
     1
 10
577.7966125449129
 20
821.9032285897046
 11
677.7966125449129
 21
821.9032285897046
 97
        0
 75
     0
 76
     2
 52
0.0
 41
5.0
 77
     0
 78
     2
 53
45.0
 43
0.0
 44
0.0
 45
-176.7766952966368
 46
176.7766952966369
 79
     0
 53
45.0
 43
-88.38834764831842
 44
88.38834764831844
 45
-176.7766952966368
 46
176.7766952966369
 79
     0
 98
        0
1001
ACAD
1010
0.0
1020
0.0
1030
0.0
1001
NEM_ODX
1002
{
1000
BZM_DEPEND
1070
     1
1000
BZM_SCALE
1040
5.0
1000
HATCHING_9
1002
}
  0
LWPOLYLINE
  5
F8
330
1F
100
AcDbEntity
  8
KALKZANDSTEEN
  6
Continuous
 62
     3
370
    70
100
AcDbPolyline
 90
        4
 70
     0
 43
0.0
 10
577.7966125449129
 20
1176.903228589704
 10
577.7966125449093
 20
821.9032285897046
 10
677.7966125449129
 20
821.9032285897046
 10
677.7966125449129
 20
1176.903228589704
  0
MTEXT
  5
F9
330
1F
100
AcDbEntity
  8
AANHAALLIJN
  6
Continuous
 62
    30
370
    18
100
AcDbMText
 10
92.79661254492749
 20
525.2365619230678
 30
0.0
 40
12.5
 41
149.1790238262792
 46
0.0
 71
     1
 72
     5
  1
open stootvoeg \Pt.b.v. vochtafvoer
  7
Trebuchet MS
 73
     1
 44
0.783132530120482
  0
INSERT
  5
FA
330
1F
100
AcDbEntity
  8
AANHAALLIJN
  6
Continuous
 62
    30
370
    18
100
AcDbBlockReference
  2
NSY154
 10
632.7966125449129
 20
459.4032285897083
 30
0.0
 41
1.962533333333333
 42
1.962533333333333
 43
1.962533333333333
  0
MTEXT
  5
FB
330
1F
100
AcDbEntity
  8
AANHAALLIJN
  6
Continuous
 62
    30
370
    18
100
AcDbMText
 10
92.79661254492749
 20
796.4865619230387
 30
0.0
 40
12.5
 41
74.16666666666668
 46
0.0
 71
     7
 72
     5
  1
trasraam
  7
Trebuchet MS
 73
     1
 44
1.0
  0
INSERT
  5
FC
330
1F
100
AcDbEntity
  8
AANHAALLIJN
  6
Continuous
 62
    30
370
    18
100
AcDbBlockReference
  2
NSY154
 10
627.7966125449129
 20
814.4032285897047
 30
0.0
 41
1.962533333333333
 42
1.962533333333333
 43
1.962533333333333
  0
MTEXT
  5
FD
330
1F
100
AcDbEntity
  8
AANHAALLIJN
  6
Continuous
 62
    30
370
    18
100
AcDbMText
 10
92.79661254492749
 20
1036.486561923039
 30
0.0
 40
12.5
 41
65.83333333333334
 46
0.0
 71
     7
 72
     5
  1
kimblok
  7
Trebuchet MS
 73
     1
 44
1.0
  0
MTEXT
  5
FE
330
1F
100
AcDbEntity
  8
AANHAALLIJN
  6
Continuous
 62
    30
370
    18
100
AcDbMText
 10
92.79661254494568
 20
945.2365619230388
 30
0.0
 40
12.5
 41
180.3687331048129
 46
0.0
 71
     1
 72
     5
  1
vloerventilatiekoker\Pmet muisdicht rooster
  7
Trebuchet MS
 73
     1
 44
0.783132530120482
  0
LWPOLYLINE
  5
FF
330
1F
100
AcDbEntity
  8
DILALATIEVOEG EN AFDICHTING
  6
Continuous
 62
     5
370
    13
100
AcDbPolyline
 90
        5
 70
     1
 43
0.0
 10
573.7966125449129
 20
876.9032285897047
 10
573.7966125449129
 20
746.9032285897046
 10
574.7966125449129
 20
746.9032285897046
 10
574.7966125449129
 20
876.9032285897047
 10
573.7966125449129
 20
876.9032285897047
  0
HATCH
  5
100
330
1F
100
AcDbEntity
  8
DILALATIEVOEG EN AFDICHTING
  6
Continuous
 62
   250
370
    25
100
AcDbHatch
 10
0.0
 20
0.0
 30
0.0
210
0.0
220
0.0
230
1.0
  2
SOLID
 70
     1
 71
     0
 91
        1
 92
        3
 72
     0
 73
     1
 93
        4
 10
573.7966125449129
 20
746.9032285897046
 10
574.7966125449129
 20
746.9032285897046
 10
574.7966125449129
 20
876.9032285897047
 10
573.7966125449129
 20
876.9032285897047
 97
        0
 75
     0
 76
     1
 98
        0
450
        0
451
        0
460
0.0
461
0.0
452
        1
462
0.0
453
        0
470

  0
LINE
  5
101
330
1F
100
AcDbEntity
  8
Maatlijnen 1_5
  6
ALL_S17
 62
    30
370
    18
100
AcDbLine
 10
142.7966125449456
 20
856.9032285897064
 30
0.0
 11
92.79661254494568
 21
856.9032285897064
 31
0.0
  0
INSERT
  5
10E
330
1F
100
AcDbEntity
  8
Maatlijnen 1_5
  6
Continuous
 62
    30
370
    18
100
AcDbBlockReference
  2
COMPLEX_ELEVATIONDIM_1
 10
0.0
 20
0.0
 30
0.0
  0
LWPOLYLINE
  5
10F
330
1F
100
AcDbEntity
  8
HOUT
  6
Continuous
 62
    30
370
    18
100
AcDbPolyline
 90
        6
 70
     1
 43
0.0
 10
677.7966125449129
 20
887.9032285897046
 10
683.7966125449129
 20
881.9032285897046
 10
689.7966125449129
 20
881.9032285897046
 10
689.7966125449129
 20
936.9032285897047
 10
677.7966125449129
 20
936.9032285897047
 10
677.7966125449129
 20
887.9032285897046
  0
HATCH
  5
110
330
1F
100
AcDbEntity
  8
HOUT
  6
Continuous
 62
     5
370
    13
100
AcDbHatch
 10
0.0
 20
0.0
 30
0.0
210
0.0
220
0.0
230
1.0
  2
HATCHING
 70
     0
 71
     0
 91
        1
 92
        0
 93
        5
 72
     1
 10
689.7966125449129
 20
881.9032285897046
 11
689.7966125449129
 21
936.9032285897047
 72
     1
 10
689.7966125449129
 20
936.9032285897047
 11
677.7966125449129
 21
936.9032285897047
 72
     1
 10
677.7966125449129
 20
936.9032285897047
 11
677.7966125449129
 21
887.9032285897046
 72
     1
 10
677.7966125449129
 20
887.9032285897046
 11
683.7966125449129
 21
881.9032285897046
 72
     1
 10
683.7966125449129
 20
881.9032285897046
 11
689.7966125449129
 21
881.9032285897046
 97
        0
 75
     0
 76
     2
 52
0.0
 41
5.0
 77
     0
 78
     2
 53
45.0
 43
-10.00009590137954
 44
10.00009590137954
 45
-3.535533905932737
 46
3.535533905932737
 79
     0
 53
135.0
 43
-10.00009590137954
 44
-10.00009590137954
 45
-3.535533905932737
 46
-3.535533905932737
 79
     0
 98
        0
1001
ACAD
1010
683.7966125449129
1020
909.4032285897046
1030
0.0
1001
NEM_ODX
1002
{
1000
BZM_DEPEND
1070
     1
1000
BZM_SCALE
1040
5.0
1000
HATCHING
1002
}
  0
LINE
  5
111
330
1F
100
AcDbEntity
  8
AFBREEKLIJNEN
  6
STRICHPUNKT2_S5
 62
     7
370
    25
100
AcDbLine
 10
937.7966125449166
 20
906.9032285896538
 30
0.0
 11
937.7966125449166
 21
426.9032285897065
 31
0.0
  0
LWPOLYLINE
  5
112
330
1F
100
AcDbEntity
  8
ZANDCEMENT DEKVLOEREN
  6
Continuous
 62
    30
370
    18
100
AcDbPolyline
 90
        6
 70
     0
 43
0.0
 10
937.7966125449166
 20
856.9032285897046
 10
887.7966125449166
 20
806.9032285897046
 10
837.7966125449166
 20
856.9032285897046
 10
787.7966125449165
 20
806.9032285897046
 10
737.7966125449129
 20
856.9032285897046
 10
687.7966125449129
 20
806.9032285897046
  0
HATCH
  5
113
330
1F
100
AcDbEntity
  8
ZANDCEMENT DEKVLOEREN
  6
Continuous
 62
   254
370
    25
100
AcDbHatch
 10
0.0
 20
0.0
 30
0.0
210
0.0
220
0.0
230
1.0
  2
SOLID
 70
     1
 71
     0
 91
        1
 92
        3
 72
     0
 73
     1
 93
        4
 10
687.7966125449129
 20
806.9032285897046
 10
937.7966125449166
 20
806.9032285894463
 10
937.7966125449166
 20
856.9032285894463
 10
687.7966125449129
 20
856.9032285897046
 97
        0
 75
     0
 76
     1
 98
        0
450
        0
451
        0
460
0.0
461
0.0
452
        1
462
0.0
453
        0
470

  0
LWPOLYLINE
  5
114
330
1F
100
AcDbEntity
  8
ZANDCEMENT DEKVLOEREN
  6
Continuous
 62
     7
370
    25
100
AcDbPolyline
 90
        4
 70
     0
 43
0.0
 10
937.7966125449166
 20
806.9032285894463
 10
687.7966125449129
 20
806.9032285897046
 10
687.7966125449129
 20
856.9032285897046
 10
937.7966125449166
 20
856.9032285894463
  0
HATCH
  5
115
330
1F
100
AcDbEntity
  8
RIB-CASSETTE VLOEREN
  6
Continuous
 62
   253
100
AcDbHatch
 10
0.0
 20
0.0
 30
0.0
210
0.0
220
0.0
230
1.0
  2
SOLID
 70
     1
 71
     0
 91
        1
 92
        3
 72
     0
 73
     1
 93
       15
 10
697.7966125449129
 20
696.9032285897046
 10
742.7966125449129
 20
756.9032285897046
 10
937.7966125449166
 20
756.90322858945
 10
937.7966125449166
 20
806.9032285894463
 10
577.7966125449129
 20
806.9032285897046
 10
577.7966125449129
 20
766.9032285897046
 10
607.7966125449129
 20
746.9032285897046
 10
607.7966125449129
 20
696.9032285897046
 10
577.7966125449129
 20
676.9032285897046
 10
577.7966125449129
 20
556.9032285897046
 10
655.670375691403
 20
556.9032285897046
 10
660.6716320414925
 20
557.7615372827131
 10
665.1005388723424
 20
560.2382371833991
 10
668.4502474322434
 20
564.0498923875675
 10
670.3374117729144
 20
568.7602934966417
 97
        0
 75
     0
 76
     1
 98
        0
450
        0
451
        0
460
0.0
461
0.0
452
        1
462
0.0
453
        0
470

  0
HATCH
  5
116
330
1F
100
AcDbEntity
  8
RIB-CASSETTE VLOEREN
  6
Continuous
 62
     7
370
    25
100
AcDbHatch
 10
0.0
 20
0.0
 30
0.0
210
0.0
220
0.0
230
1.0
  2
HATCHING_9
 70
     0
 71
     0
 91
        1
 92
        0
 93
       15
 72
     1
 10
937.7966125449166
 20
806.9032285894463
 11
577.7966125449129
 21
806.9032285897046
 72
     1
 10
577.7966125449129
 20
806.9032285897046
 11
577.7966125449129
 21
766.9032285897046
 72
     1
 10
577.7966125449129
 20
766.9032285897046
 11
607.7966125449129
 21
746.9032285897046
 72
     1
 10
607.7966125449129
 20
746.9032285897046
 11
607.7966125449129
 21
696.9032285897046
 72
     1
 10
607.7966125449129
 20
696.9032285897046
 11
577.7966125449129
 21
676.9032285897046
 72
     1
 10
577.7966125449129
 20
676.9032285897046
 11
577.7966125449129
 21
556.9032285897046
 72
     1
 10
577.7966125449129
 20
556.9032285897046
 11
655.670375691403
 21
556.9032285897046
 72
     1
 10
655.670375691403
 20
556.9032285897046
 11
660.6716320414925
 21
557.7615372827131
 72
     1
 10
660.6716320414925
 20
557.7615372827131
 11
665.1005388723424
 21
560.2382371833991
 72
     1
 10
665.1005388723424
 20
560.2382371833991
 11
668.4502474322434
 21
564.0498923875675
 72
     1
 10
668.4502474322434
 20
564.0498923875675
 11
670.3374117729144
 21
568.7602934966417
 72
     1
 10
670.3374117729144
 20
568.7602934966417
 11
697.7966125449129
 21
696.9032285897046
 72
     1
 10
697.7966125449129
 20
696.9032285897046
 11
742.7966125449129
 21
756.9032285897046
 72
     1
 10
742.7966125449129
 20
756.9032285897046
 11
937.7966125449166
 21
756.90322858945
 72
     1
 10
937.7966125449166
 20
756.90322858945
 11
937.7966125449166
 21
806.9032285894463
 97
        0
 75
     0
 76
     2
 52
0.0
 41
5.0
 77
     0
 78
     2
 53
45.0
 43
0.0
 44
0.0
 45
-176.7766952966368
 46
176.7766952966369
 79
     0
 53
45.0
 43
-88.38834764831842
 44
88.38834764831844
 45
-176.7766952966368
 46
176.7766952966369
 79
     0
 98
        0
1001
ACAD
1010
0.0
1020
0.0
1030
0.0
1001
NEM_ODX
1002
{
1000
BZM_DEPEND
1070
     1
1000
BZM_SCALE
1040
5.0
1000
HATCHING_9
1002
}
  0
LWPOLYLINE
  5
117
330
1F
100
AcDbEntity
  8
RIB-CASSETTE VLOEREN
  6
Continuous
 62
     3
370
    70
100
AcDbPolyline
 90
       15
 70
     0
 43
0.0
 10
937.7966125449166
 20
806.9032285894463
 10
577.7966125449129
 20
806.9032285897046
 10
577.7966125449129
 20
766.9032285897046
 10
607.7966125449129
 20
746.9032285897046
 10
607.7966125449129
 20
696.9032285897046
 10
577.7966125449129
 20
676.9032285897046
 10
577.7966125449129
 20
556.9032285897046
 10
655.670375691403
 20
556.9032285897046
 10
660.6716320414925
 20
557.7615372827131
 10
665.1005388723424
 20
560.2382371833991
 10
668.4502474322434
 20
564.0498923875675
 10
670.3374117729144
 20
568.7602934966417
 10
697.7966125449129
 20
696.9032285897046
 10
742.7966125449129
 20
756.9032285897046
 10
937.7966125449166
 20
756.90322858945
  0
LINE
  5
118
330
1F
100
AcDbEntity
  8
VLOERBEDEKKING
  6
VERDECKT2_S2
 62
    30
370
    18
100
AcDbLine
 10
677.7966125449129
 20
876.9032285897065
 30
0.0
 11
937.7966125449166
 21
876.9032285894537
 31
0.0
  0
LWPOLYLINE
  5
119
330
1F
100
AcDbEntity
  8
RIB-CASSETTE VLOEREN
  6
Continuous
 62
     7
370
    25
100
AcDbPolyline
 90
        3
 70
     0
 43
0.0
 10
577.7966125449129
 20
556.9032285897046
 10
577.7966125449129
 20
456.9032285897046
 10
937.7966125449166
 20
456.9032285897046
  0
LWPOLYLINE
  5
11A
330
1F
100
AcDbEntity
  8
AANHAALLIJN
  6
Continuous
 62
    30
370
    18
100
AcDbPolyline
 90
        3
 70
     0
 43
0.0
 10
967.7966125449165
 20
936.9032285896574
 10
804.3480287096899
 20
936.9032285896283
 10
804.3480287096899
 20
781.9032285894682
  0
MTEXT
  5
11B
330
1F
100
AcDbEntity
  8
AANHAALLIJN
  6
Continuous
 62
    30
370
    18
100
AcDbMText
 10
967.7966125449165
 20
1002.736561922991
 30
0.0
 40
12.5
 41
132.5830390178271
 46
0.0
 71
     3
 72
     5
  1
{\Lvloeropbouw}\Pvloerafwerking\Pdekvloer\Pribcassettevloer
  7
Trebuchet MS
 73
     1
 44
0.783132530120482
  0
LWPOLYLINE
  5
11C
330
1F
100
AcDbEntity
  8
AANHAALLIJN
  6
Continuous
 62
    30
370
    18
100
AcDbPolyline
 90
        3
 70
     0
 43
0.0
 10
967.7966125449165
 20
1016.900413394338
 10
776.2832606632946
 20
1016.900413394338
 10
682.7966125449129
 20
831.9032285897046
  0
LWPOLYLINE
  5
11E
330
1F
100
AcDbEntity
  8
AANHAALLIJN
  6
Continuous
 62
    30
370
    18
100
AcDbPolyline
 90
        3
 70
     0
 43
0.0
 10
967.7966125449165
 20
1046.900413394338
 10
736.2832606632946
 20
1046.900413394338
 10
627.7966125449129
 20
814.4032285897047
  0
MTEXT
  5
11F
330
1F
100
AcDbEntity
  8
AANHAALLIJN
  6
Continuous
 62
    30
370
    18
100
AcDbMText
 10
967.7966125449165
 20
1051.483746727672
 30
0.0
 40
12.5
 41
82.5
 46
0.0
 71
     9
 72
     5
  1
kimspecie
  7
Trebuchet MS
 73
     1
 44
1.0
  0
LWPOLYLINE
  5
120
330
1F
100
AcDbEntity
  8
AANHAALLIJN
  6
Continuous
 62
    30
370
    18
100
AcDbPolyline
 90
        3
 70
     0
 43
0.0
 10
92.79661254492749
 20
1031.903228589704
 10
517.7966125449093
 20
1031.903228589704
 10
627.7966125449129
 20
866.9032285897046
  0
MTEXT
  5
121
330
1F
100
AcDbEntity
  8
AANHAALLIJN
  6
Continuous
 62
    30
370
    18
100
AcDbMText
 10
92.86717856647738
 20
556.4865619230387
 30
0.0
 40
12.5
 41
151.0416666666667
 46
0.0
 71
     7
 72
     5
  1
waterkerende laag
  7
Trebuchet MS
 73
     1
 44
1.0
  0
MTEXT
  5
122
330
1F
100
AcDbEntity
  8
AANHAALLIJN
  6
Continuous
 62
    30
370
    18
100
AcDbMText
 10
92.79661254492749
 20
661.4865619230386
 30
0.0
 40
12.5
 41
203.9103997714795
 46
0.0
 71
     1
 72
     5
  1
vloerventilatiekoker\Prondom voldoende lucht-\Pen waterdicht afwerken
  7
Trebuchet MS
 73
     1
 44
0.783132530120482
  0
LINE
  5
123
330
1F
100
AcDbEntity
  8
VENTILATIEKOKERS-ROOSTERS
  6
ALL_S17
 62
    30
370
    18
100
AcDbLine
 10
425.1654610514069
 20
974.279419374494
 30
0.0
 11
426.9473701399966
 21
974.0248609332665
 31
0.0
  0
MTEXT
  5
124
330
1F
100
AcDbEntity
  8
AANHAALLIJN
  6
Continuous
 62
    30
370
    25
100
AcDbMText
 10
51.50000000000363
 20
1431.749999999991
 30
0.0
 40
17.5
 41
441.0288293024885
 46
0.0
 71
     1
 72
     5
  1
{\fArial|i0|b1;\H17.500000;\W1.000000;\C30;ROCKWOOL - bouwdetail 013}\P{\fArial|i0|b0;\H17.500000;\W1.000000;\C30;Fundering met buitenwand (langsgevel)}\P
  7
ARIAL
 73
     1
 44
0.9036144578313253
  0
LWPOLYLINE
  5
125
330
1F
100
AcDbEntity
  8
AANHAALLIJN
  6
Continuous
 62
    30
370
    18
100
AcDbPolyline
 90
        3
 70
     0
 43
0.0
 10
977.7966125449166
 20
307.2983274343751
 10
681.2832606632873
 20
307.2983274343751
 10
632.7966125449129
 20
459.4032285897046
  0
LWPOLYLINE
  5
128
330
1F
100
AcDbEntity
  8
AANHAALLIJN
  6
Continuous
 62
    30
370
    18
100
AcDbPolyline
 90
        3
 70
     0
 43
0.0
 10
977.7966125449166
 20
307.2983274343751
 10
681.2832606632873
 20
307.2983274343751
 10
632.7966125449129
 20
459.4032285897046
  0
MTEXT
  5
129
330
1F
100
AcDbEntity
  8
AANHAALLIJN
  6
Continuous
 62
    30
370
    18
100
AcDbMText
 10
977.7966125449095
 20
356.881660767709
 30
0.0
 40
12.5
 41
167.0696006203954
 46
0.0
 71
     3
 72
     5
  1
oplegging voldoende\Pvlak afwerken\Pen afdichten
  7
Trebuchet MS
 73
     1
 44
0.783132530120482
  0
LINE
  5
12A
330
1F
100
AcDbEntity
  8
AANHAALLIJN
  6
Continuous
 62
    30
370
    18
100
AcDbLine
 10
495.0420852378702
 20
217.2983274343751
 30
0.0
 11
977.7966125449166
 21
217.2983274343751
 31
0.0
  0
MTEXT
  5
12B
330
1F
100
AcDbEntity
  8
AANHAALLIJN
  6
Continuous
 62
    30
370
    18
100
AcDbMText
 10
977.7966125449095
 20
221.881660767709
 30
0.0
 40
12.5
 41
119.5833333333336
 46
0.0
 71
     9
 72
     5
  1
funderingsbalk
  7
Trebuchet MS
 73
     1
 44
1.0
  0
LINE
  5
12C
330
1F
100
AcDbEntity
  8
AANHAALLIJN
  6
Continuous
 62
    30
370
    18
100
AcDbLine
 10
347.8455225866091
 20
491.9032285896974
 30
0.0
 11
92.79661254492749
 21
491.9032285897319
 31
0.0
  0
LINE
  5
12D
330
1F
100
AcDbEntity
  8
AANHAALLIJN
  6
Continuous
 62
    30
370
    18
100
AcDbLine
 10
347.7966125449093
 20
1091.903228589704
 30
0.0
 11
967.7966125449165
 21
1091.903228589708
 31
0.0
  0
INSERT
  5
14D
330
1F
100
AcDbEntity
  8
Maaiveld
  6
Continuous
 62
     7
370
    25
100
AcDbBlockReference
  2
COMPLEXOBJECT_0
 10
0.0
 20
0.0
 30
0.0
  0
LINE
  5
14E
330
1F
100
AcDbEntity
  8
AANHAALLIJN
  6
Continuous
 62
    30
370
    18
100
AcDbLine
 10
347.8455225866091
 20
491.9032285896974
 30
0.0
 11
92.79661254492749
 21
491.9032285897319
 31
0.0
  0
LINE
  5
14F
330
1F
100
AcDbEntity
  8
AANHAALLIJN
  6
Continuous
 62
    30
370
    18
100
AcDbLine
 10
347.7966125449129
 20
791.9032285897028
 30
0.0
 11
92.79661254492749
 21
791.9032285897064
 31
0.0
  0
LINE
  5
150
330
1F
100
AcDbEntity
  8
AANHAALLIJN
  6
Continuous
 62
    30
370
    18
100
AcDbLine
 10
297.7966125449129
 20
911.9032285897047
 30
0.0
 11
92.79661254494568
 21
911.9032285897047
 31
0.0
  0
LINE
  5
151
330
1F
100
AcDbEntity
  8
AANHAALLIJN
  6
Continuous
 62
    30
370
    18
100
AcDbLine
 10
347.7966125449093
 20
1091.903228589704
 30
0.0
 11
967.7966125449165
 21
1091.903228589708
 31
0.0
  0
HATCH
  5
152
330
1F
100
AcDbEntity
  8
BAKSTEEN
  6
Continuous
 62
   255
370
    13
100
AcDbHatch
 10
0.0
 20
0.0
 30
0.0
210
0.0
220
0.0
230
1.0
  2
SOLID
 70
     1
 71
     0
 91
        1
 92
        0
 93
        3
 72
     1
 10
577.7966125449147
 20
496.9032285897039
 11
440.7966125449142
 21
456.9032285897069
 72
     1
 10
440.7966125449142
 20
456.9032285897069
 11
577.7966125449129
 21
456.9032285897046
 72
     1
 10
577.7966125449129
 20
456.9032285897046
 11
577.7966125449147
 21
496.9032285897039
 97
        0
 75
     0
 76
     1
 98
        0
450
        0
451
        0
460
0.0
461
0.0
452
        1
462
0.0
453
        0
470

1001
ACAD
1010
0.0
1020
0.0
1030
0.0
  0
HATCH
  5
153
330
1F
100
AcDbEntity
  8
BAKSTEEN
  6
Continuous
 62
     7
370
    13
100
AcDbHatch
 10
0.0
 20
0.0
 30
0.0
210
0.0
220
0.0
230
1.0
  2
PATTERN
 70
     0
 71
     0
 91
        1
 92
        0
 93
        3
 72
     1
 10
577.7966125449147
 20
496.9032285897039
 11
440.7966125449142
 21
456.9032285897069
 72
     1
 10
440.7966125449142
 20
456.9032285897069
 11
577.7966125449129
 21
456.9032285897046
 72
     1
 10
577.7966125449129
 20
456.9032285897046
 11
577.7966125449147
 21
496.9032285897039
 97
        0
 75
     0
 76
     2
 52
0.0
 41
18.75
 77
     0
 78
     2
 53
0.0
 43
37.5
 44
37.5
 45
18.75
 46
18.75
 79
     2
 49
18.75
 49
-18.75
 53
90.0
 43
37.5
 44
37.5
 45
-18.75
 46
18.75
 79
     2
 49
18.75
 49
-18.75
 98
        0
1001
ACAD
1010
0.0
1020
0.0
1030
0.0
1001
NEM_ODX
1002
{
1000
BZM_DEPEND
1070
     0
1000
PATTERN
1002
}
  0
INSERT
  5
154
330
1F
100
AcDbEntity
  8
AANHAALLIJN
  6
Continuous
 62
    30
370
    18
100
AcDbBlockReference
  2
NSY154
 10
491.7746741514783
 20
475.1205604125622
 30
0.0
 41
1.962533333333333
 42
1.962533333333333
 43
1.962533333333333
  0
LWPOLYLINE
  5
155
330
1F
100
AcDbEntity
  8
BAKSTEEN
  6
Continuous
 62
     5
370
    13
100
AcDbPolyline
 90
        4
 70
     1
 43
0.0
 10
577.7966125449165
 20
456.9032285897069
 10
577.7966125449165
 20
496.9032285897069
 10
440.7966125449142
 20
456.9032285897094
 10
577.7966125449165
 20
456.9032285897069
  0
HATCH
  5
156
330
1F
100
AcDbEntity
  8
BAKSTEEN
  6
Continuous
 62
   255
370
    13
100
AcDbHatch
 10
0.0
 20
0.0
 30
0.0
210
0.0
220
0.0
230
1.0
  2
SOLID
 70
     1
 71
     0
 91
        1
 92
        0
 93
        3
 72
     1
 10
577.7966125449147
 20
496.9032285897039
 11
440.7966125449142
 21
456.9032285897069
 72
     1
 10
440.7966125449142
 20
456.9032285897069
 11
577.7966125449129
 21
456.9032285897046
 72
     1
 10
577.7966125449129
 20
456.9032285897046
 11
577.7966125449147
 21
496.9032285897039
 97
        0
 75
     0
 76
     1
 98
        0
450
        0
451
        0
460
0.0
461
0.0
452
        1
462
0.0
453
        0
470

1001
ACAD
1010
0.0
1020
0.0
1030
0.0
  0
HATCH
  5
157
330
1F
100
AcDbEntity
  8
BAKSTEEN
  6
Continuous
 62
     7
370
    13
100
AcDbHatch
 10
0.0
 20
0.0
 30
0.0
210
0.0
220
0.0
230
1.0
  2
PATTERN
 70
     0
 71
     0
 91
        1
 92
        0
 93
        3
 72
     1
 10
577.7966125449147
 20
496.9032285897039
 11
440.7966125449142
 21
456.9032285897069
 72
     1
 10
440.7966125449142
 20
456.9032285897069
 11
577.7966125449129
 21
456.9032285897046
 72
     1
 10
577.7966125449129
 20
456.9032285897046
 11
577.7966125449147
 21
496.9032285897039
 97
        0
 75
     0
 76
     2
 52
0.0
 41
18.75
 77
     0
 78
     2
 53
0.0
 43
37.5
 44
37.5
 45
18.75
 46
18.75
 79
     2
 49
18.75
 49
-18.75
 53
90.0
 43
37.5
 44
37.5
 45
-18.75
 46
18.75
 79
     2
 49
18.75
 49
-18.75
 98
        0
1001
ACAD
1010
0.0
1020
0.0
1030
0.0
1001
NEM_ODX
1002
{
1000
BZM_DEPEND
1070
     0
1000
PATTERN
1002
}
  0
LWPOLYLINE
  5
158
330
1F
100
AcDbEntity
  8
AANHAALLIJN
  6
Continuous
 62
    30
370
    18
100
AcDbPolyline
 90
        3
 70
     0
 43
0.0
 10
92.86717856647738
 20
551.9032285897046
 10
382.8671785664774
 20
551.9032285897046
 10
491.7746741514783
 20
475.1205604125622
  0
INSERT
  5
159
330
1F
100
AcDbEntity
  8
AANHAALLIJN
  6
Continuous
 62
    30
370
    18
100
AcDbBlockReference
  2
NSY154
 10
507.7966125449092
 20
1091.903228589704
 30
0.0
 41
1.962533333333333
 42
1.962533333333333
 43
1.962533333333333
  0
INSERT
  5
15A
330
1F
100
AcDbEntity
  8
AANHAALLIJN
  6
Continuous
 62
    30
370
    18
100
AcDbBlockReference
  2
NSY154
 10
507.7966125449092
 20
1091.903228589704
 30
0.0
 41
1.962533333333333
 42
1.962533333333333
 43
1.962533333333333
  0
LWPOLYLINE
  5
15B
330
1F
100
AcDbEntity
  8
RIB-CASSETTE VLOEREN
  6
Continuous
 62
     7
370
    25
100
AcDbPolyline
 90
        5
 70
     0
 43
0.0
 10
577.7966125449129
 20
556.9032285897049
 10
635.5316394638752
 20
456.9032285897049
 10
808.7367202207117
 20
756.9032285896157
 10
904.5768649060967
 20
590.9032285897764
 10
937.7966125453442
 20
648.4415193155695
  0
LWPOLYLINE
  5
15C
330
1F
100
AcDbEntity
  8
RIB-CASSETTE VLOEREN
  6
Continuous
 62
     7
370
    25
100
AcDbPolyline
 90
        6
 70
     0
 43
0.0
 10
577.7966125449129
 20
556.9032285897049
 10
577.7966125449129
 20
456.9032285897046
 10
677.7966125449129
 20
456.9032285897046
 10
684.0966125449122
 20
477.9032285897046
 10
787.7966125448758
 20
590.9032285897763
 10
937.7966125453442
 20
590.9032285897764
  0
LWPOLYLINE
  5
15D
330
1F
100
AcDbEntity
  8
BAKSTEEN
  6
Continuous
 62
    30
370
    18
100
AcDbPolyline
 90
        5
 70
     1
 43
0.0
 10
304.7966125449129
 20
576.9032285897046
 10
400.7966125449129
 20
576.9032285897046
 10
400.7966125449129
 20
586.9032285897047
 10
304.7966125449129
 20
586.9032285897047
 10
304.7966125449129
 20
576.9032285897046
  0
LWPOLYLINE
  5
15E
330
1F
100
AcDbEntity
  8
BAKSTEEN
  6
Continuous
 62
     2
370
    35
100
AcDbPolyline
 90
        5
 70
     1
 43
0.0
 10
302.7966125449129
 20
586.9032285897047
 10
402.7966125449129
 20
586.9032285897047
 10
402.7966125449129
 20
636.9032285897047
 10
302.7966125449129
 20
636.9032285897047
 10
302.7966125449129
 20
586.9032285897047
  0
LWPOLYLINE
  5
15F
330
1F
100
AcDbEntity
  8
BAKSTEEN
  6
Continuous
 62
    30
370
    18
100
AcDbPolyline
 90
        5
 70
     1
 43
0.0
 10
304.7966125449129
 20
636.9032285897047
 10
400.7966125449129
 20
636.9032285897047
 10
400.7966125449129
 20
646.9032285897046
 10
304.7966125449129
 20
646.9032285897046
 10
304.7966125449129
 20
636.9032285897047
  0
LWPOLYLINE
  5
160
330
1F
100
AcDbEntity
  8
BAKSTEEN
  6
Continuous
 62
     2
370
    35
100
AcDbPolyline
 90
        5
 70
     1
 43
0.0
 10
302.7966125449129
 20
646.9032285897046
 10
402.7966125449129
 20
646.9032285897046
 10
402.7966125449129
 20
696.9032285897046
 10
302.7966125449129
 20
696.9032285897046
 10
302.7966125449129
 20
646.9032285897046
  0
LWPOLYLINE
  5
161
330
1F
100
AcDbEntity
  8
BAKSTEEN
  6
Continuous
 62
    30
370
    18
100
AcDbPolyline
 90
        5
 70
     1
 43
0.0
 10
304.7966125449129
 20
696.9032285897046
 10
400.7966125449129
 20
696.9032285897046
 10
400.7966125449129
 20
706.9032285897046
 10
304.7966125449129
 20
706.9032285897046
 10
304.7966125449129
 20
696.9032285897046
  0
LWPOLYLINE
  5
162
330
1F
100
AcDbEntity
  8
BAKSTEEN
  6
Continuous
 62
     2
370
    35
100
AcDbPolyline
 90
        5
 70
     1
 43
0.0
 10
302.7966125449129
 20
706.9032285897046
 10
402.7966125449129
 20
706.9032285897046
 10
402.7966125449129
 20
756.9032285897046
 10
302.7966125449129
 20
756.9032285897046
 10
302.7966125449129
 20
706.9032285897046
  0
HATCH
  5
163
330
1F
100
AcDbEntity
  8
BAKSTEEN
  6
Continuous
 62
   254
370
    35
100
AcDbHatch
 10
0.0
 20
0.0
 30
0.0
210
0.0
220
0.0
230
1.0
  2
SOLID
 70
     1
 71
     0
 91
        1
 92
        3
 72
     0
 73
     1
 93
        4
 10
402.7966125449129
 20
636.9032285897047
 10
302.7966125449129
 20
636.9032285897047
 10
302.7966125449129
 20
586.9032285897047
 10
402.7966125449129
 20
586.9032285897047
 97
        0
 75
     0
 76
     1
 98
        0
450
        0
451
        0
460
0.0
461
0.0
452
        1
462
0.0
453
        0
470

  0
HATCH
  5
164
330
1F
100
AcDbEntity
  8
BAKSTEEN
  6
Continuous
 62
   254
370
    35
100
AcDbHatch
 10
0.0
 20
0.0
 30
0.0
210
0.0
220
0.0
230
1.0
  2
SOLID
 70
     1
 71
     0
 91
        1
 92
        3
 72
     0
 73
     1
 93
        4
 10
402.7966125449129
 20
696.9032285897046
 10
302.7966125449129
 20
696.9032285897046
 10
302.7966125449129
 20
646.9032285897046
 10
402.7966125449129
 20
646.9032285897046
 97
        0
 75
     0
 76
     1
 98
        0
450
        0
451
        0
460
0.0
461
0.0
452
        1
462
0.0
453
        0
470

  0
HATCH
  5
165
330
1F
100
AcDbEntity
  8
BAKSTEEN
  6
Continuous
 62
   254
370
    35
100
AcDbHatch
 10
0.0
 20
0.0
 30
0.0
210
0.0
220
0.0
230
1.0
  2
SOLID
 70
     1
 71
     0
 91
        1
 92
        3
 72
     0
 73
     1
 93
        4
 10
402.7966125449129
 20
756.9032285897046
 10
302.7966125449129
 20
756.9032285897046
 10
302.7966125449129
 20
706.9032285897046
 10
402.7966125449129
 20
706.9032285897046
 97
        0
 75
     0
 76
     1
 98
        0
450
        0
451
        0
460
0.0
461
0.0
452
        1
462
0.0
453
        0
470

  0
LWPOLYLINE
  5
166
330
1F
100
AcDbEntity
  8
BAKSTEEN
  6
Continuous
 62
    30
370
    18
100
AcDbPolyline
 90
        5
 70
     1
 43
0.0
 10
304.7966125449129
 20
756.9032285897046
 10
400.7966125449129
 20
756.9032285897046
 10
400.7966125449129
 20
766.9032285897046
 10
304.7966125449129
 20
766.9032285897046
 10
304.7966125449129
 20
756.9032285897046
  0
LWPOLYLINE
  5
167
330
1F
100
AcDbEntity
  8
BAKSTEEN
  6
Continuous
 62
     2
370
    35
100
AcDbPolyline
 90
        5
 70
     1
 43
0.0
 10
302.7966125449129
 20
766.9032285897046
 10
402.7966125449129
 20
766.9032285897046
 10
402.7966125449129
 20
816.9032285897046
 10
302.7966125449129
 20
816.9032285897046
 10
302.7966125449129
 20
766.9032285897046
  0
HATCH
  5
168
330
1F
100
AcDbEntity
  8
BAKSTEEN
  6
Continuous
 62
   254
370
    35
100
AcDbHatch
 10
0.0
 20
0.0
 30
0.0
210
0.0
220
0.0
230
1.0
  2
SOLID
 70
     1
 71
     0
 91
        1
 92
        3
 72
     0
 73
     1
 93
        4
 10
402.7966125449129
 20
816.9032285897046
 10
302.7966125449129
 20
816.9032285897046
 10
302.7966125449129
 20
766.9032285897046
 10
402.7966125449129
 20
766.9032285897046
 97
        0
 75
     0
 76
     1
 98
        0
450
        0
451
        0
460
0.0
461
0.0
452
        1
462
0.0
453
        0
470

  0
LWPOLYLINE
  5
169
330
1F
100
AcDbEntity
  8
BAKSTEEN
  6
Continuous
 62
    30
370
    18
100
AcDbPolyline
 90
        5
 70
     1
 43
0.0
 10
304.7966125449129
 20
816.9032285897046
 10
400.7966125449129
 20
816.9032285897046
 10
400.7966125449129
 20
826.9032285897047
 10
304.7966125449129
 20
826.9032285897047
 10
304.7966125449129
 20
816.9032285897046
  0
LWPOLYLINE
  5
16A
330
1F
100
AcDbEntity
  8
BAKSTEEN
  6
Continuous
 62
     2
370
    35
100
AcDbPolyline
 90
        5
 70
     1
 43
0.0
 10
302.7966125449129
 20
826.9032285897047
 10
402.7966125449129
 20
826.9032285897047
 10
402.7966125449129
 20
876.9032285897047
 10
302.7966125449129
 20
876.9032285897047
 10
302.7966125449129
 20
826.9032285897047
  0
HATCH
  5
16B
330
1F
100
AcDbEntity
  8
BAKSTEEN
  6
Continuous
 62
   254
370
    35
100
AcDbHatch
 10
0.0
 20
0.0
 30
0.0
210
0.0
220
0.0
230
1.0
  2
SOLID
 70
     1
 71
     0
 91
        1
 92
        3
 72
     0
 73
     1
 93
        4
 10
402.7966125449129
 20
876.9032285897047
 10
302.7966125449129
 20
876.9032285897047
 10
302.7966125449129
 20
826.9032285897047
 10
402.7966125449129
 20
826.9032285897047
 97
        0
 75
     0
 76
     1
 98
        0
450
        0
451
        0
460
0.0
461
0.0
452
        1
462
0.0
453
        0
470

  0
LWPOLYLINE
  5
16C
330
1F
100
AcDbEntity
  8
BAKSTEEN
  6
Continuous
 62
    30
370
    18
100
AcDbPolyline
 90
        5
 70
     1
 43
0.0
 10
304.7966125449129
 20
876.9032285897047
 10
400.7966125449129
 20
876.9032285897047
 10
400.7966125449129
 20
886.9032285897047
 10
304.7966125449129
 20
886.9032285897047
 10
304.7966125449129
 20
876.9032285897047
  0
LWPOLYLINE
  5
16D
330
1F
100
AcDbEntity
  8
BAKSTEEN
  6
Continuous
 62
     2
370
    35
100
AcDbPolyline
 90
        5
 70
     1
 43
0.0
 10
302.7966125449129
 20
886.9032285897047
 10
402.7966125449129
 20
886.9032285897047
 10
402.7966125449129
 20
936.9032285897047
 10
302.7966125449129
 20
936.9032285897047
 10
302.7966125449129
 20
886.9032285897047
  0
HATCH
  5
16E
330
1F
100
AcDbEntity
  8
BAKSTEEN
  6
Continuous
 62
   254
370
    35
100
AcDbHatch
 10
0.0
 20
0.0
 30
0.0
210
0.0
220
0.0
230
1.0
  2
SOLID
 70
     1
 71
     0
 91
        1
 92
        3
 72
     0
 73
     1
 93
        4
 10
402.7966125449129
 20
936.9032285897047
 10
302.7966125449129
 20
936.9032285897047
 10
302.7966125449129
 20
886.9032285897047
 10
402.7966125449129
 20
886.9032285897047
 97
        0
 75
     0
 76
     1
 98
        0
450
        0
451
        0
460
0.0
461
0.0
452
        1
462
0.0
453
        0
470

  0
LWPOLYLINE
  5
16F
330
1F
100
AcDbEntity
  8
BAKSTEEN
  6
Continuous
 62
    30
370
    18
100
AcDbPolyline
 90
        5
 70
     1
 43
0.0
 10
304.7966125449129
 20
936.9032285897047
 10
400.7966125449129
 20
936.9032285897047
 10
400.7966125449129
 20
946.9032285897046
 10
304.7966125449129
 20
946.9032285897046
 10
304.7966125449129
 20
936.9032285897047
  0
LWPOLYLINE
  5
170
330
1F
100
AcDbEntity
  8
BAKSTEEN
  6
Continuous
 62
    30
370
    18
100
AcDbPolyline
 90
        5
 70
     1
 43
0.0
 10
304.7966125449129
 20
996.9032285897046
 10
400.7966125449129
 20
996.9032285897046
 10
400.7966125449129
 20
1006.903228589704
 10
304.7966125449129
 20
1006.903228589704
 10
304.7966125449129
 20
996.9032285897046
  0
LWPOLYLINE
  5
171
330
1F
100
AcDbEntity
  8
BAKSTEEN
  6
Continuous
 62
     2
370
    35
100
AcDbPolyline
 90
        5
 70
     1
 43
0.0
 10
302.7966125449129
 20
946.9032285897046
 10
402.7966125449129
 20
946.9032285897046
 10
402.7966125449129
 20
996.9032285897046
 10
302.7966125449129
 20
996.9032285897046
 10
302.7966125449129
 20
946.9032285897046
  0
LWPOLYLINE
  5
172
330
1F
100
AcDbEntity
  8
BAKSTEEN
  6
Continuous
 62
     2
370
    35
100
AcDbPolyline
 90
        5
 70
     1
 43
0.0
 10
302.7966125449129
 20
1006.903228589704
 10
402.7966125449129
 20
1006.903228589704
 10
402.7966125449129
 20
1056.903228589704
 10
302.7966125449129
 20
1056.903228589704
 10
302.7966125449129
 20
1006.903228589704
  0
HATCH
  5
173
330
1F
100
AcDbEntity
  8
BAKSTEEN
  6
Continuous
 62
   254
370
    35
100
AcDbHatch
 10
0.0
 20
0.0
 30
0.0
210
0.0
220
0.0
230
1.0
  2
SOLID
 70
     1
 71
     0
 91
        1
 92
        3
 72
     0
 73
     1
 93
        4
 10
402.7966125449129
 20
996.9032285897046
 10
302.7966125449129
 20
996.9032285897046
 10
302.7966125449129
 20
946.9032285897046
 10
402.7966125449129
 20
946.9032285897046
 97
        0
 75
     0
 76
     1
 98
        0
450
        0
451
        0
460
0.0
461
0.0
452
        1
462
0.0
453
        0
470

  0
LWPOLYLINE
  5
174
330
1F
100
AcDbEntity
  8
BAKSTEEN
  6
Continuous
 62
    30
370
    18
100
AcDbPolyline
 90
        5
 70
     1
 43
0.0
 10
304.7966125449129
 20
516.9032285897046
 10
400.7966125449129
 20
516.9032285897046
 10
400.7966125449129
 20
526.9032285897046
 10
304.7966125449129
 20
526.9032285897046
 10
304.7966125449129
 20
516.9032285897046
  0
LWPOLYLINE
  5
175
330
1F
100
AcDbEntity
  8
BAKSTEEN
  6
Continuous
 62
     2
370
    35
100
AcDbPolyline
 90
        5
 70
     1
 43
0.0
 10
302.7966125449129
 20
526.9032285897046
 10
402.7966125449129
 20
526.9032285897046
 10
402.7966125449129
 20
576.9032285897046
 10
302.7966125449129
 20
576.9032285897046
 10
302.7966125449129
 20
526.9032285897046
  0
HATCH
  5
176
330
1F
100
AcDbEntity
  8
BAKSTEEN
  6
Continuous
 62
   254
370
    35
100
AcDbHatch
 10
0.0
 20
0.0
 30
0.0
210
0.0
220
0.0
230
1.0
  2
SOLID
 70
     1
 71
     0
 91
        1
 92
        3
 72
     0
 73
     1
 93
        4
 10
402.7966125449129
 20
576.9032285897046
 10
302.7966125449129
 20
576.9032285897046
 10
302.7966125449129
 20
526.9032285897046
 10
402.7966125449129
 20
526.9032285897046
 97
        0
 75
     0
 76
     1
 98
        0
450
        0
451
        0
460
0.0
461
0.0
452
        1
462
0.0
453
        0
470

  0
LWPOLYLINE
  5
177
330
1F
100
AcDbEntity
  8
BAKSTEEN
  6
Continuous
 62
     2
370
    35
100
AcDbPolyline
 90
        5
 70
     1
 43
0.0
 10
302.7966125449129
 20
466.9032285897046
 10
402.7966125449129
 20
466.9032285897046
 10
402.7966125449129
 20
516.9032285897046
 10
302.7966125449129
 20
516.9032285897046
 10
302.7966125449129
 20
466.9032285897046
  0
HATCH
  5
178
330
1F
100
AcDbEntity
  8
BAKSTEEN
  6
Continuous
 62
   254
370
    35
100
AcDbHatch
 10
0.0
 20
0.0
 30
0.0
210
0.0
220
0.0
230
1.0
  2
SOLID
 70
     1
 71
     0
 91
        1
 92
        3
 72
     0
 73
     1
 93
        4
 10
402.7966125449129
 20
516.9032285897046
 10
302.7966125449129
 20
516.9032285897046
 10
302.7966125449129
 20
466.9032285897046
 10
402.7966125449129
 20
466.9032285897046
 97
        0
 75
     0
 76
     1
 98
        0
450
        0
451
        0
460
0.0
461
0.0
452
        1
462
0.0
453
        0
470

  0
LINE
  5
179
330
1F
100
AcDbEntity
  8
BAKSTEEN
  6
PUNKT2_S9
 62
    30
370
    18
100
AcDbLine
 10
302.7966125449129
 20
466.9032285897046
 30
0.0
 11
402.7966125449129
 21
516.9032285897046
 31
0.0
  0
LINE
  5
17A
330
1F
100
AcDbEntity
  8
BAKSTEEN
  6
PUNKT2_S9
 62
    30
370
    18
100
AcDbLine
 10
402.7966125449129
 20
466.9032285897046
 30
0.0
 11
302.7966125449129
 21
516.9032285897046
 31
0.0
  0
HATCH
  5
17B
330
1F
100
AcDbEntity
  8
BAKSTEEN
  6
Continuous
 62
   254
370
    35
100
AcDbHatch
 10
0.0
 20
0.0
 30
0.0
210
0.0
220
0.0
230
1.0
  2
SOLID
 70
     1
 71
     0
 91
        1
 92
        3
 72
     0
 73
     1
 93
        4
 10
402.7966125449129
 20
1056.903228589704
 10
302.7966125449129
 20
1056.903228589704
 10
302.7966125449129
 20
1006.903228589704
 10
402.7966125449129
 20
1006.903228589704
 97
        0
 75
     0
 76
     1
 98
        0
450
        0
451
        0
460
0.0
461
0.0
452
        1
462
0.0
453
        0
470

  0
LWPOLYLINE
  5
17C
330
1F
100
AcDbEntity
  8
BAKSTEEN
  6
Continuous
 62
    30
370
    18
100
AcDbPolyline
 90
        5
 70
     1
 43
0.0
 10
304.7966125449129
 20
1056.903228589704
 10
400.7966125449129
 20
1056.903228589704
 10
400.7966125449129
 20
1066.903228589704
 10
304.7966125449129
 20
1066.903228589704
 10
304.7966125449129
 20
1056.903228589704
  0
LWPOLYLINE
  5
17D
330
1F
100
AcDbEntity
  8
BAKSTEEN
  6
Continuous
 62
    30
370
    18
100
AcDbPolyline
 90
        5
 70
     1
 43
0.0
 10
304.7966125449129
 20
1116.903228589704
 10
400.7966125449129
 20
1116.903228589704
 10
400.7966125449129
 20
1126.903228589704
 10
304.7966125449129
 20
1126.903228589704
 10
304.7966125449129
 20
1116.903228589704
  0
LWPOLYLINE
  5
17E
330
1F
100
AcDbEntity
  8
BAKSTEEN
  6
Continuous
 62
     2
370
    35
100
AcDbPolyline
 90
        5
 70
     1
 43
0.0
 10
302.7966125449129
 20
1066.903228589704
 10
402.7966125449129
 20
1066.903228589704
 10
402.7966125449129
 20
1116.903228589704
 10
302.7966125449129
 20
1116.903228589704
 10
302.7966125449129
 20
1066.903228589704
  0
INSERT
  5
17F
330
1F
100
AcDbEntity
  8
AANHAALLIJN
  6
Continuous
 62
    30
370
    18
100
AcDbBlockReference
  2
NSY154
 10
352.7966125449093
 20
1091.903228589704
 30
0.0
 41
1.962533333333333
 42
1.962533333333333
 43
1.962533333333333
  0
LWPOLYLINE
  5
180
330
1F
100
AcDbEntity
  8
BAKSTEEN
  6
Continuous
 62
     2
370
    35
100
AcDbPolyline
 90
        4
 70
     0
 43
0.0
 10
302.7966125449129
 20
1176.903228589704
 10
302.7966125449129
 20
1126.903228589704
 10
402.7966125449129
 20
1126.903228589704
 10
402.7966125449129
 20
1176.903228589704
  0
LWPOLYLINE
  5
181
330
1F
100
AcDbEntity
  8
BAKSTEEN
  6
Continuous
 62
    30
370
    18
100
AcDbPolyline
 90
        5
 70
     1
 43
0.0
 10
304.7966125449129
 20
576.9032285897046
 10
400.7966125449129
 20
576.9032285897046
 10
400.7966125449129
 20
586.9032285897047
 10
304.7966125449129
 20
586.9032285897047
 10
304.7966125449129
 20
576.9032285897046
  0
LWPOLYLINE
  5
182
330
1F
100
AcDbEntity
  8
BAKSTEEN
  6
Continuous
 62
     2
370
    35
100
AcDbPolyline
 90
        5
 70
     1
 43
0.0
 10
302.7966125449129
 20
586.9032285897047
 10
402.7966125449129
 20
586.9032285897047
 10
402.7966125449129
 20
636.9032285897047
 10
302.7966125449129
 20
636.9032285897047
 10
302.7966125449129
 20
586.9032285897047
  0
LWPOLYLINE
  5
183
330
1F
100
AcDbEntity
  8
BAKSTEEN
  6
Continuous
 62
    30
370
    18
100
AcDbPolyline
 90
        5
 70
     1
 43
0.0
 10
304.7966125449129
 20
636.9032285897047
 10
400.7966125449129
 20
636.9032285897047
 10
400.7966125449129
 20
646.9032285897046
 10
304.7966125449129
 20
646.9032285897046
 10
304.7966125449129
 20
636.9032285897047
  0
LWPOLYLINE
  5
184
330
1F
100
AcDbEntity
  8
BAKSTEEN
  6
Continuous
 62
     2
370
    35
100
AcDbPolyline
 90
        5
 70
     1
 43
0.0
 10
302.7966125449129
 20
646.9032285897046
 10
402.7966125449129
 20
646.9032285897046
 10
402.7966125449129
 20
696.9032285897046
 10
302.7966125449129
 20
696.9032285897046
 10
302.7966125449129
 20
646.9032285897046
  0
LWPOLYLINE
  5
185
330
1F
100
AcDbEntity
  8
BAKSTEEN
  6
Continuous
 62
    30
370
    18
100
AcDbPolyline
 90
        5
 70
     1
 43
0.0
 10
304.7966125449129
 20
696.9032285897046
 10
400.7966125449129
 20
696.9032285897046
 10
400.7966125449129
 20
706.9032285897046
 10
304.7966125449129
 20
706.9032285897046
 10
304.7966125449129
 20
696.9032285897046
  0
LWPOLYLINE
  5
186
330
1F
100
AcDbEntity
  8
BAKSTEEN
  6
Continuous
 62
     2
370
    35
100
AcDbPolyline
 90
        5
 70
     1
 43
0.0
 10
302.7966125449129
 20
706.9032285897046
 10
402.7966125449129
 20
706.9032285897046
 10
402.7966125449129
 20
756.9032285897046
 10
302.7966125449129
 20
756.9032285897046
 10
302.7966125449129
 20
706.9032285897046
  0
HATCH
  5
187
330
1F
100
AcDbEntity
  8
BAKSTEEN
  6
Continuous
 62
   254
370
    35
100
AcDbHatch
 10
0.0
 20
0.0
 30
0.0
210
0.0
220
0.0
230
1.0
  2
SOLID
 70
     1
 71
     0
 91
        1
 92
        3
 72
     0
 73
     1
 93
        4
 10
402.7966125449129
 20
636.9032285897047
 10
302.7966125449129
 20
636.9032285897047
 10
302.7966125449129
 20
586.9032285897047
 10
402.7966125449129
 20
586.9032285897047
 97
        0
 75
     0
 76
     1
 98
        0
450
        0
451
        0
460
0.0
461
0.0
452
        1
462
0.0
453
        0
470

  0
HATCH
  5
188
330
1F
100
AcDbEntity
  8
BAKSTEEN
  6
Continuous
 62
   254
370
    35
100
AcDbHatch
 10
0.0
 20
0.0
 30
0.0
210
0.0
220
0.0
230
1.0
  2
SOLID
 70
     1
 71
     0
 91
        1
 92
        3
 72
     0
 73
     1
 93
        4
 10
402.7966125449129
 20
696.9032285897046
 10
302.7966125449129
 20
696.9032285897046
 10
302.7966125449129
 20
646.9032285897046
 10
402.7966125449129
 20
646.9032285897046
 97
        0
 75
     0
 76
     1
 98
        0
450
        0
451
        0
460
0.0
461
0.0
452
        1
462
0.0
453
        0
470

  0
HATCH
  5
189
330
1F
100
AcDbEntity
  8
BAKSTEEN
  6
Continuous
 62
   254
370
    35
100
AcDbHatch
 10
0.0
 20
0.0
 30
0.0
210
0.0
220
0.0
230
1.0
  2
SOLID
 70
     1
 71
     0
 91
        1
 92
        3
 72
     0
 73
     1
 93
        4
 10
402.7966125449129
 20
756.9032285897046
 10
302.7966125449129
 20
756.9032285897046
 10
302.7966125449129
 20
706.9032285897046
 10
402.7966125449129
 20
706.9032285897046
 97
        0
 75
     0
 76
     1
 98
        0
450
        0
451
        0
460
0.0
461
0.0
452
        1
462
0.0
453
        0
470

  0
LWPOLYLINE
  5
18A
330
1F
100
AcDbEntity
  8
BAKSTEEN
  6
Continuous
 62
    30
370
    18
100
AcDbPolyline
 90
        5
 70
     1
 43
0.0
 10
304.7966125449129
 20
756.9032285897046
 10
400.7966125449129
 20
756.9032285897046
 10
400.7966125449129
 20
766.9032285897046
 10
304.7966125449129
 20
766.9032285897046
 10
304.7966125449129
 20
756.9032285897046
  0
LWPOLYLINE
  5
18B
330
1F
100
AcDbEntity
  8
BAKSTEEN
  6
Continuous
 62
     2
370
    35
100
AcDbPolyline
 90
        5
 70
     1
 43
0.0
 10
302.7966125449129
 20
766.9032285897046
 10
402.7966125449129
 20
766.9032285897046
 10
402.7966125449129
 20
816.9032285897046
 10
302.7966125449129
 20
816.9032285897046
 10
302.7966125449129
 20
766.9032285897046
  0
HATCH
  5
18C
330
1F
100
AcDbEntity
  8
BAKSTEEN
  6
Continuous
 62
   254
370
    35
100
AcDbHatch
 10
0.0
 20
0.0
 30
0.0
210
0.0
220
0.0
230
1.0
  2
SOLID
 70
     1
 71
     0
 91
        1
 92
        3
 72
     0
 73
     1
 93
        4
 10
402.7966125449129
 20
816.9032285897046
 10
302.7966125449129
 20
816.9032285897046
 10
302.7966125449129
 20
766.9032285897046
 10
402.7966125449129
 20
766.9032285897046
 97
        0
 75
     0
 76
     1
 98
        0
450
        0
451
        0
460
0.0
461
0.0
452
        1
462
0.0
453
        0
470

  0
LWPOLYLINE
  5
18D
330
1F
100
AcDbEntity
  8
BAKSTEEN
  6
Continuous
 62
    30
370
    18
100
AcDbPolyline
 90
        5
 70
     1
 43
0.0
 10
304.7966125449129
 20
816.9032285897046
 10
400.7966125449129
 20
816.9032285897046
 10
400.7966125449129
 20
826.9032285897047
 10
304.7966125449129
 20
826.9032285897047
 10
304.7966125449129
 20
816.9032285897046
  0
LWPOLYLINE
  5
18E
330
1F
100
AcDbEntity
  8
BAKSTEEN
  6
Continuous
 62
     2
370
    35
100
AcDbPolyline
 90
        5
 70
     1
 43
0.0
 10
302.7966125449129
 20
826.9032285897047
 10
402.7966125449129
 20
826.9032285897047
 10
402.7966125449129
 20
876.9032285897047
 10
302.7966125449129
 20
876.9032285897047
 10
302.7966125449129
 20
826.9032285897047
  0
HATCH
  5
18F
330
1F
100
AcDbEntity
  8
BAKSTEEN
  6
Continuous
 62
   254
370
    35
100
AcDbHatch
 10
0.0
 20
0.0
 30
0.0
210
0.0
220
0.0
230
1.0
  2
SOLID
 70
     1
 71
     0
 91
        1
 92
        3
 72
     0
 73
     1
 93
        4
 10
402.7966125449129
 20
876.9032285897047
 10
302.7966125449129
 20
876.9032285897047
 10
302.7966125449129
 20
826.9032285897047
 10
402.7966125449129
 20
826.9032285897047
 97
        0
 75
     0
 76
     1
 98
        0
450
        0
451
        0
460
0.0
461
0.0
452
        1
462
0.0
453
        0
470

  0
LWPOLYLINE
  5
190
330
1F
100
AcDbEntity
  8
BAKSTEEN
  6
Continuous
 62
    30
370
    18
100
AcDbPolyline
 90
        5
 70
     1
 43
0.0
 10
304.7966125449129
 20
876.9032285897047
 10
400.7966125449129
 20
876.9032285897047
 10
400.7966125449129
 20
886.9032285897047
 10
304.7966125449129
 20
886.9032285897047
 10
304.7966125449129
 20
876.9032285897047
  0
LWPOLYLINE
  5
191
330
1F
100
AcDbEntity
  8
BAKSTEEN
  6
Continuous
 62
     2
370
    35
100
AcDbPolyline
 90
        5
 70
     1
 43
0.0
 10
302.7966125449129
 20
886.9032285897047
 10
402.7966125449129
 20
886.9032285897047
 10
402.7966125449129
 20
936.9032285897047
 10
302.7966125449129
 20
936.9032285897047
 10
302.7966125449129
 20
886.9032285897047
  0
HATCH
  5
192
330
1F
100
AcDbEntity
  8
BAKSTEEN
  6
Continuous
 62
   254
370
    35
100
AcDbHatch
 10
0.0
 20
0.0
 30
0.0
210
0.0
220
0.0
230
1.0
  2
SOLID
 70
     1
 71
     0
 91
        1
 92
        3
 72
     0
 73
     1
 93
        4
 10
402.7966125449129
 20
936.9032285897047
 10
302.7966125449129
 20
936.9032285897047
 10
302.7966125449129
 20
886.9032285897047
 10
402.7966125449129
 20
886.9032285897047
 97
        0
 75
     0
 76
     1
 98
        0
450
        0
451
        0
460
0.0
461
0.0
452
        1
462
0.0
453
        0
470

  0
LWPOLYLINE
  5
193
330
1F
100
AcDbEntity
  8
BAKSTEEN
  6
Continuous
 62
    30
370
    18
100
AcDbPolyline
 90
        5
 70
     1
 43
0.0
 10
304.7966125449129
 20
936.9032285897047
 10
400.7966125449129
 20
936.9032285897047
 10
400.7966125449129
 20
946.9032285897046
 10
304.7966125449129
 20
946.9032285897046
 10
304.7966125449129
 20
936.9032285897047
  0
LWPOLYLINE
  5
194
330
1F
100
AcDbEntity
  8
BAKSTEEN
  6
Continuous
 62
    30
370
    18
100
AcDbPolyline
 90
        5
 70
     1
 43
0.0
 10
304.7966125449129
 20
996.9032285897046
 10
400.7966125449129
 20
996.9032285897046
 10
400.7966125449129
 20
1006.903228589704
 10
304.7966125449129
 20
1006.903228589704
 10
304.7966125449129
 20
996.9032285897046
  0
LWPOLYLINE
  5
195
330
1F
100
AcDbEntity
  8
BAKSTEEN
  6
Continuous
 62
     2
370
    35
100
AcDbPolyline
 90
        5
 70
     1
 43
0.0
 10
302.7966125449129
 20
946.9032285897046
 10
402.7966125449129
 20
946.9032285897046
 10
402.7966125449129
 20
996.9032285897046
 10
302.7966125449129
 20
996.9032285897046
 10
302.7966125449129
 20
946.9032285897046
  0
LWPOLYLINE
  5
196
330
1F
100
AcDbEntity
  8
BAKSTEEN
  6
Continuous
 62
     2
370
    35
100
AcDbPolyline
 90
        5
 70
     1
 43
0.0
 10
302.7966125449129
 20
1006.903228589704
 10
402.7966125449129
 20
1006.903228589704
 10
402.7966125449129
 20
1056.903228589704
 10
302.7966125449129
 20
1056.903228589704
 10
302.7966125449129
 20
1006.903228589704
  0
HATCH
  5
197
330
1F
100
AcDbEntity
  8
BAKSTEEN
  6
Continuous
 62
   254
370
    35
100
AcDbHatch
 10
0.0
 20
0.0
 30
0.0
210
0.0
220
0.0
230
1.0
  2
SOLID
 70
     1
 71
     0
 91
        1
 92
        3
 72
     0
 73
     1
 93
        4
 10
402.7966125449129
 20
996.9032285897046
 10
302.7966125449129
 20
996.9032285897046
 10
302.7966125449129
 20
946.9032285897046
 10
402.7966125449129
 20
946.9032285897046
 97
        0
 75
     0
 76
     1
 98
        0
450
        0
451
        0
460
0.0
461
0.0
452
        1
462
0.0
453
        0
470

  0
LWPOLYLINE
  5
198
330
1F
100
AcDbEntity
  8
BAKSTEEN
  6
Continuous
 62
    30
370
    18
100
AcDbPolyline
 90
        5
 70
     1
 43
0.0
 10
304.7966125449129
 20
516.9032285897046
 10
400.7966125449129
 20
516.9032285897046
 10
400.7966125449129
 20
526.9032285897046
 10
304.7966125449129
 20
526.9032285897046
 10
304.7966125449129
 20
516.9032285897046
  0
LWPOLYLINE
  5
199
330
1F
100
AcDbEntity
  8
BAKSTEEN
  6
Continuous
 62
     2
370
    35
100
AcDbPolyline
 90
        5
 70
     1
 43
0.0
 10
302.7966125449129
 20
526.9032285897046
 10
402.7966125449129
 20
526.9032285897046
 10
402.7966125449129
 20
576.9032285897046
 10
302.7966125449129
 20
576.9032285897046
 10
302.7966125449129
 20
526.9032285897046
  0
HATCH
  5
19A
330
1F
100
AcDbEntity
  8
BAKSTEEN
  6
Continuous
 62
   254
370
    35
100
AcDbHatch
 10
0.0
 20
0.0
 30
0.0
210
0.0
220
0.0
230
1.0
  2
SOLID
 70
     1
 71
     0
 91
        1
 92
        3
 72
     0
 73
     1
 93
        4
 10
402.7966125449129
 20
576.9032285897046
 10
302.7966125449129
 20
576.9032285897046
 10
302.7966125449129
 20
526.9032285897046
 10
402.7966125449129
 20
526.9032285897046
 97
        0
 75
     0
 76
     1
 98
        0
450
        0
451
        0
460
0.0
461
0.0
452
        1
462
0.0
453
        0
470

  0
LWPOLYLINE
  5
19B
330
1F
100
AcDbEntity
  8
BAKSTEEN
  6
Continuous
 62
     2
370
    35
100
AcDbPolyline
 90
        5
 70
     1
 43
0.0
 10
302.7966125449129
 20
466.9032285897046
 10
402.7966125449129
 20
466.9032285897046
 10
402.7966125449129
 20
516.9032285897046
 10
302.7966125449129
 20
516.9032285897046
 10
302.7966125449129
 20
466.9032285897046
  0
HATCH
  5
19C
330
1F
100
AcDbEntity
  8
BAKSTEEN
  6
Continuous
 62
   254
370
    35
100
AcDbHatch
 10
0.0
 20
0.0
 30
0.0
210
0.0
220
0.0
230
1.0
  2
SOLID
 70
     1
 71
     0
 91
        1
 92
        3
 72
     0
 73
     1
 93
        4
 10
402.7966125449129
 20
516.9032285897046
 10
302.7966125449129
 20
516.9032285897046
 10
302.7966125449129
 20
466.9032285897046
 10
402.7966125449129
 20
466.9032285897046
 97
        0
 75
     0
 76
     1
 98
        0
450
        0
451
        0
460
0.0
461
0.0
452
        1
462
0.0
453
        0
470

  0
LINE
  5
19D
330
1F
100
AcDbEntity
  8
BAKSTEEN
  6
PUNKT2_S9
 62
    30
370
    18
100
AcDbLine
 10
302.7966125449129
 20
466.9032285897046
 30
0.0
 11
402.7966125449129
 21
516.9032285897046
 31
0.0
  0
LINE
  5
19E
330
1F
100
AcDbEntity
  8
BAKSTEEN
  6
PUNKT2_S9
 62
    30
370
    18
100
AcDbLine
 10
402.7966125449129
 20
466.9032285897046
 30
0.0
 11
302.7966125449129
 21
516.9032285897046
 31
0.0
  0
HATCH
  5
19F
330
1F
100
AcDbEntity
  8
BAKSTEEN
  6
Continuous
 62
   254
370
    35
100
AcDbHatch
 10
0.0
 20
0.0
 30
0.0
210
0.0
220
0.0
230
1.0
  2
SOLID
 70
     1
 71
     0
 91
        1
 92
        3
 72
     0
 73
     1
 93
        4
 10
402.7966125449129
 20
1056.903228589704
 10
302.7966125449129
 20
1056.903228589704
 10
302.7966125449129
 20
1006.903228589704
 10
402.7966125449129
 20
1006.903228589704
 97
        0
 75
     0
 76
     1
 98
        0
450
        0
451
        0
460
0.0
461
0.0
452
        1
462
0.0
453
        0
470

  0
LWPOLYLINE
  5
1A0
330
1F
100
AcDbEntity
  8
BAKSTEEN
  6
Continuous
 62
    30
370
    18
100
AcDbPolyline
 90
        5
 70
     1
 43
0.0
 10
304.7966125449129
 20
1056.903228589704
 10
400.7966125449129
 20
1056.903228589704
 10
400.7966125449129
 20
1066.903228589704
 10
304.7966125449129
 20
1066.903228589704
 10
304.7966125449129
 20
1056.903228589704
  0
LWPOLYLINE
  5
1A1
330
1F
100
AcDbEntity
  8
BAKSTEEN
  6
Continuous
 62
    30
370
    18
100
AcDbPolyline
 90
        5
 70
     1
 43
0.0
 10
304.7966125449129
 20
1116.903228589704
 10
400.7966125449129
 20
1116.903228589704
 10
400.7966125449129
 20
1126.903228589704
 10
304.7966125449129
 20
1126.903228589704
 10
304.7966125449129
 20
1116.903228589704
  0
LWPOLYLINE
  5
1A2
330
1F
100
AcDbEntity
  8
BAKSTEEN
  6
Continuous
 62
     2
370
    35
100
AcDbPolyline
 90
        5
 70
     1
 43
0.0
 10
302.7966125449129
 20
1066.903228589704
 10
402.7966125449129
 20
1066.903228589704
 10
402.7966125449129
 20
1116.903228589704
 10
302.7966125449129
 20
1116.903228589704
 10
302.7966125449129
 20
1066.903228589704
  0
INSERT
  5
1A3
330
1F
100
AcDbEntity
  8
AANHAALLIJN
  6
Continuous
 62
    30
370
    18
100
AcDbBlockReference
  2
NSY154
 10
352.7966125449093
 20
1091.903228589704
 30
0.0
 41
1.962533333333333
 42
1.962533333333333
 43
1.962533333333333
  0
LWPOLYLINE
  5
1A4
330
1F
100
AcDbEntity
  8
BAKSTEEN
  6
Continuous
 62
     2
370
    35
100
AcDbPolyline
 90
        4
 70
     0
 43
0.0
 10
302.7966125449129
 20
1176.903228589704
 10
302.7966125449129
 20
1126.903228589704
 10
402.7966125449129
 20
1126.903228589704
 10
402.7966125449129
 20
1176.903228589704
  0
LWPOLYLINE
  5
1A5
330
1F
100
AcDbEntity
  8
BAKSTEEN
  6
Continuous
 62
    30
370
    18
100
AcDbPolyline
 90
        5
 70
     1
 43
0.0
 10
304.7966125449129
 20
456.9032285897048
 10
400.7966125449129
 20
456.9032285897046
 10
400.7966125449129
 20
466.9032285897046
 10
304.7966125449129
 20
466.9032285897046
 10
304.7966125449129
 20
456.9032285897048
  0
DIMENSION
  5
1B8
330
1F
100
AcDbEntity
  8
Maatlijnen 1_5
  6
Continuous
 62
    30
370
    18
100
AcDbDimension
280
     0
  2
*D8
 10
677.7966125449129
 20
1236.903228589705
 30
0.0
 11
490.1856910432065
 21
1247.039747361036
 31
0.0
 70
   160
  1
<>
 71
     5
 42
375.0
 73
     0
 74
     0
 75
     0
  3
_DIMSTYLE_3
100
AcDbAlignedDimension
 13
302.7966125449129
 23
1176.904228589704
 33
0.0
 14
677.7966125449129
 24
1176.904228589704
 34
0.0
100
AcDbRotatedDimension
1001
NEM_ODX
1000
MASSLINIE
1002
{
1000
UTF_TYPE
1070
     1
1000
ODXVALUES
1070
     1
1070
     0
1070
   499
1040
0.1
1002
}
  0
INSERT
  5
1B9
330
1F
100
AcDbEntity
  8
AANHAALLIJN
  6
Continuous
 62
    30
370
    18
100
AcDbBlockReference
  2
NSY154
 10
352.7966125448693
 20
491.9032285897265
 30
0.0
 41
1.962533333333333
 42
1.962533333333333
 43
1.962533333333333
  0
INSERT
  5
1BA
330
1F
100
AcDbEntity
  8
AANHAALLIJN
  6
Continuous
 62
    30
370
    18
100
AcDbBlockReference
  2
NSY154
 10
352.7966125448693
 20
491.9032285897265
 30
0.0
 41
1.962533333333333
 42
1.962533333333333
 43
1.962533333333333
  0
INSERT
  5
1BB
330
1F
100
AcDbEntity
  8
AANHAALLIJN
  6
Continuous
 62
    30
370
    18
100
AcDbBlockReference
  2
NSY154
 10
421.8417258295935
 20
1091.903228589704
 30
0.0
 41
1.962533333333333
 42
1.962533333333333
 43
1.962533333333333
  0
INSERT
  5
1BC
330
1F
100
AcDbEntity
  8
AANHAALLIJN
  6
Continuous
 62
    30
370
    18
100
AcDbBlockReference
  2
NSY154
 10
421.8417258295935
 20
1091.903228589704
 30
0.0
 41
1.962533333333333
 42
1.962533333333333
 43
1.962533333333333
  0
LINE
  5
1BD
330
1F
100
AcDbEntity
  8
AFBREEKLIJNEN
  6
STRICHPUNKT2_S5
 62
     7
370
    25
100
AcDbLine
 10
707.7966125449129
 20
1176.903228589704
 30
0.0
 11
272.7966125449129
 21
1176.903228589704
 31
0.0
  0
LWPOLYLINE
  5
1CB
330
1F
100
AcDbEntity
  8
PS FUNDERINGSBEKISTING
  6
STRICHLINIE2_S3
 62
    30
370
    18
100
AcDbPolyline
 90
        4
 70
     0
 43
0.0
 10
297.7966125449129
 20
156.9032285897065
 10
297.7966125449129
 20
456.9032285897101
 10
217.7966125449129
 20
456.9032285897101
 10
217.7966125449129
 20
156.9032285897065
  0
LWPOLYLINE
  5
1CC
330
1F
100
AcDbEntity
  8
PS FUNDERINGSBEKISTING
  6
STRICHLINIE2_S3
 62
    30
370
    18
100
AcDbPolyline
 90
        8
 70
     0
 43
0.0
 10
258.1813702743275
 20
156.9032285897574
 10
297.7966125449129
 20
179.7750993786885
 10
217.7966125449129
 20
225.9631209138588
 10
297.7966125449129
 20
272.1511424490291
 10
217.7966125449129
 20
318.3391639841993
 10
297.7966125449129
 20
364.5271855193696
 10
217.7966125449129
 20
410.7152070545398
 10
297.7966125449129
 20
456.9032285897101
  0
HATCH
  5
1CD
330
1F
100
AcDbEntity
  8
PS FUNDERINGSBEKISTING
  6
Continuous
 62
   255
370
    25
100
AcDbHatch
 10
0.0
 20
0.0
 30
0.0
210
0.0
220
0.0
230
1.0
  2
SOLID
 70
     1
 71
     0
 91
        1
 92
        3
 72
     0
 73
     1
 93
        4
 10
297.7966125449129
 20
156.9032285897065
 10
297.7966125449129
 20
456.9032285897101
 10
217.7966125449129
 20
456.9032285897101
 10
217.7966125449129
 20
156.9032285897065
 97
        0
 75
     0
 76
     1
 98
        0
450
        0
451
        0
460
0.0
461
0.0
452
        1
462
0.0
453
        0
470

  0
INSERT
  5
1DA
330
1F
100
AcDbEntity
  8
Maatlijnen 1_5
  6
Continuous
 62
    30
370
    18
100
AcDbBlockReference
  2
COMPLEX_ELEVATIONDIM_3
 10
0.0
 20
0.0
 30
0.0
  0
LWPOLYLINE
  5
1DB
330
1F
100
AcDbEntity
  8
PS FUNDERINGSBEKISTING
  6
STRICHLINIE2_S3
 62
    30
370
    18
100
AcDbPolyline
 90
        4
 70
     0
 43
0.0
 10
297.7966125449129
 20
156.9032285897065
 10
297.7966125449129
 20
456.9032285897101
 10
217.7966125449129
 20
456.9032285897101
 10
217.7966125449129
 20
156.9032285897065
  0
LWPOLYLINE
  5
1DC
330
1F
100
AcDbEntity
  8
PS FUNDERINGSBEKISTING
  6
STRICHLINIE2_S3
 62
    30
370
    18
100
AcDbPolyline
 90
        8
 70
     0
 43
0.0
 10
258.1813702743275
 20
156.9032285897574
 10
297.7966125449129
 20
179.7750993786885
 10
217.7966125449129
 20
225.9631209138588
 10
297.7966125449129
 20
272.1511424490291
 10
217.7966125449129
 20
318.3391639841993
 10
297.7966125449129
 20
364.5271855193696
 10
217.7966125449129
 20
410.7152070545398
 10
297.7966125449129
 20
456.9032285897101
  0
HATCH
  5
1DD
330
1F
100
AcDbEntity
  8
PS FUNDERINGSBEKISTING
  6
Continuous
 62
   255
370
    25
100
AcDbHatch
 10
0.0
 20
0.0
 30
0.0
210
0.0
220
0.0
230
1.0
  2
SOLID
 70
     1
 71
     0
 91
        1
 92
        3
 72
     0
 73
     1
 93
        4
 10
297.7966125449129
 20
156.9032285897065
 10
297.7966125449129
 20
456.9032285897101
 10
217.7966125449129
 20
456.9032285897101
 10
217.7966125449129
 20
156.9032285897065
 97
        0
 75
     0
 76
     1
 98
        0
450
        0
451
        0
460
0.0
461
0.0
452
        1
462
0.0
453
        0
470

  0
LWPOLYLINE
  5
1DE
330
1F
100
AcDbEntity
  8
DILALATIEVOEG EN AFDICHTING
  6
VERDECKT2_S2
 62
    32
370
    25
100
AcDbPolyline
 90
        5
 70
     0
 43
0.0
 10
214.7966125449093
 20
356.9032285897065
 10
214.7966125449093
 20
459.9032285897065
 10
441.2133647240891
 20
459.9032285897046
 10
574.7966125449095
 20
499.9032285897047
 10
574.7966125449129
 20
806.9032285897046
  0
LWPOLYLINE
  5
1DF
330
1F
100
AcDbEntity
  8
PS FUNDERINGSBEKISTING
  6
STRICHLINIE2_S3
 62
    30
370
    18
100
AcDbPolyline
 90
        4
 70
     0
 43
0.0
 10
697.7966125449129
 20
156.9032285897046
 10
697.7966125449129
 20
456.9032285897046
 10
777.7966125449165
 20
456.9032285897046
 10
777.7966125449165
 20
156.9032285897046
  0
LWPOLYLINE
  5
1E0
330
1F
100
AcDbEntity
  8
PS FUNDERINGSBEKISTING
  6
STRICHLINIE2_S3
 62
    30
370
    18
100
AcDbPolyline
 90
        8
 70
     0
 43
0.0
 10
737.4118548154947
 20
156.9032285897556
 10
697.7966125449129
 20
179.7750993786867
 10
777.7966125449165
 20
225.963120913857
 10
697.7966125449129
 20
272.1511424490273
 10
777.7966125449165
 20
318.3391639841975
 10
697.7966125449129
 20
364.5271855193678
 10
777.7966125449165
 20
410.715207054538
 10
697.7966125449129
 20
456.9032285897082
  0
INSERT
  5
1E1
330
1F
100
AcDbEntity
  8
AANHAALLIJN
  6
Continuous
 62
    30
370
    18
100
AcDbBlockReference
  2
NSY154
 10
737.7966125449092
 20
257.2983274343751
 30
0.0
 41
1.962533333333333
 42
1.962533333333333
 43
1.962533333333333
  0
HATCH
  5
1E2
330
1F
100
AcDbEntity
  8
PS FUNDERINGSBEKISTING
  6
Continuous
 62
   255
370
    25
100
AcDbHatch
 10
0.0
 20
0.0
 30
0.0
210
0.0
220
0.0
230
1.0
  2
SOLID
 70
     1
 71
     0
 91
        1
 92
        3
 72
     0
 73
     1
 93
        4
 10
777.7966125449165
 20
156.9032285897046
 10
777.7966125449165
 20
456.9032285897046
 10
697.7966125449129
 20
456.9032285897046
 10
697.7966125449129
 20
156.9032285897046
 97
        0
 75
     0
 76
     1
 98
        0
450
        0
451
        0
460
0.0
461
0.0
452
        1
462
0.0
453
        0
470

  0
DIMENSION
  5
1EE
330
1F
100
AcDbEntity
  8
Maatlijnen 1_5
  6
Continuous
 62
    30
370
    18
100
AcDbDimension
280
     0
  2
*D11
 10
967.796612544917
 20
806.9032285898614
 30
0.0
 11
957.6600937735854
 21
631.614832685335
 31
0.0
 70
   160
  1
<>
 71
     5
 42
350.0000000001783
 73
     0
 74
     0
 75
     0
  3
_DIMSTYLE_3
100
AcDbAlignedDimension
 13
717.8296437829592
 23
456.9032285896828
 33
0.0
 14
937.7976125449166
 24
806.9032285898611
 34
0.0
 50
90.0
100
AcDbRotatedDimension
1001
NEM_ODX
1000
MASSLINIE
1002
{
1000
UTF_TYPE
1070
     1
1000
ODXVALUES
1070
     1
1070
     0
1070
   499
1040
0.1
1002
}
  0
DIMENSION
  5
1F9
330
1F
100
AcDbEntity
  8
Maatlijnen 1_5
  6
Continuous
 62
    30
370
    18
100
AcDbDimension
280
     0
  2
*D12
 10
967.796612544917
 20
856.9032285898614
 30
0.0
 11
957.6600937735854
 21
831.7803616956631
 31
0.0
 70
   160
  1
<>
 71
     5
 42
50.0
 73
     0
 74
     0
 75
     0
  3
_DIMSTYLE_3
100
AcDbAlignedDimension
 13
937.7976125449166
 23
806.9032285898611
 33
0.0
 14
937.7976125449166
 24
856.9032285898611
 34
0.0
 50
90.0
100
AcDbRotatedDimension
1001
NEM_ODX
1000
MASSLINIE
1002
{
1000
UTF_TYPE
1070
     1
1000
ODXVALUES
1070
     1
1070
     0
1070
   499
1040
0.1
1002
}
  0
DIMENSION
  5
205
330
1F
100
AcDbEntity
  8
Maatlijnen 1_5
  6
Continuous
 62
    30
370
    18
100
AcDbDimension
280
     0
  2
*D13
 10
967.796612544917
 20
876.9032285898616
 30
0.0
 11
957.6600937735854
 21
888.403228589861
 31
0.0
 70
   160
  1
<>
 71
     5
 42
20.0
 73
     0
 74
     0
 75
     0
  3
_DIMSTYLE_3
100
AcDbAlignedDimension
 13
937.7976125449166
 23
856.9032285898611
 33
0.0
 14
937.7976125449166
 24
876.903228589861
 34
0.0
 50
90.0
100
AcDbRotatedDimension
1001
NEM_ODX
1000
MASSLINIE
1002
{
1000
UTF_TYPE
1070
     1
1000
ODXVALUES
1070
     1
1070
     0
1070
   499
1040
0.1
1002
}
  0
LWPOLYLINE
  5
206
330
1F
100
AcDbEntity
  8
PS FUNDERINGSBEKISTING
  6
STRICHLINIE2_S3
 62
    30
370
    18
100
AcDbPolyline
 90
        4
 70
     0
 43
0.0
 10
697.7966125449129
 20
156.9032285897046
 10
697.7966125449129
 20
456.9032285897046
 10
777.7966125449165
 20
456.9032285897046
 10
777.7966125449165
 20
156.9032285897046
  0
LWPOLYLINE
  5
207
330
1F
100
AcDbEntity
  8
PS FUNDERINGSBEKISTING
  6
STRICHLINIE2_S3
 62
    30
370
    18
100
AcDbPolyline
 90
        8
 70
     0
 43
0.0
 10
737.4118548154947
 20
156.9032285897556
 10
697.7966125449129
 20
179.7750993786867
 10
777.7966125449165
 20
225.963120913857
 10
697.7966125449129
 20
272.1511424490273
 10
777.7966125449165
 20
318.3391639841975
 10
697.7966125449129
 20
364.5271855193678
 10
777.7966125449165
 20
410.715207054538
 10
697.7966125449129
 20
456.9032285897082
  0
INSERT
  5
208
330
1F
100
AcDbEntity
  8
AANHAALLIJN
  6
Continuous
 62
    30
370
    18
100
AcDbBlockReference
  2
NSY154
 10
737.7966125449092
 20
257.2983274343751
 30
0.0
 41
1.962533333333333
 42
1.962533333333333
 43
1.962533333333333
  0
HATCH
  5
209
330
1F
100
AcDbEntity
  8
PS FUNDERINGSBEKISTING
  6
Continuous
 62
   255
370
    25
100
AcDbHatch
 10
0.0
 20
0.0
 30
0.0
210
0.0
220
0.0
230
1.0
  2
SOLID
 70
     1
 71
     0
 91
        1
 92
        3
 72
     0
 73
     1
 93
        4
 10
777.7966125449165
 20
156.9032285897046
 10
777.7966125449165
 20
456.9032285897046
 10
697.7966125449129
 20
456.9032285897046
 10
697.7966125449129
 20
156.9032285897046
 97
        0
 75
     0
 76
     1
 98
        0
450
        0
451
        0
460
0.0
461
0.0
452
        1
462
0.0
453
        0
470

  0
DIMENSION
  5
214
330
1F
100
AcDbEntity
  8
Maatlijnen 1_5
  6
Continuous
 62
    30
370
    18
100
AcDbDimension
280
     0
  2
*D14
 10
967.796612544917
 20
806.9032285898614
 30
0.0
 11
957.6600937735854
 21
631.614832685335
 31
0.0
 70
   160
  1
<>
 71
     5
 42
350.0000000001783
 73
     0
 74
     0
 75
     0
  3
_DIMSTYLE_3
100
AcDbAlignedDimension
 13
717.8296437829592
 23
456.9032285896828
 33
0.0
 14
937.7976125449166
 24
806.9032285898611
 34
0.0
 50
90.0
100
AcDbRotatedDimension
1001
NEM_ODX
1000
MASSLINIE
1002
{
1000
UTF_TYPE
1070
     1
1000
ODXVALUES
1070
     1
1070
     0
1070
   499
1040
0.1
1002
}
  0
DIMENSION
  5
21F
330
1F
100
AcDbEntity
  8
Maatlijnen 1_5
  6
Continuous
 62
    30
370
    18
100
AcDbDimension
280
     0
  2
*D15
 10
967.796612544917
 20
856.9032285898614
 30
0.0
 11
957.6600937735854
 21
831.7803616956631
 31
0.0
 70
   160
  1
<>
 71
     5
 42
50.0
 73
     0
 74
     0
 75
     0
  3
_DIMSTYLE_3
100
AcDbAlignedDimension
 13
937.7976125449166
 23
806.9032285898611
 33
0.0
 14
937.7976125449166
 24
856.9032285898611
 34
0.0
 50
90.0
100
AcDbRotatedDimension
1001
NEM_ODX
1000
MASSLINIE
1002
{
1000
UTF_TYPE
1070
     1
1000
ODXVALUES
1070
     1
1070
     0
1070
   499
1040
0.1
1002
}
  0
DIMENSION
  5
22B
330
1F
100
AcDbEntity
  8
Maatlijnen 1_5
  6
Continuous
 62
    30
370
    18
100
AcDbDimension
280
     0
  2
*D16
 10
967.796612544917
 20
876.9032285898616
 30
0.0
 11
957.6600937735854
 21
888.403228589861
 31
0.0
 70
   160
  1
<>
 71
     5
 42
20.0
 73
     0
 74
     0
 75
     0
  3
_DIMSTYLE_3
100
AcDbAlignedDimension
 13
937.7976125449166
 23
856.9032285898611
 33
0.0
 14
937.7976125449166
 24
876.903228589861
 34
0.0
 50
90.0
100
AcDbRotatedDimension
1001
NEM_ODX
1000
MASSLINIE
1002
{
1000
UTF_TYPE
1070
     1
1000
ODXVALUES
1070
     1
1070
     0
1070
   499
1040
0.1
1002
}
  0
LINE
  5
22C
330
1F
100
AcDbEntity
  8
AANHAALLIJN
  6
Continuous
 62
    30
370
    18
100
AcDbLine
 10
737.7966125449092
 20
257.2983274343751
 30
0.0
 11
977.7966125449093
 21
257.2983274343751
 31
0.0
  0
LINE
  5
22D
330
1F
100
AcDbEntity
  8
AANHAALLIJN
  6
Continuous
 62
    30
370
    18
100
AcDbLine
 10
737.7966125449092
 20
257.2983274343751
 30
0.0
 11
977.7966125449093
 21
257.2983274343751
 31
0.0
  0
DIMENSION
  5
238
330
1F
100
AcDbEntity
  8
Maatlijnen 1_5
  6
Continuous
 62
    30
370
    18
100
AcDbDimension
280
     0
  2
*D17
 10
697.7966125449093
 20
126.9032285897519
 30
0.0
 11
497.5082166404724
 21
137.039747361083
 31
0.0
 70
   160
  1
<>
 71
     5
 42
400.0
 73
     0
 74
     0
 75
     0
  3
_DIMSTYLE_3
100
AcDbAlignedDimension
 13
297.7966125449093
 23
156.9022285897538
 33
0.0
 14
697.7966125449093
 24
156.9022285897519
 34
0.0
100
AcDbRotatedDimension
1001
NEM_ODX
1000
MASSLINIE
1002
{
1000
UTF_TYPE
1070
     1
1000
ODXVALUES
1070
     1
1070
     0
1070
   499
1040
0.1
1002
}
  0
HATCH
  5
239
330
1F
100
AcDbEntity
  8
PS FUNDERINGSBEKISTING
  6
Continuous
 62
   253
100
AcDbHatch
 10
0.0
 20
0.0
 30
0.0
210
0.0
220
0.0
230
1.0
  2
SOLID
 70
     1
 71
     0
 91
        1
 92
        3
 72
     0
 73
     1
 93
        4
 10
297.7966125449129
 20
156.9032285897065
 10
697.7966125449129
 20
156.9032285897046
 10
697.7966125449129
 20
456.9032285897046
 10
297.7966125449129
 20
456.9032285897101
 97
        0
 75
     0
 76
     1
 98
        0
450
        0
451
        0
460
0.0
461
0.0
452
        1
462
0.0
453
        0
470

  0
LWPOLYLINE
  5
23A
330
1F
100
AcDbEntity
  8
PS FUNDERINGSBEKISTING
  6
Continuous
 62
     3
370
    70
100
AcDbPolyline
 90
        4
 70
     0
 43
0.0
 10
697.7966125449129
 20
156.9032285897046
 10
697.7966125449129
 20
456.9032285897046
 10
297.7966125449129
 20
456.9032285897101
 10
297.7966125449129
 20
156.9032285897065
  0
DIMENSION
  5
245
330
1F
100
AcDbEntity
  8
Maatlijnen 1_5
  6
Continuous
 62
    30
370
    18
100
AcDbDimension
280
     0
  2
*D18
 10
697.7966125449093
 20
126.9032285897519
 30
0.0
 11
497.5082166404724
 21
137.039747361083
 31
0.0
 70
   160
  1
<>
 71
     5
 42
400.0
 73
     0
 74
     0
 75
     0
  3
_DIMSTYLE_3
100
AcDbAlignedDimension
 13
297.7966125449093
 23
156.9022285897538
 33
0.0
 14
697.7966125449093
 24
156.9022285897519
 34
0.0
100
AcDbRotatedDimension
1001
NEM_ODX
1000
MASSLINIE
1002
{
1000
UTF_TYPE
1070
     1
1000
ODXVALUES
1070
     1
1070
     0
1070
   499
1040
0.1
1002
}
  0
HATCH
  5
246
330
1F
100
AcDbEntity
  8
PS FUNDERINGSBEKISTING
  6
Continuous
 62
   253
100
AcDbHatch
 10
0.0
 20
0.0
 30
0.0
210
0.0
220
0.0
230
1.0
  2
SOLID
 70
     1
 71
     0
 91
        1
 92
        3
 72
     0
 73
     1
 93
        4
 10
297.7966125449129
 20
156.9032285897065
 10
697.7966125449129
 20
156.9032285897046
 10
697.7966125449129
 20
456.9032285897046
 10
297.7966125449129
 20
456.9032285897101
 97
        0
 75
     0
 76
     1
 98
        0
450
        0
451
        0
460
0.0
461
0.0
452
        1
462
0.0
453
        0
470

  0
LWPOLYLINE
  5
247
330
1F
100
AcDbEntity
  8
PS FUNDERINGSBEKISTING
  6
Continuous
 62
     3
370
    70
100
AcDbPolyline
 90
        4
 70
     0
 43
0.0
 10
697.7966125449129
 20
156.9032285897046
 10
697.7966125449129
 20
456.9032285897046
 10
297.7966125449129
 20
456.9032285897101
 10
297.7966125449129
 20
156.9032285897065
  0
DIMENSION
  5
252
330
1F
100
AcDbEntity
  8
Maatlijnen 1_5
  6
Continuous
 62
    30
370
    18
100
AcDbDimension
280
     0
  2
*D19
 10
402.7966125449129
 20
1206.903228589705
 30
0.0
 11
352.5082166404761
 21
1217.039747361036
 31
0.0
 70
   160
  1
<>
 71
     5
 42
100.0
 73
     0
 74
     0
 75
     0
  3
_DIMSTYLE_3
100
AcDbAlignedDimension
 13
302.7966125449129
 23
1176.904228589704
 33
0.0
 14
402.7966125449129
 24
1176.904228589704
 34
0.0
100
AcDbRotatedDimension
1001
NEM_ODX
1000
MASSLINIE
1002
{
1000
UTF_TYPE
1070
     1
1000
ODXVALUES
1070
     1
1070
     0
1070
   499
1040
0.1
1002
}
  0
DIMENSION
  5
25D
330
1F
100
AcDbEntity
  8
Maatlijnen 1_5
  6
Continuous
 62
    30
370
    18
100
AcDbDimension
280
     0
  2
*D20
 10
442.7966125449074
 20
1206.903228589705
 30
0.0
 11
422.6737456507122
 21
1217.039747361036
 31
0.0
 70
   160
  1
<>
 71
     5
 42
39.99999999999455
 73
     0
 74
     0
 75
     0
  3
_DIMSTYLE_3
100
AcDbAlignedDimension
 13
402.7966125449129
 23
1176.904228589704
 33
0.0
 14
442.7966125449074
 24
1176.904228589705
 34
0.0
100
AcDbRotatedDimension
1001
NEM_ODX
1000
MASSLINIE
1002
{
1000
UTF_TYPE
1070
     1
1000
ODXVALUES
1070
     1
1070
     0
1070
   499
1040
0.1
1002
}
  0
DIMENSION
  5
268
330
1F
100
AcDbEntity
  8
Maatlijnen 1_5
  6
Continuous
 62
    30
370
    18
100
AcDbDimension
280
     0
  2
*D21
 10
577.7966125449163
 20
1206.903228589705
 30
0.0
 11
510.1856910432053
 21
1217.039747361036
 31
0.0
 70
   160
  1
<>
 71
     5
 42
135.0000000000088
 73
     0
 74
     0
 75
     0
  3
_DIMSTYLE_3
100
AcDbAlignedDimension
 13
442.7966125449074
 23
1176.904228589705
 33
0.0
 14
577.7966125449163
 24
1176.904228589707
 34
0.0
100
AcDbRotatedDimension
1001
NEM_ODX
1000
MASSLINIE
1002
{
1000
UTF_TYPE
1070
     1
1000
ODXVALUES
1070
     1
1070
     0
1070
   499
1040
0.1
1002
}
  0
DIMENSION
  5
273
330
1F
100
AcDbEntity
  8
Maatlijnen 1_5
  6
Continuous
 62
    30
370
    18
100
AcDbDimension
280
     0
  2
*D22
 10
677.7966125449129
 20
1206.903228589705
 30
0.0
 11
627.5082166404778
 21
1217.039747361036
 31
0.0
 70
   160
  1
<>
 71
     5
 42
99.99999999999658
 73
     0
 74
     0
 75
     0
  3
_DIMSTYLE_3
100
AcDbAlignedDimension
 13
577.7966125449163
 23
1176.904228589707
 33
0.0
 14
677.7966125449129
 24
1176.904228589704
 34
0.0
100
AcDbRotatedDimension
1001
NEM_ODX
1000
MASSLINIE
1002
{
1000
UTF_TYPE
1070
     1
1000
ODXVALUES
1070
     1
1070
     0
1070
   499
1040
0.1
1002
}
  0
INSERT
  5
294
330
1F
100
AcDbEntity
  8
Maaiveld
  6
Continuous
 62
     7
370
    25
100
AcDbBlockReference
  2
COMPLEXOBJECT_1
 10
0.0
 20
0.0
 30
0.0
  0
LINE
  5
295
330
1F
100
AcDbEntity
  8
AANHAALLIJN
  6
Continuous
 62
    30
370
    18
100
AcDbLine
 10
302.7966125449129
 20
911.9032285897047
 30
0.0
 11
92.79661254494568
 21
911.9032285897047
 31
0.0
  0
INSERT
  5
296
330
1F
100
AcDbEntity
  8
AANHAALLIJN
  6
Continuous
 62
    30
370
    18
100
AcDbBlockReference
  2
NSY154
 10
302.7966125449129
 20
911.9032285897047
 30
0.0
 41
1.962533333333333
 42
1.962533333333333
 43
1.962533333333333
  0
INSERT
  5
297
330
1F
100
AcDbEntity
  8
AANHAALLIJN
  6
Continuous
 62
    30
370
    18
100
AcDbBlockReference
  2
NSY154
 10
302.7966125449129
 20
911.9032285897047
 30
0.0
 41
1.962533333333333
 42
1.962533333333333
 43
1.962533333333333
  0
MTEXT
  5
298
330
1F
100
AcDbEntity
  8
AANHAALLIJN
  6
Continuous
 62
    30
370
    18
100
AcDbMText
 10
92.79661254492749
 20
976.4865619230382
 30
0.0
 40
12.5
 41
172.9166666666667
 46
0.0
 71
     7
 72
     5
  1
luchtdicht membraan
  7
Trebuchet MS
 73
     1
 44
1.0
  0
INSERT
  5
299
330
1F
100
AcDbEntity
  8
AANHAALLIJN
  6
Continuous
 62
    30
370
    18
100
AcDbBlockReference
  2
NSY154
 10
574.7966125449129
 20
839.1755351116186
 30
0.0
 41
1.962533333333333
 42
1.962533333333333
 43
1.962533333333333
  0
INSERT
  5
29A
330
1F
100
AcDbEntity
  8
AANHAALLIJN
  6
Continuous
 62
    30
370
    18
100
AcDbBlockReference
  2
NSY154
 10
574.7966125449129
 20
839.1755351116186
 30
0.0
 41
1.962533333333333
 42
1.962533333333333
 43
1.962533333333333
  0
LINE
  5
29B
330
1F
100
AcDbEntity
  8
AANHAALLIJN
  6
Continuous
 62
    30
370
    18
100
AcDbLine
 10
482.7966125449129
 20
971.9032285897046
 30
0.0
 11
574.7966125449129
 21
839.1755351116186
 31
0.0
  0
LINE
  5
29C
330
1F
100
AcDbEntity
  8
AANHAALLIJN
  6
Continuous
 62
    30
370
    18
100
AcDbLine
 10
92.79661254492749
 20
971.9032285897046
 30
0.0
 11
482.7966125449129
 21
971.9032285897046
 31
0.0
  0
INSERT
  5
29D
330
1F
100
AcDbEntity
  8
AANHAALLIJN
  6
Continuous
 62
    30
370
    18
100
AcDbBlockReference
  2
NSY154
 10
629.9705255883908
 20
863.6423590244879
 30
0.0
 41
1.962533333333333
 42
1.962533333333333
 43
1.962533333333333
  0
INSERT
  5
29E
330
1F
100
AcDbEntity
  8
AANHAALLIJN
  6
Continuous
 62
    30
370
    18
100
AcDbBlockReference
  2
NSY154
 10
629.9705255883908
 20
863.6423590244879
 30
0.0
 41
1.962533333333333
 42
1.962533333333333
 43
1.962533333333333
  0
LWPOLYLINE
  5
29F
330
1F
100
AcDbEntity
  8
AANHAALLIJN
  6
Continuous
 62
    30
370
    18
100
AcDbPolyline
 90
        3
 70
     0
 43
0.0
 10
92.79661254492749
 20
1031.903228589704
 10
517.7966125449093
 20
1031.903228589704
 10
629.9705255883908
 20
863.6423590244879
  0
INSERT
  5
2A0
330
1F
100
AcDbEntity
  8
AANHAALLIJN
  6
Continuous
 62
    30
370
    18
100
AcDbBlockReference
  2
NSY154
 10
352.7966125449129
 20
791.9032285897027
 30
0.0
 41
1.962533333333333
 42
1.962533333333333
 43
1.962533333333333
  0
INSERT
  5
2A1
330
1F
100
AcDbEntity
  8
AANHAALLIJN
  6
Continuous
 62
    30
370
    18
100
AcDbBlockReference
  2
NSY154
 10
352.7966125449129
 20
791.9032285897027
 30
0.0
 41
1.962533333333333
 42
1.962533333333333
 43
1.962533333333333
  0
LINE
  5
2A2
330
1F
100
AcDbEntity
  8
AANHAALLIJN
  6
Continuous
 62
    30
370
    18
100
AcDbLine
 10
352.7966125449129
 20
791.9032285897027
 30
0.0
 11
92.79661254492749
 21
791.9032285897064
 31
0.0
  0
MTEXT
  5
2A4
330
1F
100
AcDbEntity
  8
AANHAALLIJN
  6
Continuous
 62
    30
370
    18
100
AcDbMText
 10
977.7966125449095
 20
290.631660767709
 30
0.0
 40
12.5
 41
147.6980051127545
 46
0.0
 71
     3
 72
     5
  1
verloren bekisting\P(optioneel)
  7
Trebuchet MS
 73
     1
 44
0.783132530120482
  0
INSERT
  5
2A5
330
1F
100
AcDbEntity
  8
AANHAALLIJN
  6
Continuous
 62
    30
370
    18
100
AcDbBlockReference
  2
NSY154
 10
628.7609588737559
 20
511.387288224325
 30
0.0
 41
1.962533333333333
 42
1.962533333333333
 43
1.962533333333333
  0
INSERT
  5
2A6
330
1F
100
AcDbEntity
  8
AANHAALLIJN
  6
Continuous
 62
    30
370
    18
100
AcDbBlockReference
  2
NSY154
 10
577.7966125449029
 20
508.3032285897059
 30
0.0
 41
1.962533333333333
 42
1.962533333333333
 43
1.962533333333333
  0
INSERT
  5
2A7
330
1F
100
AcDbEntity
  8
AANHAALLIJN
  6
Continuous
 62
    30
370
    18
100
AcDbBlockReference
  2
NSY154
 10
577.7966125449029
 20
508.3032285897059
 30
0.0
 41
1.962533333333333
 42
1.962533333333333
 43
1.962533333333333
  0
LWPOLYLINE
  5
2A8
330
1F
100
AcDbEntity
  8
AANHAALLIJN
  6
Continuous
 62
    30
370
    18
100
AcDbPolyline
 90
        3
 70
     0
 43
0.0
 10
92.79661254492749
 20
611.9032285897047
 10
502.7966125449275
 20
611.9032285897047
 10
577.7966125449029
 20
508.3032285897059
  0
MTEXT
  5
2A9
330
1F
100
AcDbEntity
  8
AANHAALLIJN
  6
Continuous
 62
    30
370
    18
100
AcDbMText
 10
977.7966125449095
 20
390.5862505923148
 30
0.0
 40
12.5
 41
71.87500000000011
 46
0.0
 71
     9
 72
     5
  1
langsnok
  7
Trebuchet MS
 73
     1
 44
1.0
  0
INSERT
  5
2F6
330
1F
100
AcDbEntity
  8
VENTILATIEKOKERS-ROOSTERS
  6
ALL_S17
 62
    30
370
    18
100
AcDbBlockReference
  2
COMPLEXOBJECT_2
 10
0.0
 20
0.0
 30
0.0
  0
MTEXT
  5
2F7
330
1F
100
AcDbEntity
  8
AANHAALLIJN
  6
Continuous
 62
     5
370
    13
100
AcDbMText
 10
76.99999999999635
 20
84.10395476090455
 30
0.0
 40
7.5
 41
113.2343482125849
 46
0.0
 71
     1
 72
     5
  1
*λreken ≤ 0,033W/(m.K)
  7
Trebuchet MS
 73
     1
 44
1.0
  0
LWPOLYLINE
  5
2F8
330
1F
100
AcDbEntity
  8
AANHAALLIJN
  6
Continuous
 62
    30
370
    18
100
AcDbPolyline
 90
        3
 70
     0
 43
0.0
 10
977.7966125449093
 20
386.0029172589814
 10
674.0697031391901
 20
386.0029172589808
 10
628.7609588737559
 20
511.387288224325
  0
LINE
  5
2F9
330
1F
100
AcDbEntity
  8
AFBREEKLIJNEN
  6
STRICHPUNKT2_S5
 62
     7
370
    25
100
AcDbLine
 10
187.7966125449129
 20
156.9032285897065
 30
0.0
 11
807.7966125449165
 21
156.9032285897538
 31
0.0
  0
LWPOLYLINE
  5
2FA
330
1F
100
AcDbEntity
  8
STEENWOL
  6
Continuous
 62
     7
370
    25
100
AcDbPolyline
 90
       10
 70
     0
 43
0.0
 10
577.7966125449163
 20
1176.903228589707
 10
442.7966125449062
 20
1098.960942249102
 10
577.7966125449113
 20
1021.018655908499
 10
442.7966125449041
 20
943.0763695678958
 10
577.7966125449097
 20
865.134083227293
 10
442.7966125449017
 20
787.1917968866889
 10
577.7966125449129
 20
709.2495105460829
 10
443.0274671825084
 20
631.4405081926429
 10
577.7966125449129
 20
553.6315058392029
 10
514.1813702743035
 20
516.9032285897031
  0
LWPOLYLINE
  5
2FB
330
1F
100
AcDbEntity
  8
STEENWOL
  6
Continuous
 62
     7
370
    25
100
AcDbPolyline
 90
        4
 70
     0
 43
0.0
 10
577.7966125449163
 20
1176.903228589707
 10
577.7966125449031
 20
516.9032285897103
 10
442.7966125448979
 20
516.9032285896967
 10
442.7966125449072
 20
1176.903228589705
  0
LWPOLYLINE
  5
2FC
330
1F
100
AcDbEntity
  8
STEENWOL
  6
Continuous
 62
     7
370
    25
100
AcDbPolyline
 90
        4
 70
     0
 43
0.0
 10
577.7966125449163
 20
1176.903228589707
 10
577.7966125449036
 20
516.9032285897099
 10
442.7966125448981
 20
516.9032285896957
 10
442.7966125449074
 20
1176.903228589705
  0
LWPOLYLINE
  5
2FD
330
1F
100
AcDbEntity
  8
AANHAALLIJN
  6
Continuous
 62
    30
370
    18
100
AcDbPolyline
 90
        5
 70
     1
 43
0.0
 10
69.99999999999636
 20
70.0
 10
193.5764735231376
 20
70.0
 10
193.5764735231376
 20
89.99999999999994
 10
69.99999999999636
 20
89.99999999999994
 10
69.99999999999636
 20
70.0
  0
HATCH
  5
2FE
330
1F
100
AcDbEntity
  8
AANHAALLIJN
  6
Continuous
 62
   255
370
    25
100
AcDbHatch
 10
0.0
 20
0.0
 30
0.0
210
0.0
220
0.0
230
1.0
  2
SOLID
 70
     1
 71
     0
 91
        1
 92
        3
 72
     0
 73
     1
 93
        4
 10
193.5764735231377
 20
69.99999999999989
 10
193.5764735231376
 20
89.99999999999991
 10
69.99999999999636
 20
89.99999999999985
 10
69.99999999999636
 20
69.99999999999994
 97
        0
 75
     0
 76
     1
 98
        0
450
        0
451
        0
460
0.0
461
0.0
452
        1
462
0.0
453
        0
470

  0
INSERT
  5
2FF
330
1F
100
AcDbEntity
  8
AANHAALLIJN
  6
Continuous
 62
    30
370
    18
100
AcDbBlockReference
  2
NSY154
 10
497.7966125449129
 20
217.2983274343751
 30
0.0
 41
1.962533333333333
 42
1.962533333333333
 43
1.962533333333333
  0
INSERT
  5
300
330
1F
100
AcDbEntity
  8
AANHAALLIJN
  6
Continuous
 62
    30
370
    18
100
AcDbBlockReference
  2
NSY154
 10
497.7966125449129
 20
217.2983274343751
 30
0.0
 41
1.962533333333333
 42
1.962533333333333
 43
1.962533333333333
  0
LINE
  5
301
330
1F
100
AcDbEntity
  8
AANHAALLIJN
  6
Continuous
 62
    30
370
    18
100
AcDbLine
 10
497.7966125449129
 20
217.2983274343751
 30
0.0
 11
977.7966125449166
 21
217.2983274343751
 31
0.0
  0
MTEXT
  5
302
330
1F
100
AcDbEntity
  8
AANHAALLIJN
  6
Continuous
 62
    30
370
    18
100
AcDbMText
 10
51.50000000000363
 20
1344.249999999991
 30
0.0
 40
17.5
 41
259.6123244201783
 46
0.0
 71
     1
 72
     5
  1
\W1.00;Rockfit\~Premium\~silver\~
  7
ARIAL
 73
     1
 44
1.0
  0
MTEXT
  5
303
330
1F
100
AcDbEntity
  8
AANHAALLIJN
  6
Continuous
 62
    30
100
AcDbMText
 10
967.7966125449165
 20
1190.236561923041
 30
0.0
 40
12.5
 41
223.0827719788
 46
0.0
 71
     3
 72
     5
  1
{\Lwandopbouw}\Pmetselwerk\Pniet-geventileerde\Pluchtspouw (≥ 20 mm)\P{\fArial|b1|i0|c0|p34;Rockfit Premium silver*\P}gestapeld binnenspouwblad
  7
Trebuchet MS
 73
     1
 44
0.783132530120482
  0
MTEXT
  5
304
330
1F
100
AcDbEntity
  8
AANHAALLIJN
  6
Continuous
 62
     5
370
    18
100
AcDbMText
 10
51.5
 20
1282.999999999994
 30
0.0
 40
10.0
 41
710.5647541925109
 46
0.0
 71
     1
 72
     5
  3
{\fArial|i0|b0;\H10.000000;\W1.000000;\C5;Bouwdetail gebaseerd op:     Rc wand ≥ \fArial|i0|b1;4,7 m²·K/W     \fArial|i0|b0;Rc vloer ≥ \fArial|i0|b1;3,7 m²·K/W     \fArial|i0|b0;qv10-waarde\fArial|i0|b1; \fArial|i0|b0;≤ \fArial|i0|b1;0,4 dm³/s per m²
  1
}\P
  7
ARIAL
 73
     1
 44
1.0
  0
MTEXT
  5
305
330
1F
100
AcDbEntity
  8
AANHAALLIJN
  6
Continuous
 62
     5
370
    13
100
AcDbMText
 10
70.00000000000001
 20
43.0
 30
0.0
 40
7.5
 41
440.1289571934895
 46
0.0
 71
     1
 72
     5
  1
\W1.00;ROCKWOOL\~bouwdetails\~ontwikkeld\~door\~Archidat\~Bouwformatie\~-\~bouwdetails.bouwformatie.nl
  7
TAHOMA
 73
     1
 44
1.0
  0
ENDSEC
  0
SECTION
  2
OBJECTS
  0
DICTIONARY
  5
C
330
0
100
AcDbDictionary
281
     1
  3
ACAD_CIP_PREVIOUS_PRODUCT_INFO
350
328
  3
ACAD_COLOR
350
317
  3
ACAD_DETAILVIEWSTYLE
350
31C
  3
ACAD_GROUP
350
D
  3
ACAD_LAYOUT
350
1A
  3
ACAD_MATERIAL
350
3B
  3
ACAD_MLEADERSTYLE
350
30B
  3
ACAD_MLINESTYLE
350
17
  3
ACAD_PLOTSETTINGS
350
19
  3
ACAD_PLOTSTYLENAME
350
E
  3
ACAD_SCALELIST
350
76
  3
ACAD_SECTIONVIEWSTYLE
350
31A
  3
ACAD_TABLESTYLE
350
30A
  3
ACAD_VISUALSTYLE
350
2A
  3
ACDB_RECOMPOSE_DATA
350
698
  3
AcDbVariableDictionary
350
308
  3
AcDsDecomposeData
350
69E
  0
DICTIONARY
  5
32C
330
2
100
AcDbDictionary
280
     1
281
     1
  3
ACAD_LAYERSTATES
360
32D
  0
DICTIONARY
  5
306
330
1F
100
AcDbDictionary
280
     1
281
     1
  3
ACAD_SORTENTS
360
307
  0
DICTIONARY
  5
567
330
102
100
AcDbDictionary
280
     1
281
     1
  0
DICTIONARY
  5
553
330
1CE
100
AcDbDictionary
280
     1
281
     1
  0
XRECORD
  5
328
102
{ACAD_REACTORS
330
C
102
}
330
C
100
AcDbXrecord
280
     1
300
ACDLT
300
2020
300

  0
DICTIONARY
  5
317
102
{ACAD_REACTORS
330
C
102
}
330
C
100
AcDbDictionary
281
     1
  0
DICTIONARY
  5
31C
102
{ACAD_REACTORS
330
C
102
}
330
C
100
AcDbDictionary
281
     1
  3
Metric50
350
31D
  0
DICTIONARY
  5
D
102
{ACAD_REACTORS
330
C
102
}
330
C
100
AcDbDictionary
281
     1
  0
DICTIONARY
  5
1A
102
{ACAD_REACTORS
330
C
102
}
330
C
100
AcDbDictionary
281
     1
  3
Layout1
350
1E
  3
Layout2
350
26
  3
Model
350
22
  0
DICTIONARY
  5
3B
102
{ACAD_REACTORS
330
C
102
}
330
C
100
AcDbDictionary
281
     1
  3
ByBlock
350
3D
  3
ByLayer
350
3C
  3
Global
350
3E
  0
DICTIONARY
  5
30B
102
{ACAD_REACTORS
330
C
102
}
330
C
100
AcDbDictionary
281
     1
  3
Standard
350
319
  0
DICTIONARY
  5
17
102
{ACAD_REACTORS
330
C
102
}
330
C
100
AcDbDictionary
281
     1
  3
Standard
350
18
  0
DICTIONARY
  5
19
102
{ACAD_REACTORS
330
C
102
}
330
C
100
AcDbDictionary
281
     1
  0
ACDBDICTIONARYWDFLT
  5
E
102
{ACAD_REACTORS
330
C
102
}
330
C
100
AcDbDictionary
281
     1
  3
Normal
350
F
100
AcDbDictionaryWithDefault
340
F
  0
DICTIONARY
  5
76
102
{ACAD_REACTORS
330
C
102
}
330
C
100
AcDbDictionary
281
     1
  3
A0
350
77
  3
A1
350
78
  3
A2
350
79
  3
A3
350
7A
  3
A4
350
7B
  3
A5
350
7C
  3
A6
350
7D
  3
A7
350
7E
  3
A8
350
7F
  3
A9
350
80
  3
B0
350
81
  3
B1
350
82
  3
B2
350
83
  3
B3
350
84
  3
B4
350
85
  3
B5
350
86
  3
B6
350
87
  3
B7
350
88
  3
B8
350
89
  3
B9
350
8A
  3
C0
350
8B
  3
C1
350
8C
  3
C2
350
8D
  3
C3
350
8E
  3
C4
350
8F
  3
C5
350
90
  3
C6
350
91
  3
C7
350
92
  3
C8
350
93
  3
C9
350
94
  3
D0
350
95
  3
D1
350
96
  3
D2
350
97
  0
DICTIONARY
  5
31A
102
{ACAD_REACTORS
330
C
102
}
330
C
100
AcDbDictionary
281
     1
  3
Metric50
350
31B
  0
DICTIONARY
  5
30A
102
{ACAD_REACTORS
330
C
102
}
330
C
100
AcDbDictionary
281
     1
  3
Standard
350
318
  0
DICTIONARY
  5
2A
102
{ACAD_REACTORS
330
C
102
}
330
C
100
AcDbDictionary
281
     1
  3
2dWireframe
350
2F
  3
3D Hidden
350
31
  3
3dWireframe
350
30
  3
Basic
350
32
  3
Brighten
350
36
  3
ColorChange
350
3A
  3
Conceptual
350
34
  3
Dim
350
35
  3
EdgeColorOff
350
316
  3
Facepattern
350
39
  3
Flat
350
2B
  3
FlatWithEdges
350
2C
  3
Gouraud
350
2D
  3
GouraudWithEdges
350
2E
  3
Hidden
350
30E
  3
JitterOff
350
314
  3
Linepattern
350
38
  3
OverhangOff
350
315
  3
Realistic
350
33
  3
Shaded
350
313
  3
Shaded with edges
350
312
  3
Shades of Gray
350
30F
  3
Sketchy
350
310
  3
Thicken
350
37
  3
Wireframe
350
30D
  3
X-Ray
350
311
  0
XRECORD
  5
698
102
{ACAD_REACTORS
330
C
102
}
330
C
100
AcDbXrecord
280
     1
 90
        1
330
318
  0
DICTIONARY
  5
308
102
{ACAD_REACTORS
330
C
102
}
330
C
100
AcDbDictionary
281
     1
  3
CANNOSCALE
350
309
  3
CMLEADERSTYLE
350
647
  3
CTABLESTYLE
350
646
  3
CVIEWDETAILSTYLE
350
648
  3
CVIEWSECTIONSTYLE
350
649
  0
DICTIONARY
  5
69E
102
{ACAD_REACTORS
330
C
102
}
330
C
100
AcDbDictionary
281
     1
  3
AcDsRecords
350
6A0
  3
AcDsSchemas
350
69F
1001
ACAD
1070
     2
  0
DICTIONARY
  5
32D
102
{ACAD_REACTORS
330
32C
102
}
330
32C
100
AcDbDictionary
281
     1
  0
SORTENTSTABLE
  5
307
102
{ACAD_REACTORS
330
306
102
}
330
306
100
AcDbSortentsTable
330
1F
331
71
  5
CB
331
72
  5
CC
331
73
  5
CD
331
74
  5
CE
331
75
  5
CF
331
99
  5
D1
331
9B
  5
D2
331
9C
  5
71
331
9D
  5
D3
331
9E
  5
D4
331
9F
  5
D5
331
A0
  5
D6
331
A1
  5
72
331
A2
  5
D7
331
A3
  5
D8
331
A4
  5
D9
331
A5
  5
DA
331
A6
  5
DB
331
A7
  5
73
331
A8
  5
DC
331
A9
  5
DD
331
AA
  5
DE
331
AB
  5
DF
331
AC
  5
E0
331
AD
  5
E1
331
AE
  5
74
331
AF
  5
E2
331
B0
  5
E3
331
B1
  5
E4
331
B2
  5
E5
331
B4
  5
E7
331
B6
  5
E9
331
B9
  5
EC
331
BA
  5
75
331
BB
  5
ED
331
C9
  5
EF
331
CA
  5
F0
331
CB
  5
F1
331
CC
  5
F2
331
CD
  5
98
331
CE
  5
F3
331
CF
  5
99
331
D0
  5
F4
331
D1
  5
F5
331
D2
  5
F6
331
D3
  5
F7
331
D4
  5
F8
331
D6
  5
FA
331
D8
  5
FC
331
DC
  5
100
331
DD
  5
101
331
DE
  5
10E
331
DF
  5
10F
331
E0
  5
110
331
E1
  5
9B
331
E2
  5
111
331
E3
  5
112
331
E4
  5
113
331
E5
  5
114
331
E6
  5
9C
331
E7
  5
115
331
E8
  5
116
331
E9
  5
117
331
EA
  5
118
331
EB
  5
119
331
EC
  5
9D
331
ED
  5
11A
331
EE
  5
11B
331
EF
  5
11C
331
F0
  5
11D
331
F1
  5
11E
331
F2
  5
11F
331
F3
  5
9E
331
F4
  5
120
331
F5
  5
121
331
F6
  5
122
331
F7
  5
123
331
F8
  5
124
331
F9
  5
125
331
FA
  5
126
331
FB
  5
127
331
FC
  5
128
331
FD
  5
129
331
FE
  5
12A
331
FF
  5
12B
331
100
  5
9F
331
101
  5
12C
331
10E
  5
12D
331
10F
  5
14D
331
110
  5
14E
331
111
  5
14F
331
112
  5
150
331
113
  5
A0
331
114
  5
151
331
115
  5
A1
331
116
  5
152
331
117
  5
153
331
118
  5
154
331
119
  5
155
331
11A
  5
156
331
11B
  5
157
331
11C
  5
158
331
11E
  5
15A
331
11F
  5
15B
331
120
  5
15C
331
121
  5
15D
331
122
  5
15E
331
123
  5
15F
331
124
  5
160
331
125
  5
161
331
128
  5
164
331
129
  5
165
331
12A
  5
166
331
12B
  5
167
331
12C
  5
168
331
12D
  5
169
331
14D
  5
16A
331
14E
  5
16B
331
14F
  5
16C
331
150
  5
16D
331
151
  5
16E
331
152
  5
A2
331
153
  5
16F
331
154
  5
170
331
155
  5
171
331
156
  5
A3
331
157
  5
172
331
158
  5
173
331
159
  5
174
331
15A
  5
175
331
15B
  5
176
331
15C
  5
177
331
15D
  5
178
331
15E
  5
179
331
15F
  5
17A
331
160
  5
17B
331
161
  5
17C
331
162
  5
17D
331
163
  5
A4
331
164
  5
A5
331
165
  5
A6
331
166
  5
17E
331
167
  5
17F
331
168
  5
A7
331
169
  5
180
331
16A
  5
181
331
16B
  5
A8
331
16C
  5
182
331
16D
  5
183
331
16E
  5
A9
331
16F
  5
184
331
170
  5
185
331
171
  5
186
331
172
  5
187
331
173
  5
AA
331
174
  5
188
331
175
  5
189
331
176
  5
AB
331
177
  5
18A
331
178
  5
AC
331
179
  5
18B
331
17A
  5
18C
331
17B
  5
AD
331
17C
  5
18D
331
17D
  5
18E
331
17E
  5
18F
331
17F
  5
190
331
180
  5
191
331
181
  5
192
331
182
  5
193
331
183
  5
194
331
184
  5
195
331
185
  5
196
331
186
  5
197
331
187
  5
AE
331
188
  5
AF
331
189
  5
B0
331
18A
  5
198
331
18B
  5
199
331
18C
  5
B1
331
18D
  5
19A
331
18E
  5
19B
331
18F
  5
B2
331
190
  5
19C
331
191
  5
19D
331
192
  5
B3
331
193
  5
19E
331
194
  5
19F
331
195
  5
1A0
331
196
  5
1A1
331
197
  5
B4
331
198
  5
1A2
331
199
  5
1A3
331
19A
  5
B5
331
19B
  5
1A4
331
19C
  5
B6
331
19D
  5
1A5
331
19E
  5
1B8
331
19F
  5
B7
331
1A0
  5
1B9
331
1A1
  5
1BA
331
1A2
  5
1BB
331
1A3
  5
1BC
331
1A4
  5
1BD
331
1A5
  5
1CA
331
1B8
  5
1CB
331
1B9
  5
1CC
331
1BA
  5
1CD
331
1BB
  5
1DA
331
1BC
  5
1DB
331
1BD
  5
1DC
331
1CB
  5
1DE
331
1CC
  5
1DF
331
1CD
  5
B8
331
1DA
  5
1E0
331
1DB
  5
1E1
331
1DC
  5
1E2
331
1DD
  5
B9
331
1DE
  5
1EE
331
1DF
  5
1F9
331
1E0
  5
205
331
1E1
  5
206
331
1E2
  5
BA
331
1EE
  5
207
331
1F9
  5
208
331
205
  5
209
331
206
  5
214
331
207
  5
21F
331
208
  5
22B
331
209
  5
BB
331
214
  5
22C
331
21F
  5
22D
331
22B
  5
238
331
22C
  5
239
331
22D
  5
23A
331
238
  5
245
331
239
  5
C8
331
23A
  5
246
331
245
  5
247
331
246
  5
C9
331
247
  5
252
331
252
  5
25D
331
25D
  5
268
331
268
  5
273
331
273
  5
294
331
294
  5
295
331
295
  5
296
331
296
  5
297
331
297
  5
298
331
298
  5
299
331
299
  5
29A
331
29A
  5
29B
331
29B
  5
29C
331
29C
  5
29D
331
29D
  5
29E
331
29E
  5
29F
331
29F
  5
2A0
331
2A0
  5
2A1
331
2A1
  5
2A2
331
2A2
  5
2A3
331
2A4
  5
2A5
331
2A5
  5
2A6
331
2A6
  5
2A7
331
2A7
  5
2A8
331
2A8
  5
2A9
331
2A9
  5
2F6
331
2F6
  5
2F7
331
2F7
  5
2F8
331
2F8
  5
2F9
331
2F9
  5
2FA
331
2FA
  5
2FB
331
2FB
  5
2FC
331
2FC
  5
2FD
331
2FD
  5
2FE
331
2FE
  5
CA
  0
ACDBDETAILVIEWSTYLE
  5
31D
102
{ACAD_XDICTIONARY
360
6D9
102
}
102
{ACAD_REACTORS
330
31C
102
}
330
31C
100
AcDbModelDocViewStyle
 70
     0
  3
Metric50
290
     0
100
AcDbDetailViewStyle
 70
     0
 71
     0
 90
        3
 71
     1
340
11
 62
   256
 40
5.0
340
0
 62
   256
 40
5.0
300

 40
0.0
280
     1
 71
     2
340
16
 90
       25
 62
   256
 71
     3
340
11
 62
   256
 40
5.0
 90
        0
 40
15.0
 90
        1
300
%<\AcVar ViewDetailId>% (%<\AcVar ViewScale \f "%sn">%)
 71
     4
340
16
 90
       25
 62
   256
340
16
 90
       25
 62
   256
280
     0
  0
LAYOUT
  5
1E
102
{ACAD_REACTORS
330
1A
102
}
330
1A
100
AcDbPlotSettings
  1

  2
none_device
  4
none_user_media
  6

 40
6.349999999999999
 41
19.05
 42
6.349974599999999
 43
19.0499873
 44
1500.0
 45
1065.0
 46
7.5
 47
7.5
 48
0.0
 49
0.0
140
0.0
141
0.0
142
1.0
143
1.0
 70
   688
 72
     1
 73
     0
 74
     5
  7

 75
    16
147
1.0
 76
     0
 77
     2
 78
   300
148
0.0
149
0.0
100
AcDbLayout
  1
Layout1
 70
     1
 71
     1
 10
0.0
 20
0.0
 11
12.0
 21
9.0
 12
0.0
 22
0.0
 32
0.0
 14
1.000000000000000E+20
 24
1.000000000000000E+20
 34
1.000000000000000E+20
 15
-1.000000000000000E+20
 25
-1.000000000000000E+20
 35
-1.000000000000000E+20
146
0.0
 13
0.0
 23
0.0
 33
0.0
 16
1.0
 26
0.0
 36
0.0
 17
0.0
 27
1.0
 37
0.0
 76
     0
330
1B
  0
LAYOUT
  5
26
102
{ACAD_REACTORS
330
1A
102
}
330
1A
100
AcDbPlotSettings
  1

  2
none_device
  4

  6

 40
0.0
 41
0.0
 42
0.0
 43
0.0
 44
0.0
 45
0.0
 46
0.0
 47
0.0
 48
0.0
 49
0.0
140
0.0
141
0.0
142
1.0
143
1.0
 70
   688
 72
     0
 73
     0
 74
     5
  7

 75
    16
147
1.0
 76
     0
 77
     2
 78
   300
148
0.0
149
0.0
100
AcDbLayout
  1
Layout2
 70
     1
 71
     2
 10
0.0
 20
0.0
 11
0.0
 21
0.0
 12
0.0
 22
0.0
 32
0.0
 14
0.0
 24
0.0
 34
0.0
 15
0.0
 25
0.0
 35
0.0
146
0.0
 13
0.0
 23
0.0
 33
0.0
 16
1.0
 26
0.0
 36
0.0
 17
0.0
 27
1.0
 37
0.0
 76
     0
330
23
  0
LAYOUT
  5
22
102
{ACAD_REACTORS
330
1A
102
}
330
1A
100
AcDbPlotSettings
  1

  2
none_device
  4

  6

 40
0.0
 41
0.0
 42
0.0
 43
0.0
 44
0.0
 45
0.0
 46
0.0
 47
0.0
 48
0.0
 49
0.0
140
0.0
141
0.0
142
1.0
143
1.0
 70
  1712
 72
     0
 73
     0
 74
     0
  7

 75
     0
147
1.0
 76
     0
 77
     2
 78
   300
148
0.0
149
0.0
100
AcDbLayout
  1
Model
 70
     1
 71
     0
 10
0.0
 20
0.0
 11
1050.0
 21
1485.0
 12
0.0
 22
0.0
 32
0.0
 14
0.0
 24
0.0
 34
0.0
 15
1050.0
 25
1485.0
 35
1050.0
146
0.0
 13
0.0
 23
0.0
 33
0.0
 16
1.0
 26
0.0
 36
0.0
 17
0.0
 27
1.0
 37
0.0
 76
     0
330
1F
331
29
  0
MATERIAL
  5
3D
102
{ACAD_REACTORS
330
3B
102
}
330
3B
100
AcDbMaterial
  1
ByBlock
 73
     1
 78
     1
172
     1
176
     1
270
     1
274
     1
  0
MATERIAL
  5
3C
102
{ACAD_REACTORS
330
3B
102
}
330
3B
100
AcDbMaterial
  1
ByLayer
 73
     1
 78
     1
172
     1
176
     1
270
     1
274
     1
  0
MATERIAL
  5
3E
102
{ACAD_REACTORS
330
3B
102
}
330
3B
100
AcDbMaterial
  1
Global
 73
     1
 78
     1
172
     1
176
     1
270
     1
274
     1
  0
MLEADERSTYLE
  5
319
102
{ACAD_XDICTIONARY
360
6D5
102
}
102
{ACAD_REACTORS
330
30B
102
}
330
30B
100
AcDbMLeaderStyle
179
     2
170
     2
171
     1
172
     0
 90
        2
 40
0.0
 41
0.0
173
     1
 91
-1056964608
340
14
 92
       -2
290
     1
 42
2.0
291
     1
 43
0.36
  3
Standard
 44
4.0
300

342
11
174
     1
178
     6
175
     1
176
     0
 93
-1056964608
 45
4.0
292
     0
297
     0
 46
4.0
 94
-1056964608
 47
1.0
 49
1.0
140
1.0
293
     1
141
0.0
294
     1
177
     0
142
1.0
295
     0
296
     0
143
0.125
271
     0
272
     9
273
     9
  0
MLINESTYLE
  5
18
102
{ACAD_REACTORS
330
17
102
}
330
17
100
AcDbMlineStyle
  2
STANDARD
 70
     0
  3

 62
   256
 51
90.0
 52
90.0
 71
     2
 49
0.5
 62
   256
  6
BYLAYER
 49
-0.5
 62
   256
  6
BYLAYER
  0
ACDBPLACEHOLDER
  5
F
102
{ACAD_REACTORS
330
E
102
}
330
E
  0
SCALE
  5
77
102
{ACAD_REACTORS
330
76
102
}
330
76
100
AcDbScale
 70
     0
300
1:1
140
1.0
141
1.0
290
     1
  0
SCALE
  5
78
102
{ACAD_REACTORS
330
76
102
}
330
76
100
AcDbScale
 70
     0
300
1:2
140
1.0
141
2.0
290
     0
  0
SCALE
  5
79
102
{ACAD_REACTORS
330
76
102
}
330
76
100
AcDbScale
 70
     0
300
1:4
140
1.0
141
4.0
290
     0
  0
SCALE
  5
7A
102
{ACAD_REACTORS
330
76
102
}
330
76
100
AcDbScale
 70
     0
300
1:5
140
1.0
141
5.0
290
     0
  0
SCALE
  5
7B
102
{ACAD_REACTORS
330
76
102
}
330
76
100
AcDbScale
 70
     0
300
1:8
140
1.0
141
8.0
290
     0
  0
SCALE
  5
7C
102
{ACAD_REACTORS
330
76
102
}
330
76
100
AcDbScale
 70
     0
300
1:10
140
1.0
141
10.0
290
     0
  0
SCALE
  5
7D
102
{ACAD_REACTORS
330
76
102
}
330
76
100
AcDbScale
 70
     0
300
1:16
140
1.0
141
16.0
290
     0
  0
SCALE
  5
7E
102
{ACAD_REACTORS
330
76
102
}
330
76
100
AcDbScale
 70
     0
300
1:20
140
1.0
141
20.0
290
     0
  0
SCALE
  5
7F
102
{ACAD_REACTORS
330
76
102
}
330
76
100
AcDbScale
 70
     0
300
1:30
140
1.0
141
30.0
290
     0
  0
SCALE
  5
80
102
{ACAD_REACTORS
330
76
102
}
330
76
100
AcDbScale
 70
     0
300
1:40
140
1.0
141
40.0
290
     0
  0
SCALE
  5
81
102
{ACAD_REACTORS
330
76
102
}
330
76
100
AcDbScale
 70
     0
300
1:50
140
1.0
141
50.0
290
     0
  0
SCALE
  5
82
102
{ACAD_REACTORS
330
76
102
}
330
76
100
AcDbScale
 70
     0
300
1:100
140
1.0
141
100.0
290
     0
  0
SCALE
  5
83
102
{ACAD_REACTORS
330
76
102
}
330
76
100
AcDbScale
 70
     0
300
2:1
140
2.0
141
1.0
290
     0
  0
SCALE
  5
84
102
{ACAD_REACTORS
330
76
102
}
330
76
100
AcDbScale
 70
     0
300
4:1
140
4.0
141
1.0
290
     0
  0
SCALE
  5
85
102
{ACAD_REACTORS
330
76
102
}
330
76
100
AcDbScale
 70
     0
300
8:1
140
8.0
141
1.0
290
     0
  0
SCALE
  5
86
102
{ACAD_REACTORS
330
76
102
}
330
76
100
AcDbScale
 70
     0
300
10:1
140
10.0
141
1.0
290
     0
  0
SCALE
  5
87
102
{ACAD_REACTORS
330
76
102
}
330
76
100
AcDbScale
 70
     0
300
100:1
140
100.0
141
1.0
290
     0
  0
SCALE
  5
88
102
{ACAD_REACTORS
330
76
102
}
330
76
100
AcDbScale
 70
     0
300
1/128" = 1'-0"
140
0.0078125
141
12.0
290
     0
  0
SCALE
  5
89
102
{ACAD_REACTORS
330
76
102
}
330
76
100
AcDbScale
 70
     0
300
1/64" = 1'-0"
140
0.015625
141
12.0
290
     0
  0
SCALE
  5
8A
102
{ACAD_REACTORS
330
76
102
}
330
76
100
AcDbScale
 70
     0
300
1/32" = 1'-0"
140
0.03125
141
12.0
290
     0
  0
SCALE
  5
8B
102
{ACAD_REACTORS
330
76
102
}
330
76
100
AcDbScale
 70
     0
300
1/16" = 1'-0"
140
0.0625
141
12.0
290
     0
  0
SCALE
  5
8C
102
{ACAD_REACTORS
330
76
102
}
330
76
100
AcDbScale
 70
     0
300
3/32" = 1'-0"
140
0.09375
141
12.0
290
     0
  0
SCALE
  5
8D
102
{ACAD_REACTORS
330
76
102
}
330
76
100
AcDbScale
 70
     0
300
1/8" = 1'-0"
140
0.125
141
12.0
290
     0
  0
SCALE
  5
8E
102
{ACAD_REACTORS
330
76
102
}
330
76
100
AcDbScale
 70
     0
300
3/16" = 1'-0"
140
0.1875
141
12.0
290
     0
  0
SCALE
  5
8F
102
{ACAD_REACTORS
330
76
102
}
330
76
100
AcDbScale
 70
     0
300
1/4" = 1'-0"
140
0.25
141
12.0
290
     0
  0
SCALE
  5
90
102
{ACAD_REACTORS
330
76
102
}
330
76
100
AcDbScale
 70
     0
300
3/8" = 1'-0"
140
0.375
141
12.0
290
     0
  0
SCALE
  5
91
102
{ACAD_REACTORS
330
76
102
}
330
76
100
AcDbScale
 70
     0
300
1/2" = 1'-0"
140
0.5
141
12.0
290
     0
  0
SCALE
  5
92
102
{ACAD_REACTORS
330
76
102
}
330
76
100
AcDbScale
 70
     0
300
3/4" = 1'-0"
140
0.75
141
12.0
290
     0
  0
SCALE
  5
93
102
{ACAD_REACTORS
330
76
102
}
330
76
100
AcDbScale
 70
     0
300
1" = 1'-0"
140
1.0
141
12.0
290
     0
  0
SCALE
  5
94
102
{ACAD_REACTORS
330
76
102
}
330
76
100
AcDbScale
 70
     0
300
1-1/2" = 1'-0"
140
1.5
141
12.0
290
     0
  0
SCALE
  5
95
102
{ACAD_REACTORS
330
76
102
}
330
76
100
AcDbScale
 70
     0
300
3" = 1'-0"
140
3.0
141
12.0
290
     0
  0
SCALE
  5
96
102
{ACAD_REACTORS
330
76
102
}
330
76
100
AcDbScale
 70
     0
300
6" = 1'-0"
140
6.0
141
12.0
290
     0
  0
SCALE
  5
97
102
{ACAD_REACTORS
330
76
102
}
330
76
100
AcDbScale
 70
     0
300
1'-0" = 1'-0"
140
12.0
141
12.0
290
     0
  0
ACDBSECTIONVIEWSTYLE
  5
31B
102
{ACAD_XDICTIONARY
360
6D7
102
}
102
{ACAD_REACTORS
330
31A
102
}
330
31A
100
AcDbModelDocViewStyle
 70
     0
  3
Metric50
290
     0
100
AcDbSectionViewStyle
 70
     0
 71
     0
 90
      102
 71
     1
340
11
 62
   256
 40
5.0
340
0
340
0
 62
   256
 40
5.0
300
I, O, Q, S, X, Z
 40
10.0
 90
        0
 40
2.5
 90
        0
 71
     2
340
16
 90
       25
 62
   256
340
16
 90
       50
 62
   256
 40
5.0
 40
2.5
 40
5.0
 71
     3
340
11
 62
   256
 40
5.0
 90
        0
 40
15.0
 90
        1
300
%<\AcVar ViewSectionStartId>%-%<\AcVar ViewSectionEndId>% (%<\AcVar ViewScale \f "%sn">%)
 71
     4
 62
   256
 62
   257
300
ANSI31
 40
1.0
 90
        0
290
     0
290
     0
 90
        6
 40
0.0
 40
1.570796326794896
 40
0.2617993877991494
 40
1.308996938995747
 40
-0.2617993877991494
 40
1.832595714594046
  0
TABLESTYLE
  5
318
102
{ACAD_XDICTIONARY
360
696
102
}
102
{ACAD_REACTORS
330
30A
102
}
330
30A
100
AcDbTableStyle
280
     0
  3
Standard
 70
     0
 71
     0
 40
1.5
 41
1.5
280
     0
281
     0
  7
Standard
140
4.5
170
     2
 62
     0
 63
     7
283
     0
 90
      512
 91
        0
  1

274
    -2
284
     1
 64
     0
275
    -2
285
     1
 65
     0
276
    -2
286
     1
 66
     0
277
    -2
287
     1
 67
     0
278
    -2
288
     1
 68
     0
279
    -2
289
     1
 69
     0
  7
Standard
140
6.0
170
     5
 62
     0
 63
     7
283
     0
 90
      512
 91
        0
  1

274
    -2
284
     1
 64
     0
275
    -2
285
     1
 65
     0
276
    -2
286
     1
 66
     0
277
    -2
287
     1
 67
     0
278
    -2
288
     1
 68
     0
279
    -2
289
     1
 69
     0
  7
Standard
140
4.5
170
     5
 62
     0
 63
     7
283
     0
 90
      512
 91
        0
  1

274
    -2
284
     1
 64
     0
275
    -2
285
     1
 65
     0
276
    -2
286
     1
 66
     0
277
    -2
287
     1
 67
     0
278
    -2
288
     1
 68
     0
279
    -2
289
     1
 69
     0
  0
VISUALSTYLE
  5
2F
102
{ACAD_XDICTIONARY
360
6A9
102
}
102
{ACAD_REACTORS
330
2A
102
}
330
2A
100
AcDbVisualStyle
  2
2dWireframe
 70
     4
177
     2
291
     0
 71
     0
176
     1
 72
     2
176
     1
 73
     0
176
     1
 90
        0
176
     1
 40
0.6
176
     1
 41
30.0
176
     1
 63
     7
421
 16777215
176
     1
 74
     1
176
     1
 91
        4
176
     1
 64
     7
176
     1
 65
   257
176
     1
 75
     1
176
     1
175
     1
176
     1
 42
1.0
176
     1
 92
        0
176
     1
 66
   257
176
     1
 43
1.0
176
     1
 76
     1
176
     1
 77
     6
176
     1
 78
     2
176
     1
 67
     7
176
     1
 79
     5
176
     1
170
     0
176
     1
171
     0
176
     1
290
     0
176
     1
 93
        1
176
     1
 44
0.0
176
     1
173
     0
176
     1
1001
ACAD
1000
AcDbSavedByObjectVersion
1070
     0
  0
VISUALSTYLE
  5
31
102
{ACAD_XDICTIONARY
360
6AD
102
}
102
{ACAD_REACTORS
330
2A
102
}
330
2A
100
AcDbVisualStyle
  2
3D Hidden
 70
     6
177
     2
291
     0
 71
     1
176
     1
 72
     2
176
     1
 73
     2
176
     1
 90
        0
176
     1
 40
0.6
176
     1
 41
30.0
176
     1
 63
     7
421
 16777215
176
     1
 74
     2
176
     1
 91
        2
176
     1
 64
     7
176
     1
 65
   257
176
     1
 75
     2
176
     1
175
     1
176
     1
 42
40.0
176
     1
 92
        0
176
     1
 66
   257
176
     1
 43
1.0
176
     1
 76
     1
176
     1
 77
     6
176
     1
 78
     2
176
     1
 67
     7
176
     1
 79
     3
176
     1
170
     0
176
     1
171
     0
176
     1
290
     0
176
     1
 93
        1
176
     1
 44
0.0
176
     1
173
     0
176
     1
1001
ACAD
1000
AcDbSavedByObjectVersion
1070
     0
  0
VISUALSTYLE
  5
30
102
{ACAD_XDICTIONARY
360
6AB
102
}
102
{ACAD_REACTORS
330
2A
102
}
330
2A
100
AcDbVisualStyle
  2
3dWireframe
 70
     5
177
     2
291
     0
 71
     0
176
     1
 72
     2
176
     1
 73
     0
176
     1
 90
        0
176
     1
 40
0.6
176
     1
 41
30.0
176
     1
 63
     7
421
 16777215
176
     1
 74
     1
176
     1
 91
        4
176
     1
 64
     7
176
     1
 65
   257
176
     1
 75
     1
176
     1
175
     1
176
     1
 42
1.0
176
     1
 92
        0
176
     1
 66
   257
176
     1
 43
1.0
176
     1
 76
     1
176
     1
 77
     6
176
     1
 78
     2
176
     1
 67
     7
176
     1
 79
     5
176
     1
170
     0
176
     1
171
     0
176
     1
290
     0
176
     1
 93
        1
176
     1
 44
0.0
176
     1
173
     0
176
     1
1001
ACAD
1000
AcDbSavedByObjectVersion
1070
     0
  0
VISUALSTYLE
  5
32
102
{ACAD_XDICTIONARY
360
6AF
102
}
102
{ACAD_REACTORS
330
2A
102
}
330
2A
100
AcDbVisualStyle
  2
Basic
 70
     7
177
     2
291
     1
 71
     1
176
     1
 72
     0
176
     1
 73
     1
176
     1
 90
        0
176
     1
 40
0.6
176
     1
 41
30.0
176
     1
 63
     7
421
 16777215
176
     1
 74
     0
176
     1
 91
        4
176
     1
 64
     7
176
     1
 65
   257
176
     1
 75
     1
176
     1
175
     1
176
     1
 42
1.0
176
     1
 92
        8
176
     1
 66
     7
176
     1
 43
1.0
176
     1
 76
     1
176
     1
 77
     6
176
     1
 78
     2
176
     1
 67
     7
176
     1
 79
     5
176
     1
170
     0
176
     1
171
     0
176
     1
290
     0
176
     1
 93
        1
176
     1
 44
0.0
176
     1
173
     0
176
     1
1001
ACAD
1000
AcDbSavedByObjectVersion
1070
     0
  0
VISUALSTYLE
  5
36
102
{ACAD_XDICTIONARY
360
6B7
102
}
102
{ACAD_REACTORS
330
2A
102
}
330
2A
100
AcDbVisualStyle
  2
Brighten
 70
    12
177
     2
291
     1
 71
     2
176
     1
 72
     2
176
     1
 73
     0
176
     1
 90
        0
176
     1
 40
0.6
176
     1
 41
30.0
176
     1
 63
     7
421
 16777215
176
     1
 74
     1
176
     1
 91
        4
176
     1
 64
     7
176
     1
 65
   257
176
     1
 75
     1
176
     1
175
     1
176
     1
 42
1.0
176
     1
 92
        8
176
     1
 66
     7
176
     1
 43
1.0
176
     1
 76
     1
176
     1
 77
     6
176
     1
 78
     2
176
     1
 67
     7
176
     1
 79
     5
176
     1
170
     0
176
     1
171
     0
176
     1
290
     0
176
     1
 93
        1
176
     1
 44
50.0
176
     1
173
     0
176
     1
1001
ACAD
1000
AcDbSavedByObjectVersion
1070
     0
  0
VISUALSTYLE
  5
3A
102
{ACAD_XDICTIONARY
360
6BF
102
}
102
{ACAD_REACTORS
330
2A
102
}
330
2A
100
AcDbVisualStyle
  2
ColorChange
 70
    16
177
     2
291
     1
 71
     2
176
     1
 72
     2
176
     1
 73
     3
176
     1
 90
        0
176
     1
 40
0.6
176
     1
 41
30.0
176
     1
 63
     8
421
  8421504
176
     1
 74
     1
176
     1
 91
        4
176
     1
 64
     7
176
     1
 65
   257
176
     1
 75
     1
176
     1
175
     1
176
     1
 42
1.0
176
     1
 92
        8
176
     1
 66
     8
424
  8421504
176
     1
 43
1.0
176
     1
 76
     1
176
     1
 77
     6
176
     1
 78
     2
176
     1
 67
     7
176
     1
 79
     5
176
     1
170
     0
176
     1
171
     0
176
     1
290
     0
176
     1
 93
        1
176
     1
 44
0.0
176
     1
173
     0
176
     1
1001
ACAD
1000
AcDbSavedByObjectVersion
1070
     0
  0
VISUALSTYLE
  5
34
102
{ACAD_XDICTIONARY
360
6B3
102
}
102
{ACAD_REACTORS
330
2A
102
}
330
2A
100
AcDbVisualStyle
  2
Conceptual
 70
     9
177
     2
291
     0
 71
     3
176
     1
 72
     2
176
     1
 73
     0
176
     1
 90
        0
176
     1
 40
0.6
176
     1
 41
30.0
176
     1
 63
     7
421
 16777215
176
     1
 74
     2
176
     1
 91
        2
176
     1
 64
     7
176
     1
 65
   257
176
     1
 75
     1
176
     1
175
     1
176
     1
 42
40.0
176
     1
 92
        8
176
     1
 66
     7
176
     1
 43
1.0
176
     1
 76
     1
176
     1
 77
     6
176
     1
 78
     2
176
     1
 67
     7
176
     1
 79
     3
176
     1
170
     0
176
     1
171
     0
176
     1
290
     0
176
     1
 93
        1
176
     1
 44
0.0
176
     1
173
     0
176
     1
1001
ACAD
1000
AcDbSavedByObjectVersion
1070
     0
  0
VISUALSTYLE
  5
35
102
{ACAD_XDICTIONARY
360
6B5
102
}
102
{ACAD_REACTORS
330
2A
102
}
330
2A
100
AcDbVisualStyle
  2
Dim
 70
    11
177
     2
291
     1
 71
     2
176
     1
 72
     2
176
     1
 73
     0
176
     1
 90
        0
176
     1
 40
0.6
176
     1
 41
30.0
176
     1
 63
     7
421
 16777215
176
     1
 74
     1
176
     1
 91
        4
176
     1
 64
     7
176
     1
 65
   257
176
     1
 75
     1
176
     1
175
     1
176
     1
 42
1.0
176
     1
 92
        8
176
     1
 66
     7
176
     1
 43
1.0
176
     1
 76
     1
176
     1
 77
     6
176
     1
 78
     2
176
     1
 67
     7
176
     1
 79
     5
176
     1
170
     0
176
     1
171
     0
176
     1
290
     0
176
     1
 93
        1
176
     1
 44
-50.0
176
     1
173
     0
176
     1
1001
ACAD
1000
AcDbSavedByObjectVersion
1070
     0
  0
VISUALSTYLE
  5
316
102
{ACAD_XDICTIONARY
360
6D3
102
}
102
{ACAD_REACTORS
330
2A
102
}
330
2A
100
AcDbVisualStyle
  2
EdgeColorOff
 70
    22
177
     2
291
     1
 71
     2
176
     0
 72
     2
176
     0
 73
     0
176
     0
 90
        0
176
     0
 40
0.6
176
     0
 41
30.0
176
     0
 63
     7
421
 16777215
176
     0
 74
     1
176
     0
 91
        4
176
     0
 64
     7
176
     0
 65
   257
176
     0
 75
     1
176
     0
175
     1
176
     0
 42
1.0
176
     0
 92
        8
176
     2
 66
     7
176
     0
 43
1.0
176
     0
 76
     1
176
     0
 77
     6
176
     0
 78
     2
176
     0
 67
     7
176
     0
 79
     5
176
     0
170
     0
176
     0
171
     0
176
     0
290
     0
176
     0
 93
        1
176
     0
 44
0.0
176
     0
173
     0
176
     0
1001
ACAD
1000
AcDbSavedByObjectVersion
1070
     0
  0
VISUALSTYLE
  5
39
102
{ACAD_XDICTIONARY
360
6BD
102
}
102
{ACAD_REACTORS
330
2A
102
}
330
2A
100
AcDbVisualStyle
  2
Facepattern
 70
    15
177
     2
291
     1
 71
     2
176
     1
 72
     2
176
     1
 73
     0
176
     1
 90
        0
176
     1
 40
0.6
176
     1
 41
30.0
176
     1
 63
     7
421
 16777215
176
     1
 74
     1
176
     1
 91
        4
176
     1
 64
     7
176
     1
 65
   257
176
     1
 75
     1
176
     1
175
     1
176
     1
 42
1.0
176
     1
 92
        8
176
     1
 66
     7
176
     1
 43
1.0
176
     1
 76
     1
176
     1
 77
     6
176
     1
 78
     2
176
     1
 67
     7
176
     1
 79
     5
176
     1
170
     0
176
     1
171
     0
176
     1
290
     0
176
     1
 93
        1
176
     1
 44
0.0
176
     1
173
     0
176
     1
1001
ACAD
1000
AcDbSavedByObjectVersion
1070
     0
  0
VISUALSTYLE
  5
2B
102
{ACAD_XDICTIONARY
360
6A1
102
}
102
{ACAD_REACTORS
330
2A
102
}
330
2A
100
AcDbVisualStyle
  2
Flat
 70
     0
177
     2
291
     1
 71
     2
176
     1
 72
     1
176
     1
 73
     1
176
     1
 90
        2
176
     1
 40
0.6
176
     1
 41
30.0
176
     1
 63
     7
421
 16777215
176
     1
 74
     0
176
     1
 91
        4
176
     1
 64
     7
176
     1
 65
   257
176
     1
 75
     1
176
     1
175
     1
176
     1
 42
1.0
176
     1
 92
        8
176
     1
 66
     7
176
     1
 43
1.0
176
     1
 76
     1
176
     1
 77
     6
176
     1
 78
     2
176
     1
 67
     7
176
     1
 79
     5
176
     1
170
     0
176
     1
171
     0
176
     1
290
     0
176
     1
 93
       13
176
     1
 44
0.0
176
     1
173
     0
176
     1
1001
ACAD
1000
AcDbSavedByObjectVersion
1070
     0
  0
VISUALSTYLE
  5
2C
102
{ACAD_XDICTIONARY
360
6A3
102
}
102
{ACAD_REACTORS
330
2A
102
}
330
2A
100
AcDbVisualStyle
  2
FlatWithEdges
 70
     1
177
     2
291
     1
 71
     2
176
     1
 72
     1
176
     1
 73
     1
176
     1
 90
        2
176
     1
 40
0.6
176
     1
 41
30.0
176
     1
 63
     7
421
 16777215
176
     1
 74
     1
176
     1
 91
        4
176
     1
 64
     7
176
     1
 65
   257
176
     1
 75
     1
176
     1
175
     1
176
     1
 42
1.0
176
     1
 92
        0
176
     1
 66
   257
176
     1
 43
1.0
176
     1
 76
     1
176
     1
 77
     6
176
     1
 78
     2
176
     1
 67
     7
176
     1
 79
     5
176
     1
170
     0
176
     1
171
     0
176
     1
290
     0
176
     1
 93
       13
176
     1
 44
0.0
176
     1
173
     0
176
     1
1001
ACAD
1000
AcDbSavedByObjectVersion
1070
     0
  0
VISUALSTYLE
  5
2D
102
{ACAD_XDICTIONARY
360
6A5
102
}
102
{ACAD_REACTORS
330
2A
102
}
330
2A
100
AcDbVisualStyle
  2
Gouraud
 70
     2
177
     2
291
     1
 71
     2
176
     1
 72
     2
176
     1
 73
     1
176
     1
 90
        2
176
     1
 40
0.6
176
     1
 41
30.0
176
     1
 63
     7
421
 16777215
176
     1
 74
     0
176
     1
 91
        4
176
     1
 64
     7
176
     1
 65
   257
176
     1
 75
     1
176
     1
175
     1
176
     1
 42
1.0
176
     1
 92
        0
176
     1
 66
     7
176
     1
 43
1.0
176
     1
 76
     1
176
     1
 77
     6
176
     1
 78
     2
176
     1
 67
     7
176
     1
 79
     5
176
     1
170
     0
176
     1
171
     0
176
     1
290
     0
176
     1
 93
       13
176
     1
 44
0.0
176
     1
173
     0
176
     1
1001
ACAD
1000
AcDbSavedByObjectVersion
1070
     0
  0
VISUALSTYLE
  5
2E
102
{ACAD_XDICTIONARY
360
6A7
102
}
102
{ACAD_REACTORS
330
2A
102
}
330
2A
100
AcDbVisualStyle
  2
GouraudWithEdges
 70
     3
177
     2
291
     1
 71
     2
176
     1
 72
     2
176
     1
 73
     1
176
     1
 90
        2
176
     1
 40
0.6
176
     1
 41
30.0
176
     1
 63
     7
421
 16777215
176
     1
 74
     1
176
     1
 91
        4
176
     1
 64
     7
176
     1
 65
   257
176
     1
 75
     1
176
     1
175
     1
176
     1
 42
1.0
176
     1
 92
        0
176
     1
 66
   257
176
     1
 43
1.0
176
     1
 76
     1
176
     1
 77
     6
176
     1
 78
     2
176
     1
 67
     7
176
     1
 79
     5
176
     1
170
     0
176
     1
171
     0
176
     1
290
     0
176
     1
 93
       13
176
     1
 44
0.0
176
     1
173
     0
176
     1
1001
ACAD
1000
AcDbSavedByObjectVersion
1070
     0
  0
VISUALSTYLE
  5
30E
102
{ACAD_XDICTIONARY
360
6C3
102
}
102
{ACAD_REACTORS
330
2A
102
}
330
2A
100
AcDbVisualStyle
  2
Hidden
 70
     6
177
     2
291
     0
 71
     1
176
     1
 72
     2
176
     1
 73
     2
176
     1
 90
        0
176
     1
 40
0.6
176
     1
 41
30.0
176
     1
 63
     7
421
 16777215
176
     1
 74
     2
176
     1
 91
        2
176
     1
 64
     7
176
     1
 65
   257
176
     1
 75
     2
176
     1
175
     1
176
     1
 42
40.0
176
     1
 92
        0
176
     1
 66
   257
176
     1
 43
1.0
176
     1
 76
     1
176
     1
 77
     6
176
     1
 78
     2
176
     1
 67
     7
176
     1
 79
     3
176
     1
170
     0
176
     1
171
     0
176
     1
290
     0
176
     1
 93
        1
176
     1
 44
0.0
176
     1
173
     0
176
     1
1001
ACAD
1000
AcDbSavedByObjectVersion
1070
     0
  0
VISUALSTYLE
  5
314
102
{ACAD_XDICTIONARY
360
6CF
102
}
102
{ACAD_REACTORS
330
2A
102
}
330
2A
100
AcDbVisualStyle
  2
JitterOff
 70
    20
177
     2
291
     1
 71
     2
176
     0
 72
     2
176
     0
 73
     0
176
     0
 90
        0
176
     0
 40
0.6
176
     0
 41
30.0
176
     0
 63
     7
421
 16777215
176
     0
 74
     1
176
     0
 91
        4
176
     0
 64
     7
176
     0
 65
   257
176
     0
 75
     1
176
     0
175
     1
176
     0
 42
1.0
176
     0
 92
       10
176
     2
 66
     7
176
     0
 43
1.0
176
     0
 76
     1
176
     0
 77
     6
176
     0
 78
     2
176
     0
 67
     7
176
     0
 79
     5
176
     0
170
     0
176
     0
171
     0
176
     0
290
     0
176
     0
 93
        1
176
     0
 44
0.0
176
     0
173
     0
176
     0
1001
ACAD
1000
AcDbSavedByObjectVersion
1070
     0
  0
VISUALSTYLE
  5
38
102
{ACAD_XDICTIONARY
360
6BB
102
}
102
{ACAD_REACTORS
330
2A
102
}
330
2A
100
AcDbVisualStyle
  2
Linepattern
 70
    14
177
     2
291
     1
 71
     2
176
     1
 72
     2
176
     1
 73
     0
176
     1
 90
        0
176
     1
 40
0.6
176
     1
 41
30.0
176
     1
 63
     7
421
 16777215
176
     1
 74
     1
176
     1
 91
        4
176
     1
 64
     7
176
     1
 65
   257
176
     1
 75
     7
176
     1
175
     7
176
     1
 42
1.0
176
     1
 92
        8
176
     1
 66
     7
176
     1
 43
1.0
176
     1
 76
     1
176
     1
 77
     6
176
     1
 78
     2
176
     1
 67
     7
176
     1
 79
     5
176
     1
170
     0
176
     1
171
     0
176
     1
290
     0
176
     1
 93
        1
176
     1
 44
0.0
176
     1
173
     0
176
     1
1001
ACAD
1000
AcDbSavedByObjectVersion
1070
     0
  0
VISUALSTYLE
  5
315
102
{ACAD_XDICTIONARY
360
6D1
102
}
102
{ACAD_REACTORS
330
2A
102
}
330
2A
100
AcDbVisualStyle
  2
OverhangOff
 70
    21
177
     2
291
     1
 71
     2
176
     0
 72
     2
176
     0
 73
     0
176
     0
 90
        0
176
     0
 40
0.6
176
     0
 41
30.0
176
     0
 63
     7
421
 16777215
176
     0
 74
     1
176
     0
 91
        4
176
     0
 64
     7
176
     0
 65
   257
176
     0
 75
     1
176
     0
175
     1
176
     0
 42
1.0
176
     0
 92
        9
176
     2
 66
     7
176
     0
 43
1.0
176
     0
 76
     1
176
     0
 77
     6
176
     0
 78
     2
176
     0
 67
     7
176
     0
 79
     5
176
     0
170
     0
176
     0
171
     0
176
     0
290
     0
176
     0
 93
        1
176
     0
 44
0.0
176
     0
173
     0
176
     0
1001
ACAD
1000
AcDbSavedByObjectVersion
1070
     0
  0
VISUALSTYLE
  5
33
102
{ACAD_XDICTIONARY
360
6B1
102
}
102
{ACAD_REACTORS
330
2A
102
}
330
2A
100
AcDbVisualStyle
  2
Realistic
 70
     8
177
     2
291
     0
 71
     2
176
     1
 72
     2
176
     1
 73
     0
176
     1
 90
        0
176
     1
 40
0.6
176
     1
 41
30.0
176
     1
 63
     7
421
 16777215
176
     1
 74
     1
176
     1
 91
        0
176
     1
 64
     7
176
     1
 65
   257
176
     1
 75
     1
176
     1
175
     1
176
     1
 42
1.0
176
     1
 92
        8
176
     1
 66
     8
424
  7895160
176
     1
 43
1.0
176
     1
 76
     1
176
     1
 77
     6
176
     1
 78
     2
176
     1
 67
     7
176
     1
 79
     5
176
     1
170
     0
176
     1
171
     0
176
     1
290
     0
176
     1
 93
       13
176
     1
 44
0.0
176
     1
173
     0
176
     1
1001
ACAD
1000
AcDbSavedByObjectVersion
1070
     0
  0
VISUALSTYLE
  5
313
102
{ACAD_XDICTIONARY
360
6CD
102
}
102
{ACAD_REACTORS
330
2A
102
}
330
2A
100
AcDbVisualStyle
  2
Shaded
 70
    27
177
     2
291
     0
 71
     2
176
     1
 72
     2
176
     1
 73
     1
176
     1
 90
        2
176
     1
 40
0.6
176
     1
 41
30.0
176
     1
 63
     7
421
 16777215
176
     1
 74
     0
176
     1
 91
        4
176
     1
 64
     7
176
     1
 65
   257
176
     1
 75
     1
176
     1
175
     1
176
     1
 42
1.0
176
     1
 92
        8
176
     1
 66
   257
176
     1
 43
1.0
176
     1
 76
     1
176
     1
 77
     6
176
     1
 78
     2
176
     1
 67
     8
425
  7895160
176
     1
 79
     3
176
     1
170
     0
176
     1
171
     0
176
     1
290
     0
176
     1
 93
        5
176
     1
 44
0.0
176
     1
173
     0
176
     1
1001
ACAD
1000
AcDbSavedByObjectVersion
1070
     0
  0
VISUALSTYLE
  5
312
102
{ACAD_XDICTIONARY
360
6CB
102
}
102
{ACAD_REACTORS
330
2A
102
}
330
2A
100
AcDbVisualStyle
  2
Shaded with edges
 70
    26
177
     2
291
     0
 71
     2
176
     1
 72
     2
176
     1
 73
     1
176
     1
 90
        2
176
     1
 40
0.6
176
     1
 41
30.0
176
     1
 63
     7
421
 16777215
176
     1
 74
     1
176
     1
 91
        2
176
     1
 64
     7
176
     1
 65
   257
176
     1
 75
     2
176
     1
175
     1
176
     1
 42
1.0
176
     1
 92
        8
176
     1
 66
   257
176
     1
 43
1.0
176
     1
 76
     1
176
     1
 77
     6
176
     1
 78
     2
176
     1
 67
     7
176
     1
 79
     3
176
     1
170
     0
176
     1
171
     0
176
     1
290
     0
176
     1
 93
        5
176
     1
 44
0.0
176
     1
173
     0
176
     1
1001
ACAD
1000
AcDbSavedByObjectVersion
1070
     0
  0
VISUALSTYLE
  5
30F
102
{ACAD_XDICTIONARY
360
6C5
102
}
102
{ACAD_REACTORS
330
2A
102
}
330
2A
100
AcDbVisualStyle
  2
Shades of Gray
 70
    23
177
     2
291
     0
 71
     2
176
     1
 72
     2
176
     1
 73
     3
176
     1
 90
        0
176
     1
 40
0.6
176
     1
 41
30.0
176
     1
 63
     7
421
 16777215
176
     1
 74
     2
176
     1
 91
        2
176
     1
 64
     7
176
     1
 65
     7
176
     1
 75
     1
176
     1
175
     1
176
     1
 42
40.0
176
     1
 92
        8
176
     1
 66
     7
176
     1
 43
1.0
176
     1
 76
     1
176
     1
 77
     6
176
     1
 78
     2
176
     1
 67
     7
176
     1
 79
     3
176
     1
170
     0
176
     1
171
     0
176
     1
290
     0
176
     1
 93
        1
176
     1
 44
0.0
176
     1
173
     0
176
     1
1001
ACAD
1000
AcDbSavedByObjectVersion
1070
     0
  0
VISUALSTYLE
  5
310
102
{ACAD_XDICTIONARY
360
6C7
102
}
102
{ACAD_REACTORS
330
2A
102
}
330
2A
100
AcDbVisualStyle
  2
Sketchy
 70
    24
177
     2
291
     0
 71
     1
176
     1
 72
     2
176
     1
 73
     2
176
     1
 90
        0
176
     1
 40
0.6
176
     1
 41
30.0
176
     1
 63
     7
421
 16777215
176
     1
 74
     2
176
     1
 91
        2
176
     1
 64
     7
176
     1
 65
     7
176
     1
 75
     1
176
     1
175
     1
176
     1
 42
40.0
176
     1
 92
       11
176
     1
 66
     7
176
     1
 43
1.0
176
     1
 76
     1
176
     1
 77
     6
176
     1
 78
     2
176
     1
 67
     7
176
     1
 79
     6
176
     1
170
     0
176
     1
171
     0
176
     1
290
     0
176
     1
 93
        1
176
     1
 44
0.0
176
     1
173
     0
176
     1
1001
ACAD
1000
AcDbSavedByObjectVersion
1070
     0
  0
VISUALSTYLE
  5
37
102
{ACAD_XDICTIONARY
360
6B9
102
}
102
{ACAD_REACTORS
330
2A
102
}
330
2A
100
AcDbVisualStyle
  2
Thicken
 70
    13
177
     2
291
     1
 71
     2
176
     1
 72
     2
176
     1
 73
     0
176
     1
 90
        0
176
     1
 40
0.6
176
     1
 41
30.0
176
     1
 63
     7
421
 16777215
176
     1
 74
     1
176
     1
 91
        4
176
     1
 64
     7
176
     1
 65
   257
176
     1
 75
     1
176
     1
175
     1
176
     1
 42
1.0
176
     1
 92
       12
176
     1
 66
     7
176
     1
 43
1.0
176
     1
 76
     1
176
     1
 77
     6
176
     1
 78
     2
176
     1
 67
     7
176
     1
 79
     5
176
     1
170
     0
176
     1
171
     0
176
     1
290
     0
176
     1
 93
        1
176
     1
 44
0.0
176
     1
173
     0
176
     1
1001
ACAD
1000
AcDbSavedByObjectVersion
1070
     0
  0
VISUALSTYLE
  5
30D
102
{ACAD_XDICTIONARY
360
6C1
102
}
102
{ACAD_REACTORS
330
2A
102
}
330
2A
100
AcDbVisualStyle
  2
Wireframe
 70
     5
177
     2
291
     0
 71
     0
176
     1
 72
     2
176
     1
 73
     0
176
     1
 90
        0
176
     1
 40
0.6
176
     1
 41
30.0
176
     1
 63
     7
421
 16777215
176
     1
 74
     1
176
     1
 91
        4
176
     1
 64
     7
176
     1
 65
   257
176
     1
 75
     1
176
     1
175
     1
176
     1
 42
1.0
176
     1
 92
        0
176
     1
 66
   257
176
     1
 43
1.0
176
     1
 76
     1
176
     1
 77
     6
176
     1
 78
     2
176
     1
 67
     7
176
     1
 79
     3
176
     1
170
     0
176
     1
171
     0
176
     1
290
     0
176
     1
 93
        1
176
     1
 44
0.0
176
     1
173
     0
176
     1
1001
ACAD
1000
AcDbSavedByObjectVersion
1070
     0
  0
VISUALSTYLE
  5
311
102
{ACAD_XDICTIONARY
360
6C9
102
}
102
{ACAD_REACTORS
330
2A
102
}
330
2A
100
AcDbVisualStyle
  2
X-Ray
 70
    25
177
     2
291
     0
 71
     2
176
     1
 72
     2
176
     1
 73
     1
176
     1
 90
        1
176
     1
 40
0.5
176
     1
 41
30.0
176
     1
 63
     7
421
 16777215
176
     1
 74
     1
176
     1
 91
        0
176
     1
 64
     7
176
     1
 65
   257
176
     1
 75
     1
176
     1
175
     1
176
     1
 42
1.0
176
     1
 92
        8
176
     1
 66
     7
176
     1
 43
1.0
176
     1
 76
     1
176
     1
 77
     6
176
     1
 78
     2
176
     1
 67
     7
176
     1
 79
     3
176
     1
170
     0
176
     1
171
     0
176
     1
290
     0
176
     1
 93
       13
176
     1
 44
0.0
176
     1
173
     0
176
     1
1001
ACAD
1000
AcDbSavedByObjectVersion
1070
     0
  0
DICTIONARYVAR
  5
309
102
{ACAD_REACTORS
330
308
102
}
330
308
100
DictionaryVariables
280
     0
  1
1:1
  0
DICTIONARYVAR
  5
647
102
{ACAD_REACTORS
330
308
102
}
330
308
100
DictionaryVariables
280
     0
  1
STANDARD
  0
DICTIONARYVAR
  5
646
102
{ACAD_REACTORS
330
308
102
}
330
308
100
DictionaryVariables
280
     0
  1
STANDARD
  0
DICTIONARYVAR
  5
648
102
{ACAD_REACTORS
330
308
102
}
330
308
100
DictionaryVariables
280
     0
  1
Metric50
  0
DICTIONARYVAR
  5
649
102
{ACAD_REACTORS
330
308
102
}
330
308
100
DictionaryVariables
280
     0
  1
Metric50
  0
DICTIONARY
  5
6A0
102
{ACAD_REACTORS
330
69E
102
}
330
69E
100
AcDbDictionary
281
     1
  0
DICTIONARY
  5
69F
102
{ACAD_REACTORS
330
69E
102
}
330
69E
100
AcDbDictionary
281
     1
  3
2086593673360
350
699
  3
2086593673376
350
69A
  3
2086593673392
350
69B
  3
2086593673408
350
69C
  3
2086593673424
350
69D
  0
DICTIONARY
  5
6D9
330
31D
100
AcDbDictionary
280
     1
281
     1
  3
ACAD_XREC_ROUNDTRIP
360
6DA
  0
DICTIONARY
  5
6D5
330
319
100
AcDbDictionary
280
     1
281
     1
  3
ACAD_XREC_ROUNDTRIP
360
6D6
  0
DICTIONARY
  5
6D7
330
31B
100
AcDbDictionary
280
     1
281
     1
  3
ACAD_XREC_ROUNDTRIP
360
6D8
  0
DICTIONARY
  5
696
330
318
100
AcDbDictionary
280
     1
281
     1
  3
ACAD_ROUNDTRIP_2008_TABLESTYLE_CELLSTYLEMAP
360
697
  0
DICTIONARY
  5
6A9
330
2F
100
AcDbDictionary
280
     1
281
     1
  3
ACAD_XREC_ROUNDTRIP
360
6AA
  0
DICTIONARY
  5
6AD
330
31
100
AcDbDictionary
280
     1
281
     1
  3
ACAD_XREC_ROUNDTRIP
360
6AE
  0
DICTIONARY
  5
6AB
330
30
100
AcDbDictionary
280
     1
281
     1
  3
ACAD_XREC_ROUNDTRIP
360
6AC
  0
DICTIONARY
  5
6AF
330
32
100
AcDbDictionary
280
     1
281
     1
  3
ACAD_XREC_ROUNDTRIP
360
6B0
  0
DICTIONARY
  5
6B7
330
36
100
AcDbDictionary
280
     1
281
     1
  3
ACAD_XREC_ROUNDTRIP
360
6B8
  0
DICTIONARY
  5
6BF
330
3A
100
AcDbDictionary
280
     1
281
     1
  3
ACAD_XREC_ROUNDTRIP
360
6C0
  0
DICTIONARY
  5
6B3
330
34
100
AcDbDictionary
280
     1
281
     1
  3
ACAD_XREC_ROUNDTRIP
360
6B4
  0
DICTIONARY
  5
6B5
330
35
100
AcDbDictionary
280
     1
281
     1
  3
ACAD_XREC_ROUNDTRIP
360
6B6
  0
DICTIONARY
  5
6D3
330
316
100
AcDbDictionary
280
     1
281
     1
  3
ACAD_XREC_ROUNDTRIP
360
6D4
  0
DICTIONARY
  5
6BD
330
39
100
AcDbDictionary
280
     1
281
     1
  3
ACAD_XREC_ROUNDTRIP
360
6BE
  0
DICTIONARY
  5
6A1
330
2B
100
AcDbDictionary
280
     1
281
     1
  3
ACAD_XREC_ROUNDTRIP
360
6A2
  0
DICTIONARY
  5
6A3
330
2C
100
AcDbDictionary
280
     1
281
     1
  3
ACAD_XREC_ROUNDTRIP
360
6A4
  0
DICTIONARY
  5
6A5
330
2D
100
AcDbDictionary
280
     1
281
     1
  3
ACAD_XREC_ROUNDTRIP
360
6A6
  0
DICTIONARY
  5
6A7
330
2E
100
AcDbDictionary
280
     1
281
     1
  3
ACAD_XREC_ROUNDTRIP
360
6A8
  0
DICTIONARY
  5
6C3
330
30E
100
AcDbDictionary
280
     1
281
     1
  3
ACAD_XREC_ROUNDTRIP
360
6C4
  0
DICTIONARY
  5
6CF
330
314
100
AcDbDictionary
280
     1
281
     1
  3
ACAD_XREC_ROUNDTRIP
360
6D0
  0
DICTIONARY
  5
6BB
330
38
100
AcDbDictionary
280
     1
281
     1
  3
ACAD_XREC_ROUNDTRIP
360
6BC
  0
DICTIONARY
  5
6D1
330
315
100
AcDbDictionary
280
     1
281
     1
  3
ACAD_XREC_ROUNDTRIP
360
6D2
  0
DICTIONARY
  5
6B1
330
33
100
AcDbDictionary
280
     1
281
     1
  3
ACAD_XREC_ROUNDTRIP
360
6B2
  0
DICTIONARY
  5
6CD
330
313
100
AcDbDictionary
280
     1
281
     1
  3
ACAD_XREC_ROUNDTRIP
360
6CE
  0
DICTIONARY
  5
6CB
330
312
100
AcDbDictionary
280
     1
281
     1
  3
ACAD_XREC_ROUNDTRIP
360
6CC
  0
DICTIONARY
  5
6C5
330
30F
100
AcDbDictionary
280
     1
281
     1
  3
ACAD_XREC_ROUNDTRIP
360
6C6
  0
DICTIONARY
  5
6C7
330
310
100
AcDbDictionary
280
     1
281
     1
  3
ACAD_XREC_ROUNDTRIP
360
6C8
  0
DICTIONARY
  5
6B9
330
37
100
AcDbDictionary
280
     1
281
     1
  3
ACAD_XREC_ROUNDTRIP
360
6BA
  0
DICTIONARY
  5
6C1
330
30D
100
AcDbDictionary
280
     1
281
     1
  3
ACAD_XREC_ROUNDTRIP
360
6C2
  0
DICTIONARY
  5
6C9
330
311
100
AcDbDictionary
280
     1
281
     1
  3
ACAD_XREC_ROUNDTRIP
360
6CA
  0
XRECORD
  5
699
102
{ACAD_REACTORS
330
69F
102
}
330
69F
100
AcDbXrecord
280
     1
  1
AcDb_Thumbnail_Schema
102
{ATTRRECORD
341
69A
  2
AcDbDs::TreatedAsObjectData
280
     1
291
     1
102
ATTRRECORD}
102
{ATTRRECORD
341
69B
  2
AcDbDs::Legacy
280
     1
291
     1
102
ATTRRECORD}
  2
AcDbDs::ID
280
    10
 91
        8
102
{ATTRRECORD
341
69C
  2
AcDs:Indexable
280
     1
291
     1
102
ATTRRECORD}
102
{ATTRRECORD
341
69D
  2
AcDbDs::HandleAttribute
280
     7
282
     1
102
ATTRRECORD}
  2
Thumbnail_Data
280
    15
 91
        0
  0
XRECORD
  5
69A
102
{ACAD_REACTORS
330
69F
102
}
330
69F
100
AcDbXrecord
280
     1
  1
AcDbDs::TreatedAsObjectDataSchema
  2
AcDbDs::TreatedAsObjectData
280
     1
 91
        0
  0
XRECORD
  5
69B
102
{ACAD_REACTORS
330
69F
102
}
330
69F
100
AcDbXrecord
280
     1
  1
AcDbDs::LegacySchema
  2
AcDbDs::Legacy
280
     1
 91
        0
  0
XRECORD
  5
69C
102
{ACAD_REACTORS
330
69F
102
}
330
69F
100
AcDbXrecord
280
     1
  1
AcDbDs::IndexedPropertySchema
  2
AcDs:Indexable
280
     1
 91
        0
  0
XRECORD
  5
69D
102
{ACAD_REACTORS
330
69F
102
}
330
69F
100
AcDbXrecord
280
     1
  1
AcDbDs::HandleAttributeSchema
  2
AcDbDs::HandleAttribute
280
     7
 91
        1
284
     1
  0
XRECORD
  5
6DA
102
{ACAD_REACTORS
330
6D9
102
}
330
6D9
100
AcDbXrecord
280
     1
102
DISPLAYNAME
  1
Metric50
102
FLAGS
 90
        0
  0
XRECORD
  5
6D6
102
{ACAD_REACTORS
330
6D5
102
}
330
6D5
100
AcDbXrecord
280
     1
102
ACAD_ROUNDTRIP_2012_MLEADER_STYLE
298
     1
  0
XRECORD
  5
6D8
102
{ACAD_REACTORS
330
6D7
102
}
330
6D7
100
AcDbXrecord
280
     1
102
DISPLAYNAME
  1
Metric50
102
FLAGS
 90
        0
  0
CELLSTYLEMAP
  5
697
102
{ACAD_REACTORS
330
696
102
}
330
696
100
AcDbCellStyleMap
 90
        3
300
CELLSTYLE
  1
TABLEFORMAT_BEGIN
 90
        5
170
     1
 91
        0
 92
    32768
 62
   257
 93
        1
300
CONTENTFORMAT
  1
CONTENTFORMAT_BEGIN
 90
        0
 91
        0
 92
      512
 93
        0
300

 40
0.0
140
1.0
 94
        5
 62
     0
340
11
144
6.0
309
CONTENTFORMAT_END
171
     1
301
MARGIN
  1
CELLMARGIN_BEGIN
 40
1.5
 40
1.5
 40
1.5
 40
1.5
 40
4.5
 40
4.5
309
CELLMARGIN_END
 94
        6
 95
        1
302
GRIDFORMAT
  1
GRIDFORMAT_BEGIN
 90
        0
 91
        1
 62
     0
 92
       -2
340
0
 93
        0
 40
1.125
309
GRIDFORMAT_END
 95
        2
302
GRIDFORMAT
  1
GRIDFORMAT_BEGIN
 90
        0
 91
        1
 62
     0
 92
       -2
340
0
 93
        0
 40
1.125
309
GRIDFORMAT_END
 95
        4
302
GRIDFORMAT
  1
GRIDFORMAT_BEGIN
 90
        0
 91
        1
 62
     0
 92
       -2
340
0
 93
        0
 40
1.125
309
GRIDFORMAT_END
 95
        8
302
GRIDFORMAT
  1
GRIDFORMAT_BEGIN
 90
        0
 91
        1
 62
     0
 92
       -2
340
0
 93
        0
 40
1.125
309
GRIDFORMAT_END
 95
       16
302
GRIDFORMAT
  1
GRIDFORMAT_BEGIN
 90
        0
 91
        1
 62
     0
 92
       -2
340
0
 93
        0
 40
1.125
309
GRIDFORMAT_END
 95
       32
302
GRIDFORMAT
  1
GRIDFORMAT_BEGIN
 90
        0
 91
        1
 62
     0
 92
       -2
340
0
 93
        0
 40
1.125
309
GRIDFORMAT_END
309
TABLEFORMAT_END
  1
CELLSTYLE_BEGIN
 90
        1
 91
        1
300
_TITLE
309
CELLSTYLE_END
300
CELLSTYLE
  1
TABLEFORMAT_BEGIN
 90
        5
170
     1
 91
        0
 92
        0
 62
   257
 93
        1
300
CONTENTFORMAT
  1
CONTENTFORMAT_BEGIN
 90
        0
 91
        0
 92
      512
 93
        0
300

 40
0.0
140
1.0
 94
        5
 62
     0
340
11
144
4.5
309
CONTENTFORMAT_END
171
     1
301
MARGIN
  1
CELLMARGIN_BEGIN
 40
1.5
 40
1.5
 40
1.5
 40
1.5
 40
4.5
 40
4.5
309
CELLMARGIN_END
 94
        6
 95
        1
302
GRIDFORMAT
  1
GRIDFORMAT_BEGIN
 90
        0
 91
        1
 62
     0
 92
       -2
340
0
 93
        0
 40
1.125
309
GRIDFORMAT_END
 95
        2
302
GRIDFORMAT
  1
GRIDFORMAT_BEGIN
 90
        0
 91
        1
 62
     0
 92
       -2
340
0
 93
        0
 40
1.125
309
GRIDFORMAT_END
 95
        4
302
GRIDFORMAT
  1
GRIDFORMAT_BEGIN
 90
        0
 91
        1
 62
     0
 92
       -2
340
0
 93
        0
 40
1.125
309
GRIDFORMAT_END
 95
        8
302
GRIDFORMAT
  1
GRIDFORMAT_BEGIN
 90
        0
 91
        1
 62
     0
 92
       -2
340
0
 93
        0
 40
1.125
309
GRIDFORMAT_END
 95
       16
302
GRIDFORMAT
  1
GRIDFORMAT_BEGIN
 90
        0
 91
        1
 62
     0
 92
       -2
340
0
 93
        0
 40
1.125
309
GRIDFORMAT_END
 95
       32
302
GRIDFORMAT
  1
GRIDFORMAT_BEGIN
 90
        0
 91
        1
 62
     0
 92
       -2
340
0
 93
        0
 40
1.125
309
GRIDFORMAT_END
309
TABLEFORMAT_END
  1
CELLSTYLE_BEGIN
 90
        2
 91
        1
300
_HEADER
309
CELLSTYLE_END
300
CELLSTYLE
  1
TABLEFORMAT_BEGIN
 90
        5
170
     1
 91
        0
 92
        0
 62
   257
 93
        1
300
CONTENTFORMAT
  1
CONTENTFORMAT_BEGIN
 90
        0
 91
        0
 92
      512
 93
        0
300

 40
0.0
140
1.0
 94
        2
 62
     0
340
11
144
4.5
309
CONTENTFORMAT_END
171
     1
301
MARGIN
  1
CELLMARGIN_BEGIN
 40
1.5
 40
1.5
 40
1.5
 40
1.5
 40
4.5
 40
4.5
309
CELLMARGIN_END
 94
        6
 95
        1
302
GRIDFORMAT
  1
GRIDFORMAT_BEGIN
 90
        0
 91
        1
 62
     0
 92
       -2
340
0
 93
        0
 40
1.125
309
GRIDFORMAT_END
 95
        2
302
GRIDFORMAT
  1
GRIDFORMAT_BEGIN
 90
        0
 91
        1
 62
     0
 92
       -2
340
0
 93
        0
 40
1.125
309
GRIDFORMAT_END
 95
        4
302
GRIDFORMAT
  1
GRIDFORMAT_BEGIN
 90
        0
 91
        1
 62
     0
 92
       -2
340
0
 93
        0
 40
1.125
309
GRIDFORMAT_END
 95
        8
302
GRIDFORMAT
  1
GRIDFORMAT_BEGIN
 90
        0
 91
        1
 62
     0
 92
       -2
340
0
 93
        0
 40
1.125
309
GRIDFORMAT_END
 95
       16
302
GRIDFORMAT
  1
GRIDFORMAT_BEGIN
 90
        0
 91
        1
 62
     0
 92
       -2
340
0
 93
        0
 40
1.125
309
GRIDFORMAT_END
 95
       32
302
GRIDFORMAT
  1
GRIDFORMAT_BEGIN
 90
        0
 91
        1
 62
     0
 92
       -2
340
0
 93
        0
 40
1.125
309
GRIDFORMAT_END
309
TABLEFORMAT_END
  1
CELLSTYLE_BEGIN
 90
        3
 91
        2
300
_DATA
309
CELLSTYLE_END
  0
XRECORD
  5
6AA
102
{ACAD_REACTORS
330
6A9
102
}
330
6A9
100
AcDbXrecord
280
     1
102
RTVSPost2010Prop28
280
     1
102
RTVSPost2010PropOp28
 70
     1
102
RTVSPost2010Prop29
280
     1
102
RTVSPost2010PropOp29
 70
     1
102
RTVSPost2010Prop30
280
     0
102
RTVSPost2010PropOp30
 70
     1
102
RTVSPost2010Prop31
280
     0
102
RTVSPost2010PropOp31
 70
     1
102
RTVSPost2010Prop32
280
     0
102
RTVSPost2010PropOp32
 70
     1
102
RTVSPost2010Prop33
280
     0
102
RTVSPost2010PropOp33
 70
     1
102
RTVSPost2010Prop34
280
     0
102
RTVSPost2010PropOp34
 70
     1
102
RTVSPost2010Prop35
280
     0
102
RTVSPost2010PropOp35
 70
     1
102
RTVSPost2010Prop36
280
     0
102
RTVSPost2010PropOp36
 70
     1
102
RTVSPost2010Prop37
 90
       50
102
RTVSPost2010PropOp37
 70
     1
102
RTVSPost2010Prop38
140
0.0
102
RTVSPost2010PropOp38
 70
     1
102
RTVSPost2010Prop39
140
1.0
102
RTVSPost2010PropOp39
 70
     1
102
RTVSPost2010Prop40
 90
        0
102
RTVSPost2010PropOp40
 70
     1
102
RTVSPost2010Prop41ColorIndex
 90
       18
102
RTVSPost2010Prop41ColorRGB
 90
        0
102
RTVSPost2010PropOp41
 70
     1
102
RTVSPost2010Prop42
 90
       50
102
RTVSPost2010PropOp42
 70
     1
102
RTVSPost2010Prop43
 90
        3
102
RTVSPost2010PropOp43
 70
     1
102
RTVSPost2010Prop44ColorIndex
 90
        5
102
RTVSPost2010Prop44ColorRGB
 90
      255
102
RTVSPost2010PropOp44
 70
     1
102
RTVSPost2010Prop45
280
     0
102
RTVSPost2010PropOp45
 70
     1
102
RTVSPost2010Prop46
 90
       50
102
RTVSPost2010PropOp46
 70
     1
102
RTVSPost2010Prop47
 90
       50
102
RTVSPost2010PropOp47
 70
     1
102
RTVSPost2010Prop48
 90
       50
102
RTVSPost2010PropOp48
 70
     1
102
RTVSPost2010Prop49
280
     0
102
RTVSPost2010PropOp49
 70
     1
102
RTVSPost2010Prop50
 90
       50
102
RTVSPost2010PropOp50
 70
     1
102
RTVSPost2010Prop51ColorIndex
 90
      256
102
RTVSPost2010Prop51ColorRGB
 90
-16777216
102
RTVSPost2010PropOp51
 70
     0
102
RTVSPost2010Prop52
140
1.0
102
RTVSPost2010PropOp52
 70
     0
102
RTVSPost2010Prop53
 90
        2
102
RTVSPost2010PropOp53
 70
     1
102
RTVSPost2010Prop54
  1
strokes_ogs.tif
102
RTVSPost2010PropOp54
 70
     1
102
RTVSPost2010Prop55
280
     0
102
RTVSPost2010PropOp55
 70
     1
102
RTVSPost2010Prop56
140
1.0
102
RTVSPost2010PropOp56
 70
     1
102
RTVSPost2010Prop57
140
1.0
102
RTVSPost2010PropOp57
 70
     1
  0
XRECORD
  5
6AE
102
{ACAD_REACTORS
330
6AD
102
}
330
6AD
100
AcDbXrecord
280
     1
102
RTVSPost2010Prop28
280
     0
102
RTVSPost2010PropOp28
 70
     1
102
RTVSPost2010Prop29
280
     1
102
RTVSPost2010PropOp29
 70
     1
102
RTVSPost2010Prop30
280
     1
102
RTVSPost2010PropOp30
 70
     1
102
RTVSPost2010Prop31
280
     0
102
RTVSPost2010PropOp31
 70
     1
102
RTVSPost2010Prop32
280
     0
102
RTVSPost2010PropOp32
 70
     1
102
RTVSPost2010Prop33
280
     0
102
RTVSPost2010PropOp33
 70
     1
102
RTVSPost2010Prop34
280
     0
102
RTVSPost2010PropOp34
 70
     1
102
RTVSPost2010Prop35
280
     0
102
RTVSPost2010PropOp35
 70
     1
102
RTVSPost2010Prop36
280
     0
102
RTVSPost2010PropOp36
 70
     1
102
RTVSPost2010Prop37
 90
       50
102
RTVSPost2010PropOp37
 70
     1
102
RTVSPost2010Prop38
140
0.0
102
RTVSPost2010PropOp38
 70
     1
102
RTVSPost2010Prop39
140
1.0
102
RTVSPost2010PropOp39
 70
     1
102
RTVSPost2010Prop40
 90
        0
102
RTVSPost2010PropOp40
 70
     1
102
RTVSPost2010Prop41ColorIndex
 90
       18
102
RTVSPost2010Prop41ColorRGB
 90
        0
102
RTVSPost2010PropOp41
 70
     1
102
RTVSPost2010Prop42
 90
       50
102
RTVSPost2010PropOp42
 70
     1
102
RTVSPost2010Prop43
 90
        3
102
RTVSPost2010PropOp43
 70
     1
102
RTVSPost2010Prop44ColorIndex
 90
        5
102
RTVSPost2010Prop44ColorRGB
 90
      255
102
RTVSPost2010PropOp44
 70
     1
102
RTVSPost2010Prop45
280
     0
102
RTVSPost2010PropOp45
 70
     1
102
RTVSPost2010Prop46
 90
       50
102
RTVSPost2010PropOp46
 70
     1
102
RTVSPost2010Prop47
 90
       50
102
RTVSPost2010PropOp47
 70
     1
102
RTVSPost2010Prop48
 90
       50
102
RTVSPost2010PropOp48
 70
     1
102
RTVSPost2010Prop49
280
     0
102
RTVSPost2010PropOp49
 70
     1
102
RTVSPost2010Prop50
 90
       50
102
RTVSPost2010PropOp50
 70
     1
102
RTVSPost2010Prop51ColorIndex
 90
      256
102
RTVSPost2010Prop51ColorRGB
 90
-16777216
102
RTVSPost2010PropOp51
 70
     0
102
RTVSPost2010Prop52
140
1.0
102
RTVSPost2010PropOp52
 70
     0
102
RTVSPost2010Prop53
 90
        2
102
RTVSPost2010PropOp53
 70
     1
102
RTVSPost2010Prop54
  1
strokes_ogs.tif
102
RTVSPost2010PropOp54
 70
     1
102
RTVSPost2010Prop55
280
     0
102
RTVSPost2010PropOp55
 70
     1
102
RTVSPost2010Prop56
140
1.0
102
RTVSPost2010PropOp56
 70
     1
102
RTVSPost2010Prop57
140
1.0
102
RTVSPost2010PropOp57
 70
     1
  0
XRECORD
  5
6AC
102
{ACAD_REACTORS
330
6AB
102
}
330
6AB
100
AcDbXrecord
280
     1
102
RTVSPost2010Prop28
280
     0
102
RTVSPost2010PropOp28
 70
     1
102
RTVSPost2010Prop29
280
     1
102
RTVSPost2010PropOp29
 70
     1
102
RTVSPost2010Prop30
280
     1
102
RTVSPost2010PropOp30
 70
     1
102
RTVSPost2010Prop31
280
     0
102
RTVSPost2010PropOp31
 70
     1
102
RTVSPost2010Prop32
280
     0
102
RTVSPost2010PropOp32
 70
     1
102
RTVSPost2010Prop33
280
     0
102
RTVSPost2010PropOp33
 70
     1
102
RTVSPost2010Prop34
280
     0
102
RTVSPost2010PropOp34
 70
     1
102
RTVSPost2010Prop35
280
     0
102
RTVSPost2010PropOp35
 70
     1
102
RTVSPost2010Prop36
280
     0
102
RTVSPost2010PropOp36
 70
     1
102
RTVSPost2010Prop37
 90
       50
102
RTVSPost2010PropOp37
 70
     1
102
RTVSPost2010Prop38
140
0.0
102
RTVSPost2010PropOp38
 70
     1
102
RTVSPost2010Prop39
140
1.0
102
RTVSPost2010PropOp39
 70
     1
102
RTVSPost2010Prop40
 90
        0
102
RTVSPost2010PropOp40
 70
     1
102
RTVSPost2010Prop41ColorIndex
 90
       18
102
RTVSPost2010Prop41ColorRGB
 90
        0
102
RTVSPost2010PropOp41
 70
     1
102
RTVSPost2010Prop42
 90
       50
102
RTVSPost2010PropOp42
 70
     1
102
RTVSPost2010Prop43
 90
        3
102
RTVSPost2010PropOp43
 70
     1
102
RTVSPost2010Prop44ColorIndex
 90
        5
102
RTVSPost2010Prop44ColorRGB
 90
      255
102
RTVSPost2010PropOp44
 70
     1
102
RTVSPost2010Prop45
280
     0
102
RTVSPost2010PropOp45
 70
     1
102
RTVSPost2010Prop46
 90
       50
102
RTVSPost2010PropOp46
 70
     1
102
RTVSPost2010Prop47
 90
       50
102
RTVSPost2010PropOp47
 70
     1
102
RTVSPost2010Prop48
 90
       50
102
RTVSPost2010PropOp48
 70
     1
102
RTVSPost2010Prop49
280
     0
102
RTVSPost2010PropOp49
 70
     1
102
RTVSPost2010Prop50
 90
       50
102
RTVSPost2010PropOp50
 70
     1
102
RTVSPost2010Prop51ColorIndex
 90
      256
102
RTVSPost2010Prop51ColorRGB
 90
-16777216
102
RTVSPost2010PropOp51
 70
     0
102
RTVSPost2010Prop52
140
1.0
102
RTVSPost2010PropOp52
 70
     0
102
RTVSPost2010Prop53
 90
        2
102
RTVSPost2010PropOp53
 70
     1
102
RTVSPost2010Prop54
  1
strokes_ogs.tif
102
RTVSPost2010PropOp54
 70
     1
102
RTVSPost2010Prop55
280
     0
102
RTVSPost2010PropOp55
 70
     1
102
RTVSPost2010Prop56
140
1.0
102
RTVSPost2010PropOp56
 70
     1
102
RTVSPost2010Prop57
140
1.0
102
RTVSPost2010PropOp57
 70
     1
  0
XRECORD
  5
6B0
102
{ACAD_REACTORS
330
6AF
102
}
330
6AF
100
AcDbXrecord
280
     1
102
RTVSPost2010Prop28
280
     0
102
RTVSPost2010PropOp28
 70
     1
102
RTVSPost2010Prop29
280
     1
102
RTVSPost2010PropOp29
 70
     1
102
RTVSPost2010Prop30
280
     1
102
RTVSPost2010PropOp30
 70
     1
102
RTVSPost2010Prop31
280
     0
102
RTVSPost2010PropOp31
 70
     1
102
RTVSPost2010Prop32
280
     0
102
RTVSPost2010PropOp32
 70
     1
102
RTVSPost2010Prop33
280
     0
102
RTVSPost2010PropOp33
 70
     1
102
RTVSPost2010Prop34
280
     0
102
RTVSPost2010PropOp34
 70
     1
102
RTVSPost2010Prop35
280
     0
102
RTVSPost2010PropOp35
 70
     1
102
RTVSPost2010Prop36
280
     0
102
RTVSPost2010PropOp36
 70
     1
102
RTVSPost2010Prop37
 90
       50
102
RTVSPost2010PropOp37
 70
     1
102
RTVSPost2010Prop38
140
0.0
102
RTVSPost2010PropOp38
 70
     1
102
RTVSPost2010Prop39
140
1.0
102
RTVSPost2010PropOp39
 70
     1
102
RTVSPost2010Prop40
 90
        0
102
RTVSPost2010PropOp40
 70
     1
102
RTVSPost2010Prop41ColorIndex
 90
       18
102
RTVSPost2010Prop41ColorRGB
 90
        0
102
RTVSPost2010PropOp41
 70
     1
102
RTVSPost2010Prop42
 90
       50
102
RTVSPost2010PropOp42
 70
     1
102
RTVSPost2010Prop43
 90
        3
102
RTVSPost2010PropOp43
 70
     1
102
RTVSPost2010Prop44ColorIndex
 90
        5
102
RTVSPost2010Prop44ColorRGB
 90
      255
102
RTVSPost2010PropOp44
 70
     1
102
RTVSPost2010Prop45
280
     0
102
RTVSPost2010PropOp45
 70
     1
102
RTVSPost2010Prop46
 90
       50
102
RTVSPost2010PropOp46
 70
     1
102
RTVSPost2010Prop47
 90
       50
102
RTVSPost2010PropOp47
 70
     1
102
RTVSPost2010Prop48
 90
       50
102
RTVSPost2010PropOp48
 70
     1
102
RTVSPost2010Prop49
280
     0
102
RTVSPost2010PropOp49
 70
     1
102
RTVSPost2010Prop50
 90
       50
102
RTVSPost2010PropOp50
 70
     1
102
RTVSPost2010Prop51ColorIndex
 90
      256
102
RTVSPost2010Prop51ColorRGB
 90
-16777216
102
RTVSPost2010PropOp51
 70
     0
102
RTVSPost2010Prop52
140
1.0
102
RTVSPost2010PropOp52
 70
     0
102
RTVSPost2010Prop53
 90
        2
102
RTVSPost2010PropOp53
 70
     1
102
RTVSPost2010Prop54
  1
strokes_ogs.tif
102
RTVSPost2010PropOp54
 70
     1
102
RTVSPost2010Prop55
280
     0
102
RTVSPost2010PropOp55
 70
     1
102
RTVSPost2010Prop56
140
1.0
102
RTVSPost2010PropOp56
 70
     1
102
RTVSPost2010Prop57
140
1.0
102
RTVSPost2010PropOp57
 70
     1
  0
XRECORD
  5
6B8
102
{ACAD_REACTORS
330
6B7
102
}
330
6B7
100
AcDbXrecord
280
     1
102
RTVSPost2010Prop28
280
     0
102
RTVSPost2010PropOp28
 70
     1
102
RTVSPost2010Prop29
280
     1
102
RTVSPost2010PropOp29
 70
     1
102
RTVSPost2010Prop30
280
     1
102
RTVSPost2010PropOp30
 70
     1
102
RTVSPost2010Prop31
280
     0
102
RTVSPost2010PropOp31
 70
     1
102
RTVSPost2010Prop32
280
     0
102
RTVSPost2010PropOp32
 70
     1
102
RTVSPost2010Prop33
280
     0
102
RTVSPost2010PropOp33
 70
     1
102
RTVSPost2010Prop34
280
     0
102
RTVSPost2010PropOp34
 70
     1
102
RTVSPost2010Prop35
280
     0
102
RTVSPost2010PropOp35
 70
     1
102
RTVSPost2010Prop36
280
     0
102
RTVSPost2010PropOp36
 70
     1
102
RTVSPost2010Prop37
 90
       50
102
RTVSPost2010PropOp37
 70
     1
102
RTVSPost2010Prop38
140
0.0
102
RTVSPost2010PropOp38
 70
     1
102
RTVSPost2010Prop39
140
1.0
102
RTVSPost2010PropOp39
 70
     1
102
RTVSPost2010Prop40
 90
        0
102
RTVSPost2010PropOp40
 70
     1
102
RTVSPost2010Prop41ColorIndex
 90
       18
102
RTVSPost2010Prop41ColorRGB
 90
        0
102
RTVSPost2010PropOp41
 70
     1
102
RTVSPost2010Prop42
 90
       50
102
RTVSPost2010PropOp42
 70
     1
102
RTVSPost2010Prop43
 90
        3
102
RTVSPost2010PropOp43
 70
     1
102
RTVSPost2010Prop44ColorIndex
 90
        5
102
RTVSPost2010Prop44ColorRGB
 90
      255
102
RTVSPost2010PropOp44
 70
     1
102
RTVSPost2010Prop45
280
     0
102
RTVSPost2010PropOp45
 70
     1
102
RTVSPost2010Prop46
 90
       50
102
RTVSPost2010PropOp46
 70
     1
102
RTVSPost2010Prop47
 90
       50
102
RTVSPost2010PropOp47
 70
     1
102
RTVSPost2010Prop48
 90
       50
102
RTVSPost2010PropOp48
 70
     1
102
RTVSPost2010Prop49
280
     0
102
RTVSPost2010PropOp49
 70
     1
102
RTVSPost2010Prop50
 90
       50
102
RTVSPost2010PropOp50
 70
     1
102
RTVSPost2010Prop51ColorIndex
 90
      256
102
RTVSPost2010Prop51ColorRGB
 90
-16777216
102
RTVSPost2010PropOp51
 70
     0
102
RTVSPost2010Prop52
140
1.0
102
RTVSPost2010PropOp52
 70
     0
102
RTVSPost2010Prop53
 90
        2
102
RTVSPost2010PropOp53
 70
     1
102
RTVSPost2010Prop54
  1
strokes_ogs.tif
102
RTVSPost2010PropOp54
 70
     1
102
RTVSPost2010Prop55
280
     0
102
RTVSPost2010PropOp55
 70
     1
102
RTVSPost2010Prop56
140
1.0
102
RTVSPost2010PropOp56
 70
     1
102
RTVSPost2010Prop57
140
1.0
102
RTVSPost2010PropOp57
 70
     1
  0
XRECORD
  5
6C0
102
{ACAD_REACTORS
330
6BF
102
}
330
6BF
100
AcDbXrecord
280
     1
102
RTVSPost2010Prop28
280
     0
102
RTVSPost2010PropOp28
 70
     1
102
RTVSPost2010Prop29
280
     1
102
RTVSPost2010PropOp29
 70
     1
102
RTVSPost2010Prop30
280
     1
102
RTVSPost2010PropOp30
 70
     1
102
RTVSPost2010Prop31
280
     0
102
RTVSPost2010PropOp31
 70
     1
102
RTVSPost2010Prop32
280
     0
102
RTVSPost2010PropOp32
 70
     1
102
RTVSPost2010Prop33
280
     0
102
RTVSPost2010PropOp33
 70
     1
102
RTVSPost2010Prop34
280
     0
102
RTVSPost2010PropOp34
 70
     1
102
RTVSPost2010Prop35
280
     0
102
RTVSPost2010PropOp35
 70
     1
102
RTVSPost2010Prop36
280
     0
102
RTVSPost2010PropOp36
 70
     1
102
RTVSPost2010Prop37
 90
       50
102
RTVSPost2010PropOp37
 70
     1
102
RTVSPost2010Prop38
140
0.0
102
RTVSPost2010PropOp38
 70
     1
102
RTVSPost2010Prop39
140
1.0
102
RTVSPost2010PropOp39
 70
     1
102
RTVSPost2010Prop40
 90
        0
102
RTVSPost2010PropOp40
 70
     1
102
RTVSPost2010Prop41ColorIndex
 90
       18
102
RTVSPost2010Prop41ColorRGB
 90
        0
102
RTVSPost2010PropOp41
 70
     1
102
RTVSPost2010Prop42
 90
       50
102
RTVSPost2010PropOp42
 70
     1
102
RTVSPost2010Prop43
 90
        3
102
RTVSPost2010PropOp43
 70
     1
102
RTVSPost2010Prop44ColorIndex
 90
        5
102
RTVSPost2010Prop44ColorRGB
 90
      255
102
RTVSPost2010PropOp44
 70
     1
102
RTVSPost2010Prop45
280
     0
102
RTVSPost2010PropOp45
 70
     1
102
RTVSPost2010Prop46
 90
       50
102
RTVSPost2010PropOp46
 70
     1
102
RTVSPost2010Prop47
 90
       50
102
RTVSPost2010PropOp47
 70
     1
102
RTVSPost2010Prop48
 90
       50
102
RTVSPost2010PropOp48
 70
     1
102
RTVSPost2010Prop49
280
     0
102
RTVSPost2010PropOp49
 70
     1
102
RTVSPost2010Prop50
 90
       50
102
RTVSPost2010PropOp50
 70
     1
102
RTVSPost2010Prop51ColorIndex
 90
      256
102
RTVSPost2010Prop51ColorRGB
 90
-16777216
102
RTVSPost2010PropOp51
 70
     0
102
RTVSPost2010Prop52
140
1.0
102
RTVSPost2010PropOp52
 70
     0
102
RTVSPost2010Prop53
 90
        2
102
RTVSPost2010PropOp53
 70
     1
102
RTVSPost2010Prop54
  1
strokes_ogs.tif
102
RTVSPost2010PropOp54
 70
     1
102
RTVSPost2010Prop55
280
     0
102
RTVSPost2010PropOp55
 70
     1
102
RTVSPost2010Prop56
140
1.0
102
RTVSPost2010PropOp56
 70
     1
102
RTVSPost2010Prop57
140
1.0
102
RTVSPost2010PropOp57
 70
     1
  0
XRECORD
  5
6B4
102
{ACAD_REACTORS
330
6B3
102
}
330
6B3
100
AcDbXrecord
280
     1
102
RTVSPost2010Prop28
280
     0
102
RTVSPost2010PropOp28
 70
     1
102
RTVSPost2010Prop29
280
     1
102
RTVSPost2010PropOp29
 70
     1
102
RTVSPost2010Prop30
280
     1
102
RTVSPost2010PropOp30
 70
     1
102
RTVSPost2010Prop31
280
     0
102
RTVSPost2010PropOp31
 70
     1
102
RTVSPost2010Prop32
280
     0
102
RTVSPost2010PropOp32
 70
     1
102
RTVSPost2010Prop33
280
     0
102
RTVSPost2010PropOp33
 70
     1
102
RTVSPost2010Prop34
280
     0
102
RTVSPost2010PropOp34
 70
     1
102
RTVSPost2010Prop35
280
     0
102
RTVSPost2010PropOp35
 70
     1
102
RTVSPost2010Prop36
280
     0
102
RTVSPost2010PropOp36
 70
     1
102
RTVSPost2010Prop37
 90
       50
102
RTVSPost2010PropOp37
 70
     1
102
RTVSPost2010Prop38
140
0.0
102
RTVSPost2010PropOp38
 70
     1
102
RTVSPost2010Prop39
140
1.0
102
RTVSPost2010PropOp39
 70
     1
102
RTVSPost2010Prop40
 90
        0
102
RTVSPost2010PropOp40
 70
     1
102
RTVSPost2010Prop41ColorIndex
 90
       18
102
RTVSPost2010Prop41ColorRGB
 90
        0
102
RTVSPost2010PropOp41
 70
     1
102
RTVSPost2010Prop42
 90
       50
102
RTVSPost2010PropOp42
 70
     1
102
RTVSPost2010Prop43
 90
        3
102
RTVSPost2010PropOp43
 70
     1
102
RTVSPost2010Prop44ColorIndex
 90
        5
102
RTVSPost2010Prop44ColorRGB
 90
      255
102
RTVSPost2010PropOp44
 70
     1
102
RTVSPost2010Prop45
280
     0
102
RTVSPost2010PropOp45
 70
     1
102
RTVSPost2010Prop46
 90
       50
102
RTVSPost2010PropOp46
 70
     1
102
RTVSPost2010Prop47
 90
       50
102
RTVSPost2010PropOp47
 70
     1
102
RTVSPost2010Prop48
 90
       50
102
RTVSPost2010PropOp48
 70
     1
102
RTVSPost2010Prop49
280
     0
102
RTVSPost2010PropOp49
 70
     1
102
RTVSPost2010Prop50
 90
       50
102
RTVSPost2010PropOp50
 70
     1
102
RTVSPost2010Prop51ColorIndex
 90
      256
102
RTVSPost2010Prop51ColorRGB
 90
-16777216
102
RTVSPost2010PropOp51
 70
     0
102
RTVSPost2010Prop52
140
1.0
102
RTVSPost2010PropOp52
 70
     0
102
RTVSPost2010Prop53
 90
        2
102
RTVSPost2010PropOp53
 70
     1
102
RTVSPost2010Prop54
  1
strokes_ogs.tif
102
RTVSPost2010PropOp54
 70
     1
102
RTVSPost2010Prop55
280
     0
102
RTVSPost2010PropOp55
 70
     1
102
RTVSPost2010Prop56
140
1.0
102
RTVSPost2010PropOp56
 70
     1
102
RTVSPost2010Prop57
140
1.0
102
RTVSPost2010PropOp57
 70
     1
  0
XRECORD
  5
6B6
102
{ACAD_REACTORS
330
6B5
102
}
330
6B5
100
AcDbXrecord
280
     1
102
RTVSPost2010Prop28
280
     0
102
RTVSPost2010PropOp28
 70
     1
102
RTVSPost2010Prop29
280
     1
102
RTVSPost2010PropOp29
 70
     1
102
RTVSPost2010Prop30
280
     1
102
RTVSPost2010PropOp30
 70
     1
102
RTVSPost2010Prop31
280
     0
102
RTVSPost2010PropOp31
 70
     1
102
RTVSPost2010Prop32
280
     0
102
RTVSPost2010PropOp32
 70
     1
102
RTVSPost2010Prop33
280
     0
102
RTVSPost2010PropOp33
 70
     1
102
RTVSPost2010Prop34
280
     0
102
RTVSPost2010PropOp34
 70
     1
102
RTVSPost2010Prop35
280
     0
102
RTVSPost2010PropOp35
 70
     1
102
RTVSPost2010Prop36
280
     0
102
RTVSPost2010PropOp36
 70
     1
102
RTVSPost2010Prop37
 90
       50
102
RTVSPost2010PropOp37
 70
     1
102
RTVSPost2010Prop38
140
0.0
102
RTVSPost2010PropOp38
 70
     1
102
RTVSPost2010Prop39
140
1.0
102
RTVSPost2010PropOp39
 70
     1
102
RTVSPost2010Prop40
 90
        0
102
RTVSPost2010PropOp40
 70
     1
102
RTVSPost2010Prop41ColorIndex
 90
       18
102
RTVSPost2010Prop41ColorRGB
 90
        0
102
RTVSPost2010PropOp41
 70
     1
102
RTVSPost2010Prop42
 90
       50
102
RTVSPost2010PropOp42
 70
     1
102
RTVSPost2010Prop43
 90
        3
102
RTVSPost2010PropOp43
 70
     1
102
RTVSPost2010Prop44ColorIndex
 90
        5
102
RTVSPost2010Prop44ColorRGB
 90
      255
102
RTVSPost2010PropOp44
 70
     1
102
RTVSPost2010Prop45
280
     0
102
RTVSPost2010PropOp45
 70
     1
102
RTVSPost2010Prop46
 90
       50
102
RTVSPost2010PropOp46
 70
     1
102
RTVSPost2010Prop47
 90
       50
102
RTVSPost2010PropOp47
 70
     1
102
RTVSPost2010Prop48
 90
       50
102
RTVSPost2010PropOp48
 70
     1
102
RTVSPost2010Prop49
280
     0
102
RTVSPost2010PropOp49
 70
     1
102
RTVSPost2010Prop50
 90
       50
102
RTVSPost2010PropOp50
 70
     1
102
RTVSPost2010Prop51ColorIndex
 90
      256
102
RTVSPost2010Prop51ColorRGB
 90
-16777216
102
RTVSPost2010PropOp51
 70
     0
102
RTVSPost2010Prop52
140
1.0
102
RTVSPost2010PropOp52
 70
     0
102
RTVSPost2010Prop53
 90
        2
102
RTVSPost2010PropOp53
 70
     1
102
RTVSPost2010Prop54
  1
strokes_ogs.tif
102
RTVSPost2010PropOp54
 70
     1
102
RTVSPost2010Prop55
280
     0
102
RTVSPost2010PropOp55
 70
     1
102
RTVSPost2010Prop56
140
1.0
102
RTVSPost2010PropOp56
 70
     1
102
RTVSPost2010Prop57
140
1.0
102
RTVSPost2010PropOp57
 70
     1
  0
XRECORD
  5
6D4
102
{ACAD_REACTORS
330
6D3
102
}
330
6D3
100
AcDbXrecord
280
     1
102
RTVSPost2010Prop28
280
     0
102
RTVSPost2010PropOp28
 70
     0
102
RTVSPost2010Prop29
280
     1
102
RTVSPost2010PropOp29
 70
     0
102
RTVSPost2010Prop30
280
     1
102
RTVSPost2010PropOp30
 70
     0
102
RTVSPost2010Prop31
280
     0
102
RTVSPost2010PropOp31
 70
     0
102
RTVSPost2010Prop32
280
     0
102
RTVSPost2010PropOp32
 70
     0
102
RTVSPost2010Prop33
280
     0
102
RTVSPost2010PropOp33
 70
     0
102
RTVSPost2010Prop34
280
     0
102
RTVSPost2010PropOp34
 70
     0
102
RTVSPost2010Prop35
280
     0
102
RTVSPost2010PropOp35
 70
     0
102
RTVSPost2010Prop36
280
     0
102
RTVSPost2010PropOp36
 70
     0
102
RTVSPost2010Prop37
 90
       50
102
RTVSPost2010PropOp37
 70
     0
102
RTVSPost2010Prop38
140
0.0
102
RTVSPost2010PropOp38
 70
     0
102
RTVSPost2010Prop39
140
1.0
102
RTVSPost2010PropOp39
 70
     0
102
RTVSPost2010Prop40
 90
        0
102
RTVSPost2010PropOp40
 70
     0
102
RTVSPost2010Prop41ColorIndex
 90
       18
102
RTVSPost2010Prop41ColorRGB
 90
        0
102
RTVSPost2010PropOp41
 70
     0
102
RTVSPost2010Prop42
 90
       50
102
RTVSPost2010PropOp42
 70
     0
102
RTVSPost2010Prop43
 90
        3
102
RTVSPost2010PropOp43
 70
     0
102
RTVSPost2010Prop44ColorIndex
 90
        5
102
RTVSPost2010Prop44ColorRGB
 90
      255
102
RTVSPost2010PropOp44
 70
     0
102
RTVSPost2010Prop45
280
     0
102
RTVSPost2010PropOp45
 70
     0
102
RTVSPost2010Prop46
 90
       50
102
RTVSPost2010PropOp46
 70
     0
102
RTVSPost2010Prop47
 90
       50
102
RTVSPost2010PropOp47
 70
     0
102
RTVSPost2010Prop48
 90
       50
102
RTVSPost2010PropOp48
 70
     0
102
RTVSPost2010Prop49
280
     0
102
RTVSPost2010PropOp49
 70
     0
102
RTVSPost2010Prop50
 90
       50
102
RTVSPost2010PropOp50
 70
     0
102
RTVSPost2010Prop51ColorIndex
 90
      256
102
RTVSPost2010Prop51ColorRGB
 90
-16777216
102
RTVSPost2010PropOp51
 70
     0
102
RTVSPost2010Prop52
140
1.0
102
RTVSPost2010PropOp52
 70
     0
102
RTVSPost2010Prop53
 90
        2
102
RTVSPost2010PropOp53
 70
     0
102
RTVSPost2010Prop54
  1
strokes_ogs.tif
102
RTVSPost2010PropOp54
 70
     0
102
RTVSPost2010Prop55
280
     0
102
RTVSPost2010PropOp55
 70
     0
102
RTVSPost2010Prop56
140
1.0
102
RTVSPost2010PropOp56
 70
     0
102
RTVSPost2010Prop57
140
1.0
102
RTVSPost2010PropOp57
 70
     0
  0
XRECORD
  5
6BE
102
{ACAD_REACTORS
330
6BD
102
}
330
6BD
100
AcDbXrecord
280
     1
102
RTVSPost2010Prop28
280
     0
102
RTVSPost2010PropOp28
 70
     1
102
RTVSPost2010Prop29
280
     1
102
RTVSPost2010PropOp29
 70
     1
102
RTVSPost2010Prop30
280
     1
102
RTVSPost2010PropOp30
 70
     1
102
RTVSPost2010Prop31
280
     0
102
RTVSPost2010PropOp31
 70
     1
102
RTVSPost2010Prop32
280
     0
102
RTVSPost2010PropOp32
 70
     1
102
RTVSPost2010Prop33
280
     0
102
RTVSPost2010PropOp33
 70
     1
102
RTVSPost2010Prop34
280
     0
102
RTVSPost2010PropOp34
 70
     1
102
RTVSPost2010Prop35
280
     0
102
RTVSPost2010PropOp35
 70
     1
102
RTVSPost2010Prop36
280
     0
102
RTVSPost2010PropOp36
 70
     1
102
RTVSPost2010Prop37
 90
       50
102
RTVSPost2010PropOp37
 70
     1
102
RTVSPost2010Prop38
140
0.0
102
RTVSPost2010PropOp38
 70
     1
102
RTVSPost2010Prop39
140
1.0
102
RTVSPost2010PropOp39
 70
     1
102
RTVSPost2010Prop40
 90
        0
102
RTVSPost2010PropOp40
 70
     1
102
RTVSPost2010Prop41ColorIndex
 90
       18
102
RTVSPost2010Prop41ColorRGB
 90
        0
102
RTVSPost2010PropOp41
 70
     1
102
RTVSPost2010Prop42
 90
       50
102
RTVSPost2010PropOp42
 70
     1
102
RTVSPost2010Prop43
 90
        3
102
RTVSPost2010PropOp43
 70
     1
102
RTVSPost2010Prop44ColorIndex
 90
        5
102
RTVSPost2010Prop44ColorRGB
 90
      255
102
RTVSPost2010PropOp44
 70
     1
102
RTVSPost2010Prop45
280
     0
102
RTVSPost2010PropOp45
 70
     1
102
RTVSPost2010Prop46
 90
       50
102
RTVSPost2010PropOp46
 70
     1
102
RTVSPost2010Prop47
 90
       50
102
RTVSPost2010PropOp47
 70
     1
102
RTVSPost2010Prop48
 90
       50
102
RTVSPost2010PropOp48
 70
     1
102
RTVSPost2010Prop49
280
     0
102
RTVSPost2010PropOp49
 70
     1
102
RTVSPost2010Prop50
 90
       50
102
RTVSPost2010PropOp50
 70
     1
102
RTVSPost2010Prop51ColorIndex
 90
      256
102
RTVSPost2010Prop51ColorRGB
 90
-16777216
102
RTVSPost2010PropOp51
 70
     0
102
RTVSPost2010Prop52
140
1.0
102
RTVSPost2010PropOp52
 70
     0
102
RTVSPost2010Prop53
 90
        2
102
RTVSPost2010PropOp53
 70
     1
102
RTVSPost2010Prop54
  1
strokes_ogs.tif
102
RTVSPost2010PropOp54
 70
     1
102
RTVSPost2010Prop55
280
     0
102
RTVSPost2010PropOp55
 70
     1
102
RTVSPost2010Prop56
140
1.0
102
RTVSPost2010PropOp56
 70
     1
102
RTVSPost2010Prop57
140
1.0
102
RTVSPost2010PropOp57
 70
     1
  0
XRECORD
  5
6A2
102
{ACAD_REACTORS
330
6A1
102
}
330
6A1
100
AcDbXrecord
280
     1
102
RTVSPost2010Prop28
280
     0
102
RTVSPost2010PropOp28
 70
     1
102
RTVSPost2010Prop29
280
     1
102
RTVSPost2010PropOp29
 70
     1
102
RTVSPost2010Prop30
280
     1
102
RTVSPost2010PropOp30
 70
     1
102
RTVSPost2010Prop31
280
     0
102
RTVSPost2010PropOp31
 70
     1
102
RTVSPost2010Prop32
280
     0
102
RTVSPost2010PropOp32
 70
     1
102
RTVSPost2010Prop33
280
     0
102
RTVSPost2010PropOp33
 70
     1
102
RTVSPost2010Prop34
280
     0
102
RTVSPost2010PropOp34
 70
     1
102
RTVSPost2010Prop35
280
     0
102
RTVSPost2010PropOp35
 70
     1
102
RTVSPost2010Prop36
280
     0
102
RTVSPost2010PropOp36
 70
     1
102
RTVSPost2010Prop37
 90
       50
102
RTVSPost2010PropOp37
 70
     1
102
RTVSPost2010Prop38
140
0.0
102
RTVSPost2010PropOp38
 70
     1
102
RTVSPost2010Prop39
140
1.0
102
RTVSPost2010PropOp39
 70
     1
102
RTVSPost2010Prop40
 90
        0
102
RTVSPost2010PropOp40
 70
     1
102
RTVSPost2010Prop41ColorIndex
 90
       18
102
RTVSPost2010Prop41ColorRGB
 90
        0
102
RTVSPost2010PropOp41
 70
     1
102
RTVSPost2010Prop42
 90
       50
102
RTVSPost2010PropOp42
 70
     1
102
RTVSPost2010Prop43
 90
        3
102
RTVSPost2010PropOp43
 70
     1
102
RTVSPost2010Prop44ColorIndex
 90
        5
102
RTVSPost2010Prop44ColorRGB
 90
      255
102
RTVSPost2010PropOp44
 70
     1
102
RTVSPost2010Prop45
280
     0
102
RTVSPost2010PropOp45
 70
     1
102
RTVSPost2010Prop46
 90
       50
102
RTVSPost2010PropOp46
 70
     1
102
RTVSPost2010Prop47
 90
       50
102
RTVSPost2010PropOp47
 70
     1
102
RTVSPost2010Prop48
 90
       50
102
RTVSPost2010PropOp48
 70
     1
102
RTVSPost2010Prop49
280
     0
102
RTVSPost2010PropOp49
 70
     1
102
RTVSPost2010Prop50
 90
       50
102
RTVSPost2010PropOp50
 70
     1
102
RTVSPost2010Prop51ColorIndex
 90
      256
102
RTVSPost2010Prop51ColorRGB
 90
-16777216
102
RTVSPost2010PropOp51
 70
     0
102
RTVSPost2010Prop52
140
1.0
102
RTVSPost2010PropOp52
 70
     0
102
RTVSPost2010Prop53
 90
        2
102
RTVSPost2010PropOp53
 70
     1
102
RTVSPost2010Prop54
  1
strokes_ogs.tif
102
RTVSPost2010PropOp54
 70
     1
102
RTVSPost2010Prop55
280
     0
102
RTVSPost2010PropOp55
 70
     1
102
RTVSPost2010Prop56
140
1.0
102
RTVSPost2010PropOp56
 70
     1
102
RTVSPost2010Prop57
140
1.0
102
RTVSPost2010PropOp57
 70
     1
  0
XRECORD
  5
6A4
102
{ACAD_REACTORS
330
6A3
102
}
330
6A3
100
AcDbXrecord
280
     1
102
RTVSPost2010Prop28
280
     0
102
RTVSPost2010PropOp28
 70
     1
102
RTVSPost2010Prop29
280
     1
102
RTVSPost2010PropOp29
 70
     1
102
RTVSPost2010Prop30
280
     1
102
RTVSPost2010PropOp30
 70
     1
102
RTVSPost2010Prop31
280
     0
102
RTVSPost2010PropOp31
 70
     1
102
RTVSPost2010Prop32
280
     0
102
RTVSPost2010PropOp32
 70
     1
102
RTVSPost2010Prop33
280
     0
102
RTVSPost2010PropOp33
 70
     1
102
RTVSPost2010Prop34
280
     0
102
RTVSPost2010PropOp34
 70
     1
102
RTVSPost2010Prop35
280
     0
102
RTVSPost2010PropOp35
 70
     1
102
RTVSPost2010Prop36
280
     0
102
RTVSPost2010PropOp36
 70
     1
102
RTVSPost2010Prop37
 90
       50
102
RTVSPost2010PropOp37
 70
     1
102
RTVSPost2010Prop38
140
0.0
102
RTVSPost2010PropOp38
 70
     1
102
RTVSPost2010Prop39
140
1.0
102
RTVSPost2010PropOp39
 70
     1
102
RTVSPost2010Prop40
 90
        0
102
RTVSPost2010PropOp40
 70
     1
102
RTVSPost2010Prop41ColorIndex
 90
       18
102
RTVSPost2010Prop41ColorRGB
 90
        0
102
RTVSPost2010PropOp41
 70
     1
102
RTVSPost2010Prop42
 90
       50
102
RTVSPost2010PropOp42
 70
     1
102
RTVSPost2010Prop43
 90
        3
102
RTVSPost2010PropOp43
 70
     1
102
RTVSPost2010Prop44ColorIndex
 90
        5
102
RTVSPost2010Prop44ColorRGB
 90
      255
102
RTVSPost2010PropOp44
 70
     1
102
RTVSPost2010Prop45
280
     0
102
RTVSPost2010PropOp45
 70
     1
102
RTVSPost2010Prop46
 90
       50
102
RTVSPost2010PropOp46
 70
     1
102
RTVSPost2010Prop47
 90
       50
102
RTVSPost2010PropOp47
 70
     1
102
RTVSPost2010Prop48
 90
       50
102
RTVSPost2010PropOp48
 70
     1
102
RTVSPost2010Prop49
280
     0
102
RTVSPost2010PropOp49
 70
     1
102
RTVSPost2010Prop50
 90
       50
102
RTVSPost2010PropOp50
 70
     1
102
RTVSPost2010Prop51ColorIndex
 90
      256
102
RTVSPost2010Prop51ColorRGB
 90
-16777216
102
RTVSPost2010PropOp51
 70
     0
102
RTVSPost2010Prop52
140
1.0
102
RTVSPost2010PropOp52
 70
     0
102
RTVSPost2010Prop53
 90
        2
102
RTVSPost2010PropOp53
 70
     1
102
RTVSPost2010Prop54
  1
strokes_ogs.tif
102
RTVSPost2010PropOp54
 70
     1
102
RTVSPost2010Prop55
280
     0
102
RTVSPost2010PropOp55
 70
     1
102
RTVSPost2010Prop56
140
1.0
102
RTVSPost2010PropOp56
 70
     1
102
RTVSPost2010Prop57
140
1.0
102
RTVSPost2010PropOp57
 70
     1
  0
XRECORD
  5
6A6
102
{ACAD_REACTORS
330
6A5
102
}
330
6A5
100
AcDbXrecord
280
     1
102
RTVSPost2010Prop28
280
     0
102
RTVSPost2010PropOp28
 70
     1
102
RTVSPost2010Prop29
280
     1
102
RTVSPost2010PropOp29
 70
     1
102
RTVSPost2010Prop30
280
     1
102
RTVSPost2010PropOp30
 70
     1
102
RTVSPost2010Prop31
280
     0
102
RTVSPost2010PropOp31
 70
     1
102
RTVSPost2010Prop32
280
     0
102
RTVSPost2010PropOp32
 70
     1
102
RTVSPost2010Prop33
280
     0
102
RTVSPost2010PropOp33
 70
     1
102
RTVSPost2010Prop34
280
     0
102
RTVSPost2010PropOp34
 70
     1
102
RTVSPost2010Prop35
280
     0
102
RTVSPost2010PropOp35
 70
     1
102
RTVSPost2010Prop36
280
     0
102
RTVSPost2010PropOp36
 70
     1
102
RTVSPost2010Prop37
 90
       50
102
RTVSPost2010PropOp37
 70
     1
102
RTVSPost2010Prop38
140
0.0
102
RTVSPost2010PropOp38
 70
     1
102
RTVSPost2010Prop39
140
1.0
102
RTVSPost2010PropOp39
 70
     1
102
RTVSPost2010Prop40
 90
        0
102
RTVSPost2010PropOp40
 70
     1
102
RTVSPost2010Prop41ColorIndex
 90
       18
102
RTVSPost2010Prop41ColorRGB
 90
        0
102
RTVSPost2010PropOp41
 70
     1
102
RTVSPost2010Prop42
 90
       50
102
RTVSPost2010PropOp42
 70
     1
102
RTVSPost2010Prop43
 90
        3
102
RTVSPost2010PropOp43
 70
     1
102
RTVSPost2010Prop44ColorIndex
 90
        5
102
RTVSPost2010Prop44ColorRGB
 90
      255
102
RTVSPost2010PropOp44
 70
     1
102
RTVSPost2010Prop45
280
     0
102
RTVSPost2010PropOp45
 70
     1
102
RTVSPost2010Prop46
 90
       50
102
RTVSPost2010PropOp46
 70
     1
102
RTVSPost2010Prop47
 90
       50
102
RTVSPost2010PropOp47
 70
     1
102
RTVSPost2010Prop48
 90
       50
102
RTVSPost2010PropOp48
 70
     1
102
RTVSPost2010Prop49
280
     0
102
RTVSPost2010PropOp49
 70
     1
102
RTVSPost2010Prop50
 90
       50
102
RTVSPost2010PropOp50
 70
     1
102
RTVSPost2010Prop51ColorIndex
 90
      256
102
RTVSPost2010Prop51ColorRGB
 90
-16777216
102
RTVSPost2010PropOp51
 70
     0
102
RTVSPost2010Prop52
140
1.0
102
RTVSPost2010PropOp52
 70
     0
102
RTVSPost2010Prop53
 90
        2
102
RTVSPost2010PropOp53
 70
     1
102
RTVSPost2010Prop54
  1
strokes_ogs.tif
102
RTVSPost2010PropOp54
 70
     1
102
RTVSPost2010Prop55
280
     0
102
RTVSPost2010PropOp55
 70
     1
102
RTVSPost2010Prop56
140
1.0
102
RTVSPost2010PropOp56
 70
     1
102
RTVSPost2010Prop57
140
1.0
102
RTVSPost2010PropOp57
 70
     1
  0
XRECORD
  5
6A8
102
{ACAD_REACTORS
330
6A7
102
}
330
6A7
100
AcDbXrecord
280
     1
102
RTVSPost2010Prop28
280
     0
102
RTVSPost2010PropOp28
 70
     1
102
RTVSPost2010Prop29
280
     1
102
RTVSPost2010PropOp29
 70
     1
102
RTVSPost2010Prop30
280
     1
102
RTVSPost2010PropOp30
 70
     1
102
RTVSPost2010Prop31
280
     0
102
RTVSPost2010PropOp31
 70
     1
102
RTVSPost2010Prop32
280
     0
102
RTVSPost2010PropOp32
 70
     1
102
RTVSPost2010Prop33
280
     0
102
RTVSPost2010PropOp33
 70
     1
102
RTVSPost2010Prop34
280
     0
102
RTVSPost2010PropOp34
 70
     1
102
RTVSPost2010Prop35
280
     0
102
RTVSPost2010PropOp35
 70
     1
102
RTVSPost2010Prop36
280
     0
102
RTVSPost2010PropOp36
 70
     1
102
RTVSPost2010Prop37
 90
       50
102
RTVSPost2010PropOp37
 70
     1
102
RTVSPost2010Prop38
140
0.0
102
RTVSPost2010PropOp38
 70
     1
102
RTVSPost2010Prop39
140
1.0
102
RTVSPost2010PropOp39
 70
     1
102
RTVSPost2010Prop40
 90
        0
102
RTVSPost2010PropOp40
 70
     1
102
RTVSPost2010Prop41ColorIndex
 90
       18
102
RTVSPost2010Prop41ColorRGB
 90
        0
102
RTVSPost2010PropOp41
 70
     1
102
RTVSPost2010Prop42
 90
       50
102
RTVSPost2010PropOp42
 70
     1
102
RTVSPost2010Prop43
 90
        3
102
RTVSPost2010PropOp43
 70
     1
102
RTVSPost2010Prop44ColorIndex
 90
        5
102
RTVSPost2010Prop44ColorRGB
 90
      255
102
RTVSPost2010PropOp44
 70
     1
102
RTVSPost2010Prop45
280
     0
102
RTVSPost2010PropOp45
 70
     1
102
RTVSPost2010Prop46
 90
       50
102
RTVSPost2010PropOp46
 70
     1
102
RTVSPost2010Prop47
 90
       50
102
RTVSPost2010PropOp47
 70
     1
102
RTVSPost2010Prop48
 90
       50
102
RTVSPost2010PropOp48
 70
     1
102
RTVSPost2010Prop49
280
     0
102
RTVSPost2010PropOp49
 70
     1
102
RTVSPost2010Prop50
 90
       50
102
RTVSPost2010PropOp50
 70
     1
102
RTVSPost2010Prop51ColorIndex
 90
      256
102
RTVSPost2010Prop51ColorRGB
 90
-16777216
102
RTVSPost2010PropOp51
 70
     0
102
RTVSPost2010Prop52
140
1.0
102
RTVSPost2010PropOp52
 70
     0
102
RTVSPost2010Prop53
 90
        2
102
RTVSPost2010PropOp53
 70
     1
102
RTVSPost2010Prop54
  1
strokes_ogs.tif
102
RTVSPost2010PropOp54
 70
     1
102
RTVSPost2010Prop55
280
     0
102
RTVSPost2010PropOp55
 70
     1
102
RTVSPost2010Prop56
140
1.0
102
RTVSPost2010PropOp56
 70
     1
102
RTVSPost2010Prop57
140
1.0
102
RTVSPost2010PropOp57
 70
     1
  0
XRECORD
  5
6C4
102
{ACAD_REACTORS
330
6C3
102
}
330
6C3
100
AcDbXrecord
280
     1
102
RTVSPost2010Prop28
280
     0
102
RTVSPost2010PropOp28
 70
     1
102
RTVSPost2010Prop29
280
     1
102
RTVSPost2010PropOp29
 70
     1
102
RTVSPost2010Prop30
280
     1
102
RTVSPost2010PropOp30
 70
     1
102
RTVSPost2010Prop31
280
     0
102
RTVSPost2010PropOp31
 70
     1
102
RTVSPost2010Prop32
280
     0
102
RTVSPost2010PropOp32
 70
     1
102
RTVSPost2010Prop33
280
     0
102
RTVSPost2010PropOp33
 70
     1
102
RTVSPost2010Prop34
280
     0
102
RTVSPost2010PropOp34
 70
     1
102
RTVSPost2010Prop35
280
     0
102
RTVSPost2010PropOp35
 70
     1
102
RTVSPost2010Prop36
280
     0
102
RTVSPost2010PropOp36
 70
     1
102
RTVSPost2010Prop37
 90
       50
102
RTVSPost2010PropOp37
 70
     1
102
RTVSPost2010Prop38
140
0.0
102
RTVSPost2010PropOp38
 70
     1
102
RTVSPost2010Prop39
140
1.0
102
RTVSPost2010PropOp39
 70
     1
102
RTVSPost2010Prop40
 90
        0
102
RTVSPost2010PropOp40
 70
     1
102
RTVSPost2010Prop41ColorIndex
 90
       18
102
RTVSPost2010Prop41ColorRGB
 90
        0
102
RTVSPost2010PropOp41
 70
     1
102
RTVSPost2010Prop42
 90
       50
102
RTVSPost2010PropOp42
 70
     1
102
RTVSPost2010Prop43
 90
        3
102
RTVSPost2010PropOp43
 70
     1
102
RTVSPost2010Prop44ColorIndex
 90
        5
102
RTVSPost2010Prop44ColorRGB
 90
      255
102
RTVSPost2010PropOp44
 70
     1
102
RTVSPost2010Prop45
280
     0
102
RTVSPost2010PropOp45
 70
     1
102
RTVSPost2010Prop46
 90
       50
102
RTVSPost2010PropOp46
 70
     1
102
RTVSPost2010Prop47
 90
       50
102
RTVSPost2010PropOp47
 70
     1
102
RTVSPost2010Prop48
 90
       50
102
RTVSPost2010PropOp48
 70
     1
102
RTVSPost2010Prop49
280
     0
102
RTVSPost2010PropOp49
 70
     1
102
RTVSPost2010Prop50
 90
       50
102
RTVSPost2010PropOp50
 70
     1
102
RTVSPost2010Prop51ColorIndex
 90
      256
102
RTVSPost2010Prop51ColorRGB
 90
-16777216
102
RTVSPost2010PropOp51
 70
     0
102
RTVSPost2010Prop52
140
1.0
102
RTVSPost2010PropOp52
 70
     0
102
RTVSPost2010Prop53
 90
        2
102
RTVSPost2010PropOp53
 70
     1
102
RTVSPost2010Prop54
  1
strokes_ogs.tif
102
RTVSPost2010PropOp54
 70
     1
102
RTVSPost2010Prop55
280
     0
102
RTVSPost2010PropOp55
 70
     1
102
RTVSPost2010Prop56
140
1.0
102
RTVSPost2010PropOp56
 70
     1
102
RTVSPost2010Prop57
140
1.0
102
RTVSPost2010PropOp57
 70
     1
  0
XRECORD
  5
6D0
102
{ACAD_REACTORS
330
6CF
102
}
330
6CF
100
AcDbXrecord
280
     1
102
RTVSPost2010Prop28
280
     0
102
RTVSPost2010PropOp28
 70
     0
102
RTVSPost2010Prop29
280
     1
102
RTVSPost2010PropOp29
 70
     0
102
RTVSPost2010Prop30
280
     1
102
RTVSPost2010PropOp30
 70
     0
102
RTVSPost2010Prop31
280
     0
102
RTVSPost2010PropOp31
 70
     0
102
RTVSPost2010Prop32
280
     0
102
RTVSPost2010PropOp32
 70
     0
102
RTVSPost2010Prop33
280
     0
102
RTVSPost2010PropOp33
 70
     0
102
RTVSPost2010Prop34
280
     0
102
RTVSPost2010PropOp34
 70
     0
102
RTVSPost2010Prop35
280
     0
102
RTVSPost2010PropOp35
 70
     0
102
RTVSPost2010Prop36
280
     0
102
RTVSPost2010PropOp36
 70
     0
102
RTVSPost2010Prop37
 90
       50
102
RTVSPost2010PropOp37
 70
     0
102
RTVSPost2010Prop38
140
0.0
102
RTVSPost2010PropOp38
 70
     0
102
RTVSPost2010Prop39
140
1.0
102
RTVSPost2010PropOp39
 70
     0
102
RTVSPost2010Prop40
 90
        0
102
RTVSPost2010PropOp40
 70
     0
102
RTVSPost2010Prop41ColorIndex
 90
       18
102
RTVSPost2010Prop41ColorRGB
 90
        0
102
RTVSPost2010PropOp41
 70
     0
102
RTVSPost2010Prop42
 90
       50
102
RTVSPost2010PropOp42
 70
     0
102
RTVSPost2010Prop43
 90
        3
102
RTVSPost2010PropOp43
 70
     0
102
RTVSPost2010Prop44ColorIndex
 90
        5
102
RTVSPost2010Prop44ColorRGB
 90
      255
102
RTVSPost2010PropOp44
 70
     0
102
RTVSPost2010Prop45
280
     0
102
RTVSPost2010PropOp45
 70
     0
102
RTVSPost2010Prop46
 90
       50
102
RTVSPost2010PropOp46
 70
     0
102
RTVSPost2010Prop47
 90
       50
102
RTVSPost2010PropOp47
 70
     0
102
RTVSPost2010Prop48
 90
       50
102
RTVSPost2010PropOp48
 70
     0
102
RTVSPost2010Prop49
280
     0
102
RTVSPost2010PropOp49
 70
     0
102
RTVSPost2010Prop50
 90
       50
102
RTVSPost2010PropOp50
 70
     0
102
RTVSPost2010Prop51ColorIndex
 90
      256
102
RTVSPost2010Prop51ColorRGB
 90
-16777216
102
RTVSPost2010PropOp51
 70
     0
102
RTVSPost2010Prop52
140
1.0
102
RTVSPost2010PropOp52
 70
     0
102
RTVSPost2010Prop53
 90
        2
102
RTVSPost2010PropOp53
 70
     0
102
RTVSPost2010Prop54
  1
strokes_ogs.tif
102
RTVSPost2010PropOp54
 70
     0
102
RTVSPost2010Prop55
280
     0
102
RTVSPost2010PropOp55
 70
     0
102
RTVSPost2010Prop56
140
1.0
102
RTVSPost2010PropOp56
 70
     0
102
RTVSPost2010Prop57
140
1.0
102
RTVSPost2010PropOp57
 70
     0
  0
XRECORD
  5
6BC
102
{ACAD_REACTORS
330
6BB
102
}
330
6BB
100
AcDbXrecord
280
     1
102
RTVSPost2010Prop28
280
     0
102
RTVSPost2010PropOp28
 70
     1
102
RTVSPost2010Prop29
280
     1
102
RTVSPost2010PropOp29
 70
     1
102
RTVSPost2010Prop30
280
     1
102
RTVSPost2010PropOp30
 70
     1
102
RTVSPost2010Prop31
280
     0
102
RTVSPost2010PropOp31
 70
     1
102
RTVSPost2010Prop32
280
     0
102
RTVSPost2010PropOp32
 70
     1
102
RTVSPost2010Prop33
280
     0
102
RTVSPost2010PropOp33
 70
     1
102
RTVSPost2010Prop34
280
     0
102
RTVSPost2010PropOp34
 70
     1
102
RTVSPost2010Prop35
280
     0
102
RTVSPost2010PropOp35
 70
     1
102
RTVSPost2010Prop36
280
     0
102
RTVSPost2010PropOp36
 70
     1
102
RTVSPost2010Prop37
 90
       50
102
RTVSPost2010PropOp37
 70
     1
102
RTVSPost2010Prop38
140
0.0
102
RTVSPost2010PropOp38
 70
     1
102
RTVSPost2010Prop39
140
1.0
102
RTVSPost2010PropOp39
 70
     1
102
RTVSPost2010Prop40
 90
        0
102
RTVSPost2010PropOp40
 70
     1
102
RTVSPost2010Prop41ColorIndex
 90
       18
102
RTVSPost2010Prop41ColorRGB
 90
        0
102
RTVSPost2010PropOp41
 70
     1
102
RTVSPost2010Prop42
 90
       50
102
RTVSPost2010PropOp42
 70
     1
102
RTVSPost2010Prop43
 90
        3
102
RTVSPost2010PropOp43
 70
     1
102
RTVSPost2010Prop44ColorIndex
 90
        5
102
RTVSPost2010Prop44ColorRGB
 90
      255
102
RTVSPost2010PropOp44
 70
     1
102
RTVSPost2010Prop45
280
     0
102
RTVSPost2010PropOp45
 70
     1
102
RTVSPost2010Prop46
 90
       50
102
RTVSPost2010PropOp46
 70
     1
102
RTVSPost2010Prop47
 90
       50
102
RTVSPost2010PropOp47
 70
     1
102
RTVSPost2010Prop48
 90
       50
102
RTVSPost2010PropOp48
 70
     1
102
RTVSPost2010Prop49
280
     0
102
RTVSPost2010PropOp49
 70
     1
102
RTVSPost2010Prop50
 90
       50
102
RTVSPost2010PropOp50
 70
     1
102
RTVSPost2010Prop51ColorIndex
 90
      256
102
RTVSPost2010Prop51ColorRGB
 90
-16777216
102
RTVSPost2010PropOp51
 70
     0
102
RTVSPost2010Prop52
140
1.0
102
RTVSPost2010PropOp52
 70
     0
102
RTVSPost2010Prop53
 90
        2
102
RTVSPost2010PropOp53
 70
     1
102
RTVSPost2010Prop54
  1
strokes_ogs.tif
102
RTVSPost2010PropOp54
 70
     1
102
RTVSPost2010Prop55
280
     0
102
RTVSPost2010PropOp55
 70
     1
102
RTVSPost2010Prop56
140
1.0
102
RTVSPost2010PropOp56
 70
     1
102
RTVSPost2010Prop57
140
1.0
102
RTVSPost2010PropOp57
 70
     1
  0
XRECORD
  5
6D2
102
{ACAD_REACTORS
330
6D1
102
}
330
6D1
100
AcDbXrecord
280
     1
102
RTVSPost2010Prop28
280
     0
102
RTVSPost2010PropOp28
 70
     0
102
RTVSPost2010Prop29
280
     1
102
RTVSPost2010PropOp29
 70
     0
102
RTVSPost2010Prop30
280
     1
102
RTVSPost2010PropOp30
 70
     0
102
RTVSPost2010Prop31
280
     0
102
RTVSPost2010PropOp31
 70
     0
102
RTVSPost2010Prop32
280
     0
102
RTVSPost2010PropOp32
 70
     0
102
RTVSPost2010Prop33
280
     0
102
RTVSPost2010PropOp33
 70
     0
102
RTVSPost2010Prop34
280
     0
102
RTVSPost2010PropOp34
 70
     0
102
RTVSPost2010Prop35
280
     0
102
RTVSPost2010PropOp35
 70
     0
102
RTVSPost2010Prop36
280
     0
102
RTVSPost2010PropOp36
 70
     0
102
RTVSPost2010Prop37
 90
       50
102
RTVSPost2010PropOp37
 70
     0
102
RTVSPost2010Prop38
140
0.0
102
RTVSPost2010PropOp38
 70
     0
102
RTVSPost2010Prop39
140
1.0
102
RTVSPost2010PropOp39
 70
     0
102
RTVSPost2010Prop40
 90
        0
102
RTVSPost2010PropOp40
 70
     0
102
RTVSPost2010Prop41ColorIndex
 90
       18
102
RTVSPost2010Prop41ColorRGB
 90
        0
102
RTVSPost2010PropOp41
 70
     0
102
RTVSPost2010Prop42
 90
       50
102
RTVSPost2010PropOp42
 70
     0
102
RTVSPost2010Prop43
 90
        3
102
RTVSPost2010PropOp43
 70
     0
102
RTVSPost2010Prop44ColorIndex
 90
        5
102
RTVSPost2010Prop44ColorRGB
 90
      255
102
RTVSPost2010PropOp44
 70
     0
102
RTVSPost2010Prop45
280
     0
102
RTVSPost2010PropOp45
 70
     0
102
RTVSPost2010Prop46
 90
       50
102
RTVSPost2010PropOp46
 70
     0
102
RTVSPost2010Prop47
 90
       50
102
RTVSPost2010PropOp47
 70
     0
102
RTVSPost2010Prop48
 90
       50
102
RTVSPost2010PropOp48
 70
     0
102
RTVSPost2010Prop49
280
     0
102
RTVSPost2010PropOp49
 70
     0
102
RTVSPost2010Prop50
 90
       50
102
RTVSPost2010PropOp50
 70
     0
102
RTVSPost2010Prop51ColorIndex
 90
      256
102
RTVSPost2010Prop51ColorRGB
 90
-16777216
102
RTVSPost2010PropOp51
 70
     0
102
RTVSPost2010Prop52
140
1.0
102
RTVSPost2010PropOp52
 70
     0
102
RTVSPost2010Prop53
 90
        2
102
RTVSPost2010PropOp53
 70
     0
102
RTVSPost2010Prop54
  1
strokes_ogs.tif
102
RTVSPost2010PropOp54
 70
     0
102
RTVSPost2010Prop55
280
     0
102
RTVSPost2010PropOp55
 70
     0
102
RTVSPost2010Prop56
140
1.0
102
RTVSPost2010PropOp56
 70
     0
102
RTVSPost2010Prop57
140
1.0
102
RTVSPost2010PropOp57
 70
     0
  0
XRECORD
  5
6B2
102
{ACAD_REACTORS
330
6B1
102
}
330
6B1
100
AcDbXrecord
280
     1
102
RTVSPost2010Prop28
280
     0
102
RTVSPost2010PropOp28
 70
     1
102
RTVSPost2010Prop29
280
     1
102
RTVSPost2010PropOp29
 70
     1
102
RTVSPost2010Prop30
280
     1
102
RTVSPost2010PropOp30
 70
     1
102
RTVSPost2010Prop31
280
     0
102
RTVSPost2010PropOp31
 70
     1
102
RTVSPost2010Prop32
280
     0
102
RTVSPost2010PropOp32
 70
     1
102
RTVSPost2010Prop33
280
     0
102
RTVSPost2010PropOp33
 70
     1
102
RTVSPost2010Prop34
280
     0
102
RTVSPost2010PropOp34
 70
     1
102
RTVSPost2010Prop35
280
     0
102
RTVSPost2010PropOp35
 70
     1
102
RTVSPost2010Prop36
280
     0
102
RTVSPost2010PropOp36
 70
     1
102
RTVSPost2010Prop37
 90
       50
102
RTVSPost2010PropOp37
 70
     1
102
RTVSPost2010Prop38
140
0.0
102
RTVSPost2010PropOp38
 70
     1
102
RTVSPost2010Prop39
140
1.0
102
RTVSPost2010PropOp39
 70
     1
102
RTVSPost2010Prop40
 90
        0
102
RTVSPost2010PropOp40
 70
     1
102
RTVSPost2010Prop41ColorIndex
 90
       18
102
RTVSPost2010Prop41ColorRGB
 90
        0
102
RTVSPost2010PropOp41
 70
     1
102
RTVSPost2010Prop42
 90
       50
102
RTVSPost2010PropOp42
 70
     1
102
RTVSPost2010Prop43
 90
        3
102
RTVSPost2010PropOp43
 70
     1
102
RTVSPost2010Prop44ColorIndex
 90
        5
102
RTVSPost2010Prop44ColorRGB
 90
      255
102
RTVSPost2010PropOp44
 70
     1
102
RTVSPost2010Prop45
280
     0
102
RTVSPost2010PropOp45
 70
     1
102
RTVSPost2010Prop46
 90
       50
102
RTVSPost2010PropOp46
 70
     1
102
RTVSPost2010Prop47
 90
       50
102
RTVSPost2010PropOp47
 70
     1
102
RTVSPost2010Prop48
 90
       50
102
RTVSPost2010PropOp48
 70
     1
102
RTVSPost2010Prop49
280
     0
102
RTVSPost2010PropOp49
 70
     1
102
RTVSPost2010Prop50
 90
       50
102
RTVSPost2010PropOp50
 70
     1
102
RTVSPost2010Prop51ColorIndex
 90
      256
102
RTVSPost2010Prop51ColorRGB
 90
-16777216
102
RTVSPost2010PropOp51
 70
     0
102
RTVSPost2010Prop52
140
1.0
102
RTVSPost2010PropOp52
 70
     0
102
RTVSPost2010Prop53
 90
        2
102
RTVSPost2010PropOp53
 70
     1
102
RTVSPost2010Prop54
  1
strokes_ogs.tif
102
RTVSPost2010PropOp54
 70
     1
102
RTVSPost2010Prop55
280
     0
102
RTVSPost2010PropOp55
 70
     1
102
RTVSPost2010Prop56
140
1.0
102
RTVSPost2010PropOp56
 70
     1
102
RTVSPost2010Prop57
140
1.0
102
RTVSPost2010PropOp57
 70
     1
  0
XRECORD
  5
6CE
102
{ACAD_REACTORS
330
6CD
102
}
330
6CD
100
AcDbXrecord
280
     1
102
RTVSPost2010Prop28
280
     0
102
RTVSPost2010PropOp28
 70
     1
102
RTVSPost2010Prop29
280
     1
102
RTVSPost2010PropOp29
 70
     1
102
RTVSPost2010Prop30
280
     1
102
RTVSPost2010PropOp30
 70
     1
102
RTVSPost2010Prop31
280
     0
102
RTVSPost2010PropOp31
 70
     1
102
RTVSPost2010Prop32
280
     0
102
RTVSPost2010PropOp32
 70
     1
102
RTVSPost2010Prop33
280
     0
102
RTVSPost2010PropOp33
 70
     1
102
RTVSPost2010Prop34
280
     0
102
RTVSPost2010PropOp34
 70
     1
102
RTVSPost2010Prop35
280
     0
102
RTVSPost2010PropOp35
 70
     1
102
RTVSPost2010Prop36
280
     0
102
RTVSPost2010PropOp36
 70
     1
102
RTVSPost2010Prop37
 90
       50
102
RTVSPost2010PropOp37
 70
     1
102
RTVSPost2010Prop38
140
0.0
102
RTVSPost2010PropOp38
 70
     1
102
RTVSPost2010Prop39
140
1.0
102
RTVSPost2010PropOp39
 70
     1
102
RTVSPost2010Prop40
 90
        0
102
RTVSPost2010PropOp40
 70
     1
102
RTVSPost2010Prop41ColorIndex
 90
       18
102
RTVSPost2010Prop41ColorRGB
 90
        0
102
RTVSPost2010PropOp41
 70
     1
102
RTVSPost2010Prop42
 90
       50
102
RTVSPost2010PropOp42
 70
     1
102
RTVSPost2010Prop43
 90
        3
102
RTVSPost2010PropOp43
 70
     1
102
RTVSPost2010Prop44ColorIndex
 90
        5
102
RTVSPost2010Prop44ColorRGB
 90
      255
102
RTVSPost2010PropOp44
 70
     1
102
RTVSPost2010Prop45
280
     0
102
RTVSPost2010PropOp45
 70
     1
102
RTVSPost2010Prop46
 90
       50
102
RTVSPost2010PropOp46
 70
     1
102
RTVSPost2010Prop47
 90
       50
102
RTVSPost2010PropOp47
 70
     1
102
RTVSPost2010Prop48
 90
       50
102
RTVSPost2010PropOp48
 70
     1
102
RTVSPost2010Prop49
280
     0
102
RTVSPost2010PropOp49
 70
     1
102
RTVSPost2010Prop50
 90
       50
102
RTVSPost2010PropOp50
 70
     1
102
RTVSPost2010Prop51ColorIndex
 90
      256
102
RTVSPost2010Prop51ColorRGB
 90
-16777216
102
RTVSPost2010PropOp51
 70
     0
102
RTVSPost2010Prop52
140
1.0
102
RTVSPost2010PropOp52
 70
     0
102
RTVSPost2010Prop53
 90
        2
102
RTVSPost2010PropOp53
 70
     1
102
RTVSPost2010Prop54
  1
strokes_ogs.tif
102
RTVSPost2010PropOp54
 70
     1
102
RTVSPost2010Prop55
280
     0
102
RTVSPost2010PropOp55
 70
     1
102
RTVSPost2010Prop56
140
1.0
102
RTVSPost2010PropOp56
 70
     1
102
RTVSPost2010Prop57
140
1.0
102
RTVSPost2010PropOp57
 70
     1
  0
XRECORD
  5
6CC
102
{ACAD_REACTORS
330
6CB
102
}
330
6CB
100
AcDbXrecord
280
     1
102
RTVSPost2010Prop28
280
     0
102
RTVSPost2010PropOp28
 70
     1
102
RTVSPost2010Prop29
280
     1
102
RTVSPost2010PropOp29
 70
     1
102
RTVSPost2010Prop30
280
     1
102
RTVSPost2010PropOp30
 70
     1
102
RTVSPost2010Prop31
280
     0
102
RTVSPost2010PropOp31
 70
     1
102
RTVSPost2010Prop32
280
     0
102
RTVSPost2010PropOp32
 70
     1
102
RTVSPost2010Prop33
280
     0
102
RTVSPost2010PropOp33
 70
     1
102
RTVSPost2010Prop34
280
     0
102
RTVSPost2010PropOp34
 70
     1
102
RTVSPost2010Prop35
280
     0
102
RTVSPost2010PropOp35
 70
     1
102
RTVSPost2010Prop36
280
     0
102
RTVSPost2010PropOp36
 70
     1
102
RTVSPost2010Prop37
 90
       50
102
RTVSPost2010PropOp37
 70
     1
102
RTVSPost2010Prop38
140
0.0
102
RTVSPost2010PropOp38
 70
     1
102
RTVSPost2010Prop39
140
1.0
102
RTVSPost2010PropOp39
 70
     1
102
RTVSPost2010Prop40
 90
        0
102
RTVSPost2010PropOp40
 70
     1
102
RTVSPost2010Prop41ColorIndex
 90
       18
102
RTVSPost2010Prop41ColorRGB
 90
        0
102
RTVSPost2010PropOp41
 70
     1
102
RTVSPost2010Prop42
 90
       50
102
RTVSPost2010PropOp42
 70
     1
102
RTVSPost2010Prop43
 90
        3
102
RTVSPost2010PropOp43
 70
     1
102
RTVSPost2010Prop44ColorIndex
 90
        5
102
RTVSPost2010Prop44ColorRGB
 90
      255
102
RTVSPost2010PropOp44
 70
     1
102
RTVSPost2010Prop45
280
     0
102
RTVSPost2010PropOp45
 70
     1
102
RTVSPost2010Prop46
 90
       50
102
RTVSPost2010PropOp46
 70
     1
102
RTVSPost2010Prop47
 90
       50
102
RTVSPost2010PropOp47
 70
     1
102
RTVSPost2010Prop48
 90
       50
102
RTVSPost2010PropOp48
 70
     1
102
RTVSPost2010Prop49
280
     0
102
RTVSPost2010PropOp49
 70
     1
102
RTVSPost2010Prop50
 90
       50
102
RTVSPost2010PropOp50
 70
     1
102
RTVSPost2010Prop51ColorIndex
 90
      256
102
RTVSPost2010Prop51ColorRGB
 90
-16777216
102
RTVSPost2010PropOp51
 70
     0
102
RTVSPost2010Prop52
140
1.0
102
RTVSPost2010PropOp52
 70
     0
102
RTVSPost2010Prop53
 90
        2
102
RTVSPost2010PropOp53
 70
     1
102
RTVSPost2010Prop54
  1
strokes_ogs.tif
102
RTVSPost2010PropOp54
 70
     1
102
RTVSPost2010Prop55
280
     0
102
RTVSPost2010PropOp55
 70
     1
102
RTVSPost2010Prop56
140
1.0
102
RTVSPost2010PropOp56
 70
     1
102
RTVSPost2010Prop57
140
1.0
102
RTVSPost2010PropOp57
 70
     1
  0
XRECORD
  5
6C6
102
{ACAD_REACTORS
330
6C5
102
}
330
6C5
100
AcDbXrecord
280
     1
102
RTVSPost2010Prop28
280
     0
102
RTVSPost2010PropOp28
 70
     1
102
RTVSPost2010Prop29
280
     1
102
RTVSPost2010PropOp29
 70
     1
102
RTVSPost2010Prop30
280
     1
102
RTVSPost2010PropOp30
 70
     1
102
RTVSPost2010Prop31
280
     0
102
RTVSPost2010PropOp31
 70
     1
102
RTVSPost2010Prop32
280
     0
102
RTVSPost2010PropOp32
 70
     1
102
RTVSPost2010Prop33
280
     0
102
RTVSPost2010PropOp33
 70
     1
102
RTVSPost2010Prop34
280
     0
102
RTVSPost2010PropOp34
 70
     1
102
RTVSPost2010Prop35
280
     0
102
RTVSPost2010PropOp35
 70
     1
102
RTVSPost2010Prop36
280
     0
102
RTVSPost2010PropOp36
 70
     1
102
RTVSPost2010Prop37
 90
       50
102
RTVSPost2010PropOp37
 70
     1
102
RTVSPost2010Prop38
140
0.0
102
RTVSPost2010PropOp38
 70
     1
102
RTVSPost2010Prop39
140
1.0
102
RTVSPost2010PropOp39
 70
     1
102
RTVSPost2010Prop40
 90
        0
102
RTVSPost2010PropOp40
 70
     1
102
RTVSPost2010Prop41ColorIndex
 90
       18
102
RTVSPost2010Prop41ColorRGB
 90
        0
102
RTVSPost2010PropOp41
 70
     1
102
RTVSPost2010Prop42
 90
       50
102
RTVSPost2010PropOp42
 70
     1
102
RTVSPost2010Prop43
 90
        3
102
RTVSPost2010PropOp43
 70
     1
102
RTVSPost2010Prop44ColorIndex
 90
        5
102
RTVSPost2010Prop44ColorRGB
 90
      255
102
RTVSPost2010PropOp44
 70
     1
102
RTVSPost2010Prop45
280
     0
102
RTVSPost2010PropOp45
 70
     1
102
RTVSPost2010Prop46
 90
       50
102
RTVSPost2010PropOp46
 70
     1
102
RTVSPost2010Prop47
 90
       50
102
RTVSPost2010PropOp47
 70
     1
102
RTVSPost2010Prop48
 90
       50
102
RTVSPost2010PropOp48
 70
     1
102
RTVSPost2010Prop49
280
     0
102
RTVSPost2010PropOp49
 70
     1
102
RTVSPost2010Prop50
 90
       50
102
RTVSPost2010PropOp50
 70
     1
102
RTVSPost2010Prop51ColorIndex
 90
      256
102
RTVSPost2010Prop51ColorRGB
 90
-16777216
102
RTVSPost2010PropOp51
 70
     0
102
RTVSPost2010Prop52
140
1.0
102
RTVSPost2010PropOp52
 70
     0
102
RTVSPost2010Prop53
 90
        2
102
RTVSPost2010PropOp53
 70
     1
102
RTVSPost2010Prop54
  1
strokes_ogs.tif
102
RTVSPost2010PropOp54
 70
     1
102
RTVSPost2010Prop55
280
     0
102
RTVSPost2010PropOp55
 70
     1
102
RTVSPost2010Prop56
140
1.0
102
RTVSPost2010PropOp56
 70
     1
102
RTVSPost2010Prop57
140
1.0
102
RTVSPost2010PropOp57
 70
     1
  0
XRECORD
  5
6C8
102
{ACAD_REACTORS
330
6C7
102
}
330
6C7
100
AcDbXrecord
280
     1
102
RTVSPost2010Prop28
280
     0
102
RTVSPost2010PropOp28
 70
     1
102
RTVSPost2010Prop29
280
     1
102
RTVSPost2010PropOp29
 70
     1
102
RTVSPost2010Prop30
280
     1
102
RTVSPost2010PropOp30
 70
     1
102
RTVSPost2010Prop31
280
     0
102
RTVSPost2010PropOp31
 70
     1
102
RTVSPost2010Prop32
280
     0
102
RTVSPost2010PropOp32
 70
     1
102
RTVSPost2010Prop33
280
     0
102
RTVSPost2010PropOp33
 70
     1
102
RTVSPost2010Prop34
280
     0
102
RTVSPost2010PropOp34
 70
     1
102
RTVSPost2010Prop35
280
     0
102
RTVSPost2010PropOp35
 70
     1
102
RTVSPost2010Prop36
280
     0
102
RTVSPost2010PropOp36
 70
     1
102
RTVSPost2010Prop37
 90
       50
102
RTVSPost2010PropOp37
 70
     1
102
RTVSPost2010Prop38
140
0.0
102
RTVSPost2010PropOp38
 70
     1
102
RTVSPost2010Prop39
140
1.0
102
RTVSPost2010PropOp39
 70
     1
102
RTVSPost2010Prop40
 90
        0
102
RTVSPost2010PropOp40
 70
     1
102
RTVSPost2010Prop41ColorIndex
 90
       18
102
RTVSPost2010Prop41ColorRGB
 90
        0
102
RTVSPost2010PropOp41
 70
     1
102
RTVSPost2010Prop42
 90
       50
102
RTVSPost2010PropOp42
 70
     1
102
RTVSPost2010Prop43
 90
        3
102
RTVSPost2010PropOp43
 70
     1
102
RTVSPost2010Prop44ColorIndex
 90
        5
102
RTVSPost2010Prop44ColorRGB
 90
      255
102
RTVSPost2010PropOp44
 70
     1
102
RTVSPost2010Prop45
280
     0
102
RTVSPost2010PropOp45
 70
     1
102
RTVSPost2010Prop46
 90
       50
102
RTVSPost2010PropOp46
 70
     1
102
RTVSPost2010Prop47
 90
       50
102
RTVSPost2010PropOp47
 70
     1
102
RTVSPost2010Prop48
 90
       50
102
RTVSPost2010PropOp48
 70
     1
102
RTVSPost2010Prop49
280
     0
102
RTVSPost2010PropOp49
 70
     1
102
RTVSPost2010Prop50
 90
       50
102
RTVSPost2010PropOp50
 70
     1
102
RTVSPost2010Prop51ColorIndex
 90
      256
102
RTVSPost2010Prop51ColorRGB
 90
-16777216
102
RTVSPost2010PropOp51
 70
     0
102
RTVSPost2010Prop52
140
1.0
102
RTVSPost2010PropOp52
 70
     0
102
RTVSPost2010Prop53
 90
        2
102
RTVSPost2010PropOp53
 70
     1
102
RTVSPost2010Prop54
  1
strokes_ogs.tif
102
RTVSPost2010PropOp54
 70
     1
102
RTVSPost2010Prop55
280
     0
102
RTVSPost2010PropOp55
 70
     1
102
RTVSPost2010Prop56
140
1.0
102
RTVSPost2010PropOp56
 70
     1
102
RTVSPost2010Prop57
140
1.0
102
RTVSPost2010PropOp57
 70
     1
  0
XRECORD
  5
6BA
102
{ACAD_REACTORS
330
6B9
102
}
330
6B9
100
AcDbXrecord
280
     1
102
RTVSPost2010Prop28
280
     0
102
RTVSPost2010PropOp28
 70
     1
102
RTVSPost2010Prop29
280
     1
102
RTVSPost2010PropOp29
 70
     1
102
RTVSPost2010Prop30
280
     1
102
RTVSPost2010PropOp30
 70
     1
102
RTVSPost2010Prop31
280
     0
102
RTVSPost2010PropOp31
 70
     1
102
RTVSPost2010Prop32
280
     0
102
RTVSPost2010PropOp32
 70
     1
102
RTVSPost2010Prop33
280
     0
102
RTVSPost2010PropOp33
 70
     1
102
RTVSPost2010Prop34
280
     0
102
RTVSPost2010PropOp34
 70
     1
102
RTVSPost2010Prop35
280
     0
102
RTVSPost2010PropOp35
 70
     1
102
RTVSPost2010Prop36
280
     0
102
RTVSPost2010PropOp36
 70
     1
102
RTVSPost2010Prop37
 90
       50
102
RTVSPost2010PropOp37
 70
     1
102
RTVSPost2010Prop38
140
0.0
102
RTVSPost2010PropOp38
 70
     1
102
RTVSPost2010Prop39
140
1.0
102
RTVSPost2010PropOp39
 70
     1
102
RTVSPost2010Prop40
 90
        0
102
RTVSPost2010PropOp40
 70
     1
102
RTVSPost2010Prop41ColorIndex
 90
       18
102
RTVSPost2010Prop41ColorRGB
 90
        0
102
RTVSPost2010PropOp41
 70
     1
102
RTVSPost2010Prop42
 90
       50
102
RTVSPost2010PropOp42
 70
     1
102
RTVSPost2010Prop43
 90
        3
102
RTVSPost2010PropOp43
 70
     1
102
RTVSPost2010Prop44ColorIndex
 90
        5
102
RTVSPost2010Prop44ColorRGB
 90
      255
102
RTVSPost2010PropOp44
 70
     1
102
RTVSPost2010Prop45
280
     0
102
RTVSPost2010PropOp45
 70
     1
102
RTVSPost2010Prop46
 90
       50
102
RTVSPost2010PropOp46
 70
     1
102
RTVSPost2010Prop47
 90
       50
102
RTVSPost2010PropOp47
 70
     1
102
RTVSPost2010Prop48
 90
       50
102
RTVSPost2010PropOp48
 70
     1
102
RTVSPost2010Prop49
280
     0
102
RTVSPost2010PropOp49
 70
     1
102
RTVSPost2010Prop50
 90
       50
102
RTVSPost2010PropOp50
 70
     1
102
RTVSPost2010Prop51ColorIndex
 90
      256
102
RTVSPost2010Prop51ColorRGB
 90
-16777216
102
RTVSPost2010PropOp51
 70
     0
102
RTVSPost2010Prop52
140
1.0
102
RTVSPost2010PropOp52
 70
     0
102
RTVSPost2010Prop53
 90
        2
102
RTVSPost2010PropOp53
 70
     1
102
RTVSPost2010Prop54
  1
strokes_ogs.tif
102
RTVSPost2010PropOp54
 70
     1
102
RTVSPost2010Prop55
280
     0
102
RTVSPost2010PropOp55
 70
     1
102
RTVSPost2010Prop56
140
1.0
102
RTVSPost2010PropOp56
 70
     1
102
RTVSPost2010Prop57
140
1.0
102
RTVSPost2010PropOp57
 70
     1
  0
XRECORD
  5
6C2
102
{ACAD_REACTORS
330
6C1
102
}
330
6C1
100
AcDbXrecord
280
     1
102
RTVSPost2010Prop28
280
     0
102
RTVSPost2010PropOp28
 70
     1
102
RTVSPost2010Prop29
280
     1
102
RTVSPost2010PropOp29
 70
     1
102
RTVSPost2010Prop30
280
     1
102
RTVSPost2010PropOp30
 70
     1
102
RTVSPost2010Prop31
280
     0
102
RTVSPost2010PropOp31
 70
     1
102
RTVSPost2010Prop32
280
     0
102
RTVSPost2010PropOp32
 70
     1
102
RTVSPost2010Prop33
280
     0
102
RTVSPost2010PropOp33
 70
     1
102
RTVSPost2010Prop34
280
     0
102
RTVSPost2010PropOp34
 70
     1
102
RTVSPost2010Prop35
280
     0
102
RTVSPost2010PropOp35
 70
     1
102
RTVSPost2010Prop36
280
     0
102
RTVSPost2010PropOp36
 70
     1
102
RTVSPost2010Prop37
 90
       50
102
RTVSPost2010PropOp37
 70
     1
102
RTVSPost2010Prop38
140
0.0
102
RTVSPost2010PropOp38
 70
     1
102
RTVSPost2010Prop39
140
1.0
102
RTVSPost2010PropOp39
 70
     1
102
RTVSPost2010Prop40
 90
        0
102
RTVSPost2010PropOp40
 70
     1
102
RTVSPost2010Prop41ColorIndex
 90
       18
102
RTVSPost2010Prop41ColorRGB
 90
        0
102
RTVSPost2010PropOp41
 70
     1
102
RTVSPost2010Prop42
 90
       50
102
RTVSPost2010PropOp42
 70
     1
102
RTVSPost2010Prop43
 90
        3
102
RTVSPost2010PropOp43
 70
     1
102
RTVSPost2010Prop44ColorIndex
 90
        5
102
RTVSPost2010Prop44ColorRGB
 90
      255
102
RTVSPost2010PropOp44
 70
     1
102
RTVSPost2010Prop45
280
     0
102
RTVSPost2010PropOp45
 70
     1
102
RTVSPost2010Prop46
 90
       50
102
RTVSPost2010PropOp46
 70
     1
102
RTVSPost2010Prop47
 90
       50
102
RTVSPost2010PropOp47
 70
     1
102
RTVSPost2010Prop48
 90
       50
102
RTVSPost2010PropOp48
 70
     1
102
RTVSPost2010Prop49
280
     0
102
RTVSPost2010PropOp49
 70
     1
102
RTVSPost2010Prop50
 90
       50
102
RTVSPost2010PropOp50
 70
     1
102
RTVSPost2010Prop51ColorIndex
 90
      256
102
RTVSPost2010Prop51ColorRGB
 90
-16777216
102
RTVSPost2010PropOp51
 70
     0
102
RTVSPost2010Prop52
140
1.0
102
RTVSPost2010PropOp52
 70
     0
102
RTVSPost2010Prop53
 90
        2
102
RTVSPost2010PropOp53
 70
     1
102
RTVSPost2010Prop54
  1
strokes_ogs.tif
102
RTVSPost2010PropOp54
 70
     1
102
RTVSPost2010Prop55
280
     0
102
RTVSPost2010PropOp55
 70
     1
102
RTVSPost2010Prop56
140
1.0
102
RTVSPost2010PropOp56
 70
     1
102
RTVSPost2010Prop57
140
1.0
102
RTVSPost2010PropOp57
 70
     1
  0
XRECORD
  5
6CA
102
{ACAD_REACTORS
330
6C9
102
}
330
6C9
100
AcDbXrecord
280
     1
102
RTVSPost2010Prop28
280
     0
102
RTVSPost2010PropOp28
 70
     1
102
RTVSPost2010Prop29
280
     1
102
RTVSPost2010PropOp29
 70
     1
102
RTVSPost2010Prop30
280
     1
102
RTVSPost2010PropOp30
 70
     1
102
RTVSPost2010Prop31
280
     0
102
RTVSPost2010PropOp31
 70
     1
102
RTVSPost2010Prop32
280
     0
102
RTVSPost2010PropOp32
 70
     1
102
RTVSPost2010Prop33
280
     0
102
RTVSPost2010PropOp33
 70
     1
102
RTVSPost2010Prop34
280
     0
102
RTVSPost2010PropOp34
 70
     1
102
RTVSPost2010Prop35
280
     0
102
RTVSPost2010PropOp35
 70
     1
102
RTVSPost2010Prop36
280
     0
102
RTVSPost2010PropOp36
 70
     1
102
RTVSPost2010Prop37
 90
       50
102
RTVSPost2010PropOp37
 70
     1
102
RTVSPost2010Prop38
140
0.0
102
RTVSPost2010PropOp38
 70
     1
102
RTVSPost2010Prop39
140
1.0
102
RTVSPost2010PropOp39
 70
     1
102
RTVSPost2010Prop40
 90
        0
102
RTVSPost2010PropOp40
 70
     1
102
RTVSPost2010Prop41ColorIndex
 90
       18
102
RTVSPost2010Prop41ColorRGB
 90
        0
102
RTVSPost2010PropOp41
 70
     1
102
RTVSPost2010Prop42
 90
       50
102
RTVSPost2010PropOp42
 70
     1
102
RTVSPost2010Prop43
 90
        3
102
RTVSPost2010PropOp43
 70
     1
102
RTVSPost2010Prop44ColorIndex
 90
        5
102
RTVSPost2010Prop44ColorRGB
 90
      255
102
RTVSPost2010PropOp44
 70
     1
102
RTVSPost2010Prop45
280
     0
102
RTVSPost2010PropOp45
 70
     1
102
RTVSPost2010Prop46
 90
       50
102
RTVSPost2010PropOp46
 70
     1
102
RTVSPost2010Prop47
 90
       50
102
RTVSPost2010PropOp47
 70
     1
102
RTVSPost2010Prop48
 90
       50
102
RTVSPost2010PropOp48
 70
     1
102
RTVSPost2010Prop49
280
     0
102
RTVSPost2010PropOp49
 70
     1
102
RTVSPost2010Prop50
 90
       50
102
RTVSPost2010PropOp50
 70
     1
102
RTVSPost2010Prop51ColorIndex
 90
      256
102
RTVSPost2010Prop51ColorRGB
 90
-16777216
102
RTVSPost2010PropOp51
 70
     0
102
RTVSPost2010Prop52
140
1.0
102
RTVSPost2010PropOp52
 70
     0
102
RTVSPost2010Prop53
 90
        2
102
RTVSPost2010PropOp53
 70
     1
102
RTVSPost2010Prop54
  1
strokes_ogs.tif
102
RTVSPost2010PropOp54
 70
     1
102
RTVSPost2010Prop55
280
     0
102
RTVSPost2010PropOp55
 70
     1
102
RTVSPost2010Prop56
140
1.0
102
RTVSPost2010PropOp56
 70
     1
102
RTVSPost2010Prop57
140
1.0
102
RTVSPost2010PropOp57
 70
     1
  0
ENDSEC
  0
EOF
