  0
SECTION
  2
HEADER
  9
$ACADVER
  1
AC1024
  9
$ACADMAINTVER
 70
   226
  9
$DWGCODEPAGE
  3
ANSI_1252
  9
$LASTSAVEDBY
  1
RubenvandenEijkel
  9
$INSBASE
 10
0.0
 20
0.0
 30
0.0
  9
$EXTMIN
 10
-0.0320410123467809
 20
-0.0453151460337722
 30
-0.0320410123467809
  9
$EXTMAX
 10
1050.03204590179
 20
1485.045322061103
 30
0.0480664079636881
  9
$LIMMIN
 10
0.0
 20
0.0
  9
$LIMMAX
 10
1050.0
 20
1485.0
  9
$ORTHOMODE
 70
     0
  9
$REGENMODE
 70
     1
  9
$FILLMODE
 70
     1
  9
$QTEXTMODE
 70
     0
  9
$MIRRTEXT
 70
     1
  9
$LTSCALE
 40
1.0
  9
$ATTMODE
 70
     1
  9
$TEXTSIZE
 40
0.2
  9
$TRACEWID
 40
0.05
  9
$TEXTSTYLE
  7
Standard
  9
$CLAYER
  8
0
  9
$CELTYPE
  6
ByLayer
  9
$CECOLOR
 62
   256
  9
$CELTSCALE
 40
1.0
  9
$DISPSILH
 70
     0
  9
$DIMSCALE
 40
1.0
  9
$DIMASZ
 40
0.18
  9
$DIMEXO
 40
0.0625
  9
$DIMDLI
 40
0.38
  9
$DIMRND
 40
0.0
  9
$DIMDLE
 40
0.0
  9
$DIMEXE
 40
0.18
  9
$DIMTP
 40
0.0
  9
$DIMTM
 40
0.0
  9
$DIMTXT
 40
0.18
  9
$DIMCEN
 40
0.09
  9
$DIMTSZ
 40
0.0
  9
$DIMTOL
 70
     0
  9
$DIMLIM
 70
     0
  9
$DIMTIH
 70
     1
  9
$DIMTOH
 70
     1
  9
$DIMSE1
 70
     0
  9
$DIMSE2
 70
     0
  9
$DIMTAD
 70
     0
  9
$DIMZIN
 70
     0
  9
$DIMBLK
  1

  9
$DIMASO
 70
     1
  9
$DIMSHO
 70
     1
  9
$DIMPOST
  1

  9
$DIMAPOST
  1

  9
$DIMALT
 70
     0
  9
$DIMALTD
 70
     2
  9
$DIMALTF
 40
25.4
  9
$DIMLFAC
 40
1.0
  9
$DIMTOFL
 70
     0
  9
$DIMTVP
 40
0.0
  9
$DIMTIX
 70
     0
  9
$DIMSOXD
 70
     0
  9
$DIMSAH
 70
     0
  9
$DIMBLK1
  1

  9
$DIMBLK2
  1

  9
$DIMSTYLE
  2
Standard
  9
$DIMCLRD
 70
     0
  9
$DIMCLRE
 70
     0
  9
$DIMCLRT
 70
     0
  9
$DIMTFAC
 40
1.0
  9
$DIMGAP
 40
0.09
  9
$DIMJUST
 70
     0
  9
$DIMSD1
 70
     0
  9
$DIMSD2
 70
     0
  9
$DIMTOLJ
 70
     1
  9
$DIMTZIN
 70
     0
  9
$DIMALTZ
 70
     0
  9
$DIMALTTZ
 70
     0
  9
$DIMUPT
 70
     0
  9
$DIMDEC
 70
     4
  9
$DIMTDEC
 70
     4
  9
$DIMALTU
 70
     2
  9
$DIMALTTD
 70
     2
  9
$DIMTXSTY
  7
Standard
  9
$DIMAUNIT
 70
     0
  9
$DIMADEC
 70
     0
  9
$DIMALTRND
 40
0.0
  9
$DIMAZIN
 70
     0
  9
$DIMDSEP
 70
    46
  9
$DIMATFIT
 70
     3
  9
$DIMFRAC
 70
     0
  9
$DIMLDRBLK
  1

  9
$DIMLUNIT
 70
     2
  9
$DIMLWD
 70
    -2
  9
$DIMLWE
 70
    -2
  9
$DIMTMOVE
 70
     0
  9
$DIMFXL
 40
1.0
  9
$DIMFXLON
 70
     0
  9
$DIMJOGANG
 40
0.7853981633974483
  9
$DIMTFILL
 70
     0
  9
$DIMTFILLCLR
 70
     0
  9
$DIMARCSYM
 70
     0
  9
$DIMLTYPE
  6

  9
$DIMLTEX1
  6

  9
$DIMLTEX2
  6

  9
$DIMTXTDIRECTION
 70
     0
  9
$LUNITS
 70
     2
  9
$LUPREC
 70
     4
  9
$SKETCHINC
 40
0.1
  9
$FILLETRAD
 40
0.5
  9
$AUNITS
 70
     0
  9
$AUPREC
 70
     0
  9
$MENU
  1
.
  9
$ELEVATION
 40
0.0
  9
$PELEVATION
 40
0.0
  9
$THICKNESS
 40
0.0
  9
$LIMCHECK
 70
     0
  9
$CHAMFERA
 40
0.5
  9
$CHAMFERB
 40
0.5
  9
$CHAMFERC
 40
1.0
  9
$CHAMFERD
 40
0.0
  9
$SKPOLY
 70
     0
  9
$TDCREATE
 40
2459306.411076389
  9
$TDUCREATE
 40
2459306.327748947
  9
$TDUPDATE
 40
2459306.529652778
  9
$TDUUPDATE
 40
2459306.446319445
  9
$TDINDWG
 40
0.1025000116
  9
$TDUSRTIMER
 40
0.1025000116
  9
$USRTIMER
 70
     1
  9
$ANGBASE
 50
0.0
  9
$ANGDIR
 70
     0
  9
$PDMODE
 70
    65
  9
$PDSIZE
 40
0.0
  9
$PLINEWID
 40
0.0
  9
$SPLFRAME
 70
     0
  9
$SPLINETYPE
 70
     6
  9
$SPLINESEGS
 70
     8
  9
$HANDSEED
  5
2B9
  9
$SURFTAB1
 70
     6
  9
$SURFTAB2
 70
     6
  9
$SURFTYPE
 70
     6
  9
$SURFU
 70
     6
  9
$SURFV
 70
     6
  9
$UCSBASE
  2

  9
$UCSNAME
  2

  9
$UCSORG
 10
0.0
 20
0.0
 30
0.0
  9
$UCSXDIR
 10
1.0
 20
0.0
 30
0.0
  9
$UCSYDIR
 10
0.0
 20
1.0
 30
0.0
  9
$UCSORTHOREF
  2

  9
$UCSORTHOVIEW
 70
     0
  9
$UCSORGTOP
 10
0.0
 20
0.0
 30
0.0
  9
$UCSORGBOTTOM
 10
0.0
 20
0.0
 30
0.0
  9
$UCSORGLEFT
 10
0.0
 20
0.0
 30
0.0
  9
$UCSORGRIGHT
 10
0.0
 20
0.0
 30
0.0
  9
$UCSORGFRONT
 10
0.0
 20
0.0
 30
0.0
  9
$UCSORGBACK
 10
0.0
 20
0.0
 30
0.0
  9
$PUCSBASE
  2

  9
$PUCSNAME
  2

  9
$PUCSORG
 10
0.0
 20
0.0
 30
0.0
  9
$PUCSXDIR
 10
1.0
 20
0.0
 30
0.0
  9
$PUCSYDIR
 10
0.0
 20
1.0
 30
0.0
  9
$PUCSORTHOREF
  2

  9
$PUCSORTHOVIEW
 70
     0
  9
$PUCSORGTOP
 10
0.0
 20
0.0
 30
0.0
  9
$PUCSORGBOTTOM
 10
0.0
 20
0.0
 30
0.0
  9
$PUCSORGLEFT
 10
0.0
 20
0.0
 30
0.0
  9
$PUCSORGRIGHT
 10
0.0
 20
0.0
 30
0.0
  9
$PUCSORGFRONT
 10
0.0
 20
0.0
 30
0.0
  9
$PUCSORGBACK
 10
0.0
 20
0.0
 30
0.0
  9
$USERI1
 70
     0
  9
$USERI2
 70
     0
  9
$USERI3
 70
     0
  9
$USERI4
 70
     0
  9
$USERI5
 70
     0
  9
$USERR1
 40
0.0
  9
$USERR2
 40
0.0
  9
$USERR3
 40
0.0
  9
$USERR4
 40
0.0
  9
$USERR5
 40
0.0
  9
$WORLDVIEW
 70
     1
  9
$SHADEDGE
 70
     3
  9
$SHADEDIF
 70
    70
  9
$TILEMODE
 70
     1
  9
$MAXACTVP
 70
    64
  9
$PINSBASE
 10
0.0
 20
0.0
 30
0.0
  9
$PLIMCHECK
 70
     0
  9
$PEXTMIN
 10
1.000000000000000E+20
 20
1.000000000000000E+20
 30
1.000000000000000E+20
  9
$PEXTMAX
 10
-1.000000000000000E+20
 20
-1.000000000000000E+20
 30
-1.000000000000000E+20
  9
$PLIMMIN
 10
0.0
 20
0.0
  9
$PLIMMAX
 10
12.0
 20
9.0
  9
$UNITMODE
 70
     0
  9
$VISRETAIN
 70
     1
  9
$PLINEGEN
 70
     0
  9
$PSLTSCALE
 70
     1
  9
$TREEDEPTH
 70
  3020
  9
$CMLSTYLE
  2
Standard
  9
$CMLJUST
 70
     0
  9
$CMLSCALE
 40
1.0
  9
$PROXYGRAPHICS
 70
     1
  9
$MEASUREMENT
 70
     1
  9
$CELWEIGHT
370
    -1
  9
$ENDCAPS
280
     0
  9
$JOINSTYLE
280
     0
  9
$LWDISPLAY
290
     0
  9
$INSUNITS
 70
     4
  9
$HYPERLINKBASE
  1

  9
$STYLESHEET
  1

  9
$XEDIT
290
     1
  9
$CEPSNTYPE
380
     0
  9
$PSTYLEMODE
290
     1
  9
$FINGERPRINTGUID
  2
{75C020A7-4217-40DD-A50B-82A7C5955445}
  9
$VERSIONGUID
  2
{C7F00ECF-BD4D-8E4F-83D7-C8FD546CECBB}
  9
$EXTNAMES
290
     1
  9
$PSVPSCALE
 40
0.0
  9
$OLESTARTUP
290
     0
  9
$SORTENTS
280
   127
  9
$INDEXCTL
280
     0
  9
$HIDETEXT
280
     1
  9
$XCLIPFRAME
280
     2
  9
$HALOGAP
280
     0
  9
$OBSCOLOR
 70
   257
  9
$OBSLTYPE
280
     0
  9
$INTERSECTIONDISPLAY
280
     0
  9
$INTERSECTIONCOLOR
 70
   257
  9
$DIMASSOC
280
     2
  9
$PROJECTNAME
  1

  9
$CAMERADISPLAY
290
     0
  9
$LENSLENGTH
 40
50.0
  9
$CAMERAHEIGHT
 40
0.0
  9
$STEPSPERSEC
 40
2.0
  9
$STEPSIZE
 40
6.0
  9
$3DDWFPREC
 40
2.0
  9
$PSOLWIDTH
 40
0.25
  9
$PSOLHEIGHT
 40
4.0
  9
$LOFTANG1
 40
1.570796326794896
  9
$LOFTANG2
 40
1.570796326794896
  9
$LOFTMAG1
 40
0.0
  9
$LOFTMAG2
 40
0.0
  9
$LOFTPARAM
 70
     7
  9
$LOFTNORMALS
280
     1
  9
$LATITUDE
 40
37.795
  9
$LONGITUDE
 40
-122.394
  9
$NORTHDIRECTION
 40
0.0
  9
$TIMEZONE
 70
 -8000
  9
$LIGHTGLYPHDISPLAY
280
     1
  9
$TILEMODELIGHTSYNCH
280
     1
  9
$CMATERIAL
347
3C
  9
$SOLIDHIST
280
     1
  9
$SHOWHIST
280
     1
  9
$DWFFRAME
280
     2
  9
$DGNFRAME
280
     2
  9
$REALWORLDSCALE
290
     1
  9
$INTERFERECOLOR
 62
   256
  9
$INTERFEREOBJVS
345
33
  9
$INTERFEREVPVS
346
18F
  9
$CSHADOW
280
     0
  9
$SHADOWPLANELOCATION
 40
0.0
  0
ENDSEC
  0
SECTION
  2
CLASSES
  0
CLASS
  1
ACDBDICTIONARYWDFLT
  2
AcDbDictionaryWithDefault
  3
ObjectDBX Classes
 90
        0
 91
        1
280
     0
281
     0
  0
CLASS
  1
VISUALSTYLE
  2
AcDbVisualStyle
  3
ObjectDBX Classes
 90
     4095
 91
       26
280
     0
281
     0
  0
CLASS
  1
MATERIAL
  2
AcDbMaterial
  3
ObjectDBX Classes
 90
     1153
 91
        3
280
     0
281
     0
  0
CLASS
  1
SCALE
  2
AcDbScale
  3
ObjectDBX Classes
 90
     1153
 91
       33
280
     0
281
     0
  0
CLASS
  1
SORTENTSTABLE
  2
AcDbSortentsTable
  3
ObjectDBX Classes
 90
        0
 91
        1
280
     0
281
     0
  0
CLASS
  1
DICTIONARYVAR
  2
AcDbDictionaryVar
  3
ObjectDBX Classes
 90
        0
 91
       17
280
     0
281
     0
  0
CLASS
  1
TABLESTYLE
  2
AcDbTableStyle
  3
ObjectDBX Classes
 90
     4095
 91
        1
280
     0
281
     0
  0
CLASS
  1
MLEADERSTYLE
  2
AcDbMLeaderStyle
  3
ACDB_MLEADERSTYLE_CLASS
 90
     4095
 91
        1
280
     0
281
     0
  0
CLASS
  1
ACDBSECTIONVIEWSTYLE
  2
AcDbSectionViewStyle
  3
ObjectDBX Classes
 90
     1025
 91
        1
280
     0
281
     0
  0
CLASS
  1
ACDBDETAILVIEWSTYLE
  2
AcDbDetailViewStyle
  3
ObjectDBX Classes
 90
     1025
 91
        1
280
     0
281
     0
  0
CLASS
  1
CELLSTYLEMAP
  2
AcDbCellStyleMap
  3
ObjectDBX Classes
 90
     1152
 91
        1
280
     0
281
     0
  0
ENDSEC
  0
SECTION
  2
TABLES
  0
TABLE
  2
VPORT
  5
8
330
0
100
AcDbSymbolTable
 70
     1
  0
VPORT
  5
29
330
8
100
AcDbSymbolTableRecord
100
AcDbViewportTableRecord
  2
*Active
 70
     0
 10
0.0
 20
0.0
 11
1.0
 21
1.0
 12
525.0000024447217
 22
742.5000034575348
 13
0.0
 23
0.0
 14
0.5
 24
0.5
 15
0.5
 25
0.5
 16
0.0
 26
0.0
 36
1.0
 17
0.0
 27
0.0
 37
0.0
 40
1495.723744394778
 41
1.806451612903225
 42
50.0
 43
0.0
 44
0.0
 50
0.0
 51
0.0
 71
     0
 72
   100
 73
     1
 74
     3
 75
     0
 76
     0
 77
     0
 78
     0
281
     0
 65
     1
110
0.0
120
0.0
130
0.0
111
1.0
121
0.0
131
0.0
112
0.0
122
1.0
132
0.0
 79
     0
146
0.0
348
2F
 60
     3
 61
     5
292
     1
282
     1
141
0.0
142
0.0
 63
   250
1001
ACAD_NAV_VCDISPLAY
1070
     3
  0
ENDTAB
  0
TABLE
  2
LTYPE
  5
5
330
0
100
AcDbSymbolTable
 70
     6
  0
LTYPE
  5
14
330
5
100
AcDbSymbolTableRecord
100
AcDbLinetypeTableRecord
  2
ByBlock
 70
     0
  3

 72
    65
 73
     0
 40
0.0
  0
LTYPE
  5
15
330
5
100
AcDbSymbolTableRecord
100
AcDbLinetypeTableRecord
  2
ByLayer
 70
     0
  3

 72
    65
 73
     0
 40
0.0
  0
LTYPE
  5
16
330
5
100
AcDbSymbolTableRecord
100
AcDbLinetypeTableRecord
  2
Continuous
 70
     0
  3
Solid line
 72
    65
 73
     0
 40
0.0
  0
LTYPE
  5
41
330
5
100
AcDbSymbolTableRecord
100
AcDbLinetypeTableRecord
  2
ALL_S17
 70
     0
  3
Dotted
 72
    65
 73
     2
 40
3.5
 49
0.0
 74
     0
 49
-3.5
 74
     0
  0
LTYPE
  5
42
330
5
100
AcDbSymbolTableRecord
100
AcDbLinetypeTableRecord
  2
PUNKT2_S9
 70
     0
  3
Eng Punktiert
 72
    65
 73
     2
 40
5.0
 49
0.0
 74
     0
 49
-5.0
 74
     0
  0
LTYPE
  5
43
330
5
100
AcDbSymbolTableRecord
100
AcDbLinetypeTableRecord
  2
STRICHPUNKT2_S5
 70
     0
  3
Lang eng gestrichelt bzw. punktiert
 72
    65
 73
     4
 40
55.0
 49
40.0
 74
     0
 49
-5.0
 74
     0
 49
5.0
 74
     0
 49
-5.0
 74
     0
  0
LTYPE
  5
44
330
5
100
AcDbSymbolTableRecord
100
AcDbLinetypeTableRecord
  2
VERDECKT2_S2
 70
     0
  3
Kurzgestrichelt
 72
    65
 73
     2
 40
13.5
 49
10.0
 74
     0
 49
-3.5
 74
     0
  0
ENDTAB
  0
TABLE
  2
LAYER
  5
2
102
{ACAD_XDICTIONARY
360
222
102
}
330
0
100
AcDbSymbolTable
 70
    13
  0
LAYER
  5
10
330
2
100
AcDbSymbolTableRecord
100
AcDbLayerTableRecord
  2
0
 70
     0
 62
     7
  6
Continuous
370
    -3
390
F
347
3E
  0
LAYER
  5
45
330
2
100
AcDbSymbolTableRecord
100
AcDbLayerTableRecord
  2
AANHAALLIJN
 70
     0
 62
     7
  6
Continuous
370
    18
390
F
347
3E
1001
AcAecLayerStandard
1000

1000
000101, on
  0
LAYER
  5
47
330
2
100
AcDbSymbolTableRecord
100
AcDbLayerTableRecord
  2
AFBREEKLIJNEN
 70
     0
 62
     7
  6
Continuous
370
    35
390
F
347
3E
1001
AcAecLayerStandard
1000

1000
000201, on
  0
LAYER
  5
48
330
2
100
AcDbSymbolTableRecord
100
AcDbLayerTableRecord
  2
ANKER
 70
     0
 62
     7
  6
Continuous
370
    25
390
F
347
3E
1001
AcAecLayerStandard
1000

1000
282213, on
  0
LAYER
  5
49
330
2
100
AcDbSymbolTableRecord
100
AcDbLayerTableRecord
  2
BETONNEN DAKPANNEN
 70
     0
 62
     5
  6
Continuous
370
    35
390
F
347
3E
1001
AcAecLayerStandard
1000

1000
47125, on
  0
LAYER
  5
4A
330
2
100
AcDbSymbolTableRecord
100
AcDbLayerTableRecord
  2
DILALATIEVOEG EN AFDICHTING
 70
     0
 62
     5
  6
Continuous
370
    35
390
F
347
3E
1001
AcAecLayerStandard
1000

1000
211031, on
  0
LAYER
  5
4B
330
2
100
AcDbSymbolTableRecord
100
AcDbLayerTableRecord
  2
GLASWOL
 70
     0
 62
     5
  6
Continuous
370
    35
390
F
347
3E
1001
AcAecLayerStandard
1000

1000
223112, on
  0
LAYER
  5
4C
330
2
100
AcDbSymbolTableRecord
100
AcDbLayerTableRecord
  2
HOUTEN KAPCONSTRUCTIE
 70
     0
 62
    30
  6
Continuous
370
    70
390
F
347
3E
1001
AcAecLayerStandard
1000

1000
272211, on
  0
LAYER
  5
4D
330
2
100
AcDbSymbolTableRecord
100
AcDbLayerTableRecord
  2
KALKZANDSTEEN
 70
     0
 62
     2
  6
Continuous
370
   100
390
F
347
3E
1001
AcAecLayerStandard
1000

1000
22223, on
  0
LAYER
  5
4E
330
2
100
AcDbSymbolTableRecord
100
AcDbLayerTableRecord
  2
Maatlijnen 1_5
 70
     0
 62
     7
  6
Continuous
370
    18
390
F
347
3E
1001
AcAecLayerStandard
1000

1000
ML_5, on
  0
LAYER
  5
4F
330
2
100
AcDbSymbolTableRecord
100
AcDbLayerTableRecord
  2
SANDWICH DAKELEMENTEN
 70
     0
 62
    30
  6
Continuous
370
    70
390
F
347
3E
1001
AcAecLayerStandard
1000

1000
272215, on
  0
LAYER
  5
50
330
2
100
AcDbSymbolTableRecord
100
AcDbLayerTableRecord
  2
STEENWOL
 70
     0
 62
     5
  6
Continuous
370
    35
390
F
347
3E
1001
AcAecLayerStandard
1000

1000
223111, on
  0
LAYER
  5
9B
330
2
100
AcDbSymbolTableRecord
100
AcDbLayerTableRecord
  2
DEFPOINTS
 70
     0
 62
     7
  6
Continuous
290
     0
370
    -3
390
F
347
3E
  0
ENDTAB
  0
TABLE
  2
STYLE
  5
3
330
0
100
AcDbSymbolTable
 70
     4
  0
STYLE
  5
11
330
3
100
AcDbSymbolTableRecord
100
AcDbTextStyleTableRecord
  2
Standard
 70
     0
 40
0.0
 41
1.0
 50
0.0
 71
     0
 42
0.2
  3
txt
  4

  0
STYLE
  5
3F
330
3
100
AcDbSymbolTableRecord
100
AcDbTextStyleTableRecord
  2
ARIAL
 70
     0
 40
0.0
 41
1.0
 50
0.0
 71
     0
 42
0.0
  3
ARIAL.TTF
  4

1001
ACAD
1000
Arial
1071
       34
  0
STYLE
  5
40
330
3
100
AcDbSymbolTableRecord
100
AcDbTextStyleTableRecord
  2
TAHOMA
 70
     0
 40
0.0
 41
1.0
 50
0.0
 71
     0
 42
0.0
  3
TAHOMA.TTF
  4

1001
ACAD
1000
Tahoma
1071
       34
  0
STYLE
  5
51
330
3
100
AcDbSymbolTableRecord
100
AcDbTextStyleTableRecord
  2
Trebuchet MS
 70
     0
 40
0.0
 41
1.0
 50
0.0
 71
     0
 42
0.0
  3
Trebuchet MS
  4

1001
ACAD
1000
Trebuchet MS
1071
        0
  0
ENDTAB
  0
TABLE
  2
VIEW
  5
6
330
0
100
AcDbSymbolTable
 70
     1
  0
ENDTAB
  0
TABLE
  2
UCS
  5
7
330
0
100
AcDbSymbolTable
 70
     0
  0
ENDTAB
  0
TABLE
  2
APPID
  5
9
330
0
100
AcDbSymbolTable
 70
     6
  0
APPID
  5
12
330
9
100
AcDbSymbolTableRecord
100
AcDbRegAppTableRecord
  2
ACAD
 70
     0
  0
APPID
  5
46
330
9
100
AcDbSymbolTableRecord
100
AcDbRegAppTableRecord
  2
AcAecLayerStandard
 70
     0
  0
APPID
  5
AF
330
9
100
AcDbSymbolTableRecord
100
AcDbRegAppTableRecord
  2
NEM_ODX
 70
     0
  0
APPID
  5
1AB
330
9
100
AcDbSymbolTableRecord
100
AcDbRegAppTableRecord
  2
ACAD_NAV_VCDISPLAY
 70
     0
  0
APPID
  5
1B6
330
9
100
AcDbSymbolTableRecord
100
AcDbRegAppTableRecord
  2
ACAD_EXEMPT_FROM_CAD_STANDARDS
 70
     0
  0
APPID
  5
1F0
330
9
100
AcDbSymbolTableRecord
100
AcDbRegAppTableRecord
  2
AcadAnnoMonitorAlertIconDisabled
 70
     0
  0
ENDTAB
  0
TABLE
  2
DIMSTYLE
  5
A
330
0
100
AcDbSymbolTable
 70
     4
100
AcDbDimStyleTable
 71
     2
340
AE
340
C1
  0
DIMSTYLE
105
27
330
A
100
AcDbSymbolTableRecord
100
AcDbDimStyleTableRecord
  2
Standard
 70
     0
340
11
  0
DIMSTYLE
105
AE
102
{ACAD_REACTORS
330
B0
102
}
330
A
100
AcDbSymbolTableRecord
100
AcDbDimStyleTableRecord
  2
_DIMSTYLE_2
 70
     0
  3
<>
 41
15.0
 42
0.001
 43
0.0
 44
0.0
 45
0.1
 73
     0
 74
     0
 75
     1
 76
     1
 77
     2
 78
    12
140
10.0
141
0.0
147
5.0
172
     1
173
     1
174
     1
176
    30
177
    30
178
    30
271
     0
272
     0
274
     0
278
     0
279
     2
283
     0
340
51
343
9C
344
9C
371
     0
372
    18
  0
DIMSTYLE
105
C1
102
{ACAD_REACTORS
330
E5
330
DA
330
CF
330
C2
102
}
330
A
100
AcDbSymbolTableRecord
100
AcDbDimStyleTableRecord
  2
_DIMSTYLE_3
 70
     0
  3
<>
 41
15.0
 42
0.001
 43
0.0
 44
0.0
 45
0.1
 73
     0
 74
     0
 75
     1
 76
     1
 77
     2
 78
    12
140
10.0
141
0.0
147
5.0
172
     1
173
     1
174
     1
176
    30
177
    30
178
    30
271
     0
272
     0
274
     0
278
     0
279
     2
283
     0
340
51
343
B1
344
B1
371
     0
372
    18
  0
DIMSTYLE
105
CE
330
A
100
AcDbSymbolTableRecord
100
AcDbDimStyleTableRecord
  2
_DIMSTYLE_4
 70
     0
  3
<>
 41
15.0
 42
0.001
 43
0.0
 44
0.0
 45
0.1
 73
     0
 74
     0
 75
     1
 76
     1
 77
     2
 78
    12
140
10.0
141
0.0
147
5.0
172
     1
173
     1
174
     1
176
    30
177
    30
178
    30
271
     0
272
     0
274
     0
278
     0
279
     2
283
     0
340
51
343
B1
344
B1
371
     0
372
    18
  0
ENDTAB
  0
TABLE
  2
BLOCK_RECORD
  5
1
330
0
100
AcDbSymbolTable
 70
    17
  0
BLOCK_RECORD
  5
1F
102
{ACAD_XDICTIONARY
360
188
102
}
330
1
100
AcDbSymbolTableRecord
100
AcDbBlockTableRecord
  2
*Model_Space
340
22
 70
     0
280
     1
281
     0
  0
BLOCK_RECORD
  5
1B
330
1
100
AcDbSymbolTableRecord
100
AcDbBlockTableRecord
  2
*Paper_Space
340
1E
 70
     0
280
     1
281
     0
  0
BLOCK_RECORD
  5
23
330
1
100
AcDbSymbolTableRecord
100
AcDbBlockTableRecord
  2
*Paper_Space0
340
26
 70
     0
280
     1
281
     0
  0
BLOCK_RECORD
  5
52
330
1
100
AcDbSymbolTableRecord
100
AcDbBlockTableRecord
  2
NSY140
340
0
 70
     4
280
     1
281
     0
  0
BLOCK_RECORD
  5
58
330
1
100
AcDbSymbolTableRecord
100
AcDbBlockTableRecord
  2
NSY141
340
0
 70
     4
280
     1
281
     0
  0
BLOCK_RECORD
  5
60
330
1
100
AcDbSymbolTableRecord
100
AcDbBlockTableRecord
  2
NSY154
340
0
102
{BLKREFS
331
E6
331
E7
331
E8
331
E9
331
EE
331
172
331
178
331
179
331
127
331
128
331
13D
331
143
331
157
331
15A
331
15B
331
15F
102
}
 70
     4
280
     1
281
     0
  0
BLOCK_RECORD
  5
9C
330
1
100
AcDbSymbolTableRecord
100
AcDbBlockTableRecord
  2
ALL_ML_PFEIL
340
0
102
{BLKREFS
331
219
331
21A
102
}
 70
     4
280
     1
281
     0
  0
BLOCK_RECORD
  5
A4
330
1
100
AcDbSymbolTableRecord
100
AcDbBlockTableRecord
  2
*D5
340
0
 70
     4
280
     1
281
     0
  0
BLOCK_RECORD
  5
B1
330
1
100
AcDbSymbolTableRecord
100
AcDbBlockTableRecord
  2
ALL_ML_STRICH
340
0
102
{BLKREFS
331
1D6
331
1D7
331
1DD
331
1DE
331
1E4
331
1E5
331
1EB
331
1EC
102
}
 70
     4
280
     1
281
     0
  0
BLOCK_RECORD
  5
B7
330
1
100
AcDbSymbolTableRecord
100
AcDbBlockTableRecord
  2
*D7
340
0
 70
     4
280
     1
281
     0
  0
BLOCK_RECORD
  5
C4
330
1
100
AcDbSymbolTableRecord
100
AcDbBlockTableRecord
  2
*D8
340
0
 70
     4
280
     1
281
     0
  0
BLOCK_RECORD
  5
D0
330
1
100
AcDbSymbolTableRecord
100
AcDbBlockTableRecord
  2
*D9
340
0
 70
     4
280
     1
281
     0
  0
BLOCK_RECORD
  5
DB
330
1
100
AcDbSymbolTableRecord
100
AcDbBlockTableRecord
  2
*D10
340
0
 70
     4
280
     1
281
     0
  0
BLOCK_RECORD
  5
F4
330
1
100
AcDbSymbolTableRecord
100
AcDbBlockTableRecord
  2
COMPLEXOBJECT_0
340
0
102
{BLKREFS
331
FB
102
}
 70
     4
280
     1
281
     0
  0
BLOCK_RECORD
  5
FC
330
1
100
AcDbSymbolTableRecord
100
AcDbBlockTableRecord
  2
COMPLEXOBJECT_1
340
0
102
{BLKREFS
331
103
102
}
 70
     4
280
     1
281
     0
  0
BLOCK_RECORD
  5
104
330
1
100
AcDbSymbolTableRecord
100
AcDbBlockTableRecord
  2
COMPLEXOBJECT_2
340
0
102
{BLKREFS
331
10B
102
}
 70
     4
280
     1
281
     0
  0
BLOCK_RECORD
  5
10D
330
1
100
AcDbSymbolTableRecord
100
AcDbBlockTableRecord
  2
COMPLEXOBJECT_3
340
0
102
{BLKREFS
331
114
102
}
 70
     4
280
     1
281
     0
  0
BLOCK_RECORD
  5
115
330
1
100
AcDbSymbolTableRecord
100
AcDbBlockTableRecord
  2
COMPLEXOBJECT_4
340
0
102
{BLKREFS
331
11C
102
}
 70
     4
280
     1
281
     0
  0
BLOCK_RECORD
  5
11D
330
1
100
AcDbSymbolTableRecord
100
AcDbBlockTableRecord
  2
COMPLEXOBJECT_5
340
0
102
{BLKREFS
331
124
102
}
 70
     4
280
     1
281
     0
  0
ENDTAB
  0
ENDSEC
  0
SECTION
  2
BLOCKS
  0
BLOCK
  5
20
330
1F
100
AcDbEntity
  8
0
100
AcDbBlockBegin
  2
*Model_Space
 70
     0
 10
0.0
 20
0.0
 30
0.0
  3
*Model_Space
  1

  0
ENDBLK
  5
21
330
1F
100
AcDbEntity
  8
0
100
AcDbBlockEnd
  0
BLOCK
  5
1C
330
1B
100
AcDbEntity
 67
     1
  8
0
100
AcDbBlockBegin
  2
*Paper_Space
 70
     0
 10
0.0
 20
0.0
 30
0.0
  3
*Paper_Space
  1

  0
ENDBLK
  5
1D
330
1B
100
AcDbEntity
 67
     1
  8
0
100
AcDbBlockEnd
  0
BLOCK
  5
24
330
23
100
AcDbEntity
 67
     1
  8
0
100
AcDbBlockBegin
  2
*Paper_Space0
 70
     0
 10
0.0
 20
0.0
 30
0.0
  3
*Paper_Space0
  1

  0
ENDBLK
  5
25
330
23
100
AcDbEntity
 67
     1
  8
0
100
AcDbBlockEnd
  0
BLOCK
  5
53
330
52
100
AcDbEntity
  8
0
100
AcDbBlockBegin
  2
NSY140
 70
     0
 10
0.0
 20
0.0
 30
0.0
  3
NSY140
  1

  0
LINE
  5
55
330
52
100
AcDbEntity
  8
0
  6
ByBlock
 62
     0
370
    -2
100
AcDbLine
 10
0.0
 20
-2.5
 30
0.0
 11
0.0
 21
2.5
 31
0.0
  0
LINE
  5
56
330
52
100
AcDbEntity
  8
0
  6
ByBlock
 62
     0
370
    -2
100
AcDbLine
 10
-2.5
 20
0.0
 30
0.0
 11
2.5
 21
0.0
 31
0.0
  0
LINE
  5
57
330
52
100
AcDbEntity
  8
0
  6
ByBlock
 62
     0
370
    -2
100
AcDbLine
 10
-1.499999999999999
 20
-1.499999999999999
 30
0.0
 11
1.499999999999999
 21
1.499999999999999
 31
0.0
  0
ENDBLK
  5
54
330
52
100
AcDbEntity
  8
0
100
AcDbBlockEnd
  0
BLOCK
  5
59
330
58
100
AcDbEntity
  8
0
100
AcDbBlockBegin
  2
NSY141
 70
     0
 10
0.0
 20
0.0
 30
0.0
  3
NSY141
  1

  0
LINE
  5
5B
330
58
100
AcDbEntity
  8
0
  6
ByBlock
 62
     0
370
    -2
100
AcDbLine
 10
0.0
 20
-2.5
 30
0.0
 11
0.0
 21
2.5
 31
0.0
  0
LINE
  5
5C
330
58
100
AcDbEntity
  8
0
  6
ByBlock
 62
     0
370
    -2
100
AcDbLine
 10
0.0
 20
0.0
 30
0.0
 11
-3.75
 21
0.5
 31
0.0
  0
LINE
  5
5D
330
58
100
AcDbEntity
  8
0
  6
ByBlock
 62
     0
370
    -2
100
AcDbLine
 10
-3.75
 20
0.5
 30
0.0
 11
-3.75
 21
-0.5
 31
0.0
  0
LINE
  5
5E
330
58
100
AcDbEntity
  8
0
  6
ByBlock
 62
     0
370
    -2
100
AcDbLine
 10
-3.75
 20
-0.5
 30
0.0
 11
0.0
 21
0.0
 31
0.0
  0
LINE
  5
5F
330
58
100
AcDbEntity
  8
0
  6
ByBlock
 62
     0
370
    -2
100
AcDbLine
 10
0.0
 20
0.0
 30
0.0
 11
-5.25
 21
0.0
 31
0.0
  0
ENDBLK
  5
5A
330
58
100
AcDbEntity
  8
0
100
AcDbBlockEnd
  0
BLOCK
  5
61
330
60
100
AcDbEntity
  8
0
100
AcDbBlockBegin
  2
NSY154
 70
     0
 10
0.0
 20
0.0
 30
0.0
  3
NSY154
  1

  0
LINE
  5
63
330
60
100
AcDbEntity
  8
0
  6
ByBlock
 62
     0
370
    -2
100
AcDbLine
 10
-0.0000000000000002
 20
-2.625
 30
0.0
 11
0.0000000000000002
 21
2.625
 31
0.0
  0
CIRCLE
  5
64
330
60
100
AcDbEntity
  8
0
  6
ByBlock
 62
     0
370
    -2
100
AcDbCircle
 10
0.0
 20
0.0
 30
0.0
 40
2.625
  0
LINE
  5
65
330
60
100
AcDbEntity
  8
0
  6
ByBlock
 62
     0
370
    -2
100
AcDbLine
 10
-2.621249999999999
 20
0.0000000000000002
 30
0.0
 11
2.625
 21
-0.0000000000000002
 31
0.0
  0
ARC
  5
66
330
60
100
AcDbEntity
  8
0
  6
ByBlock
 62
     0
370
    -2
100
AcDbCircle
 10
0.0
 20
0.0
 30
0.0
 40
0.375
100
AcDbArc
 50
0.0
 51
90.0
  0
ARC
  5
67
330
60
100
AcDbEntity
  8
0
  6
ByBlock
 62
     0
370
    -2
100
AcDbCircle
 10
0.0
 20
0.0
 30
0.0
 40
0.75
100
AcDbArc
 50
0.0
 51
90.0
  0
ARC
  5
68
330
60
100
AcDbEntity
  8
0
  6
ByBlock
 62
     0
370
    -2
100
AcDbCircle
 10
0.0
 20
0.0
 30
0.0
 40
1.125
100
AcDbArc
 50
0.0
 51
90.0
  0
ARC
  5
69
330
60
100
AcDbEntity
  8
0
  6
ByBlock
 62
     0
370
    -2
100
AcDbCircle
 10
0.0
 20
0.0
 30
0.0
 40
1.875
100
AcDbArc
 50
0.0
 51
90.0
  0
ARC
  5
6A
330
60
100
AcDbEntity
  8
0
  6
ByBlock
 62
     0
370
    -2
100
AcDbCircle
 10
0.0
 20
0.0
 30
0.0
 40
1.5
100
AcDbArc
 50
0.0
 51
90.0
  0
ARC
  5
6B
330
60
100
AcDbEntity
  8
0
  6
ByBlock
 62
     0
370
    -2
100
AcDbCircle
 10
0.0
 20
0.0
 30
0.0
 40
2.25
100
AcDbArc
 50
0.0
 51
90.0
  0
ARC
  5
6C
330
60
100
AcDbEntity
  8
0
  6
ByBlock
 62
     0
370
    -2
100
AcDbCircle
 10
0.0
 20
0.0
 30
0.0
 40
0.375
100
AcDbArc
 50
180.0
 51
270.0
  0
ARC
  5
6D
330
60
100
AcDbEntity
  8
0
  6
ByBlock
 62
     0
370
    -2
100
AcDbCircle
 10
0.0
 20
0.0
 30
0.0
 40
0.75
100
AcDbArc
 50
180.0
 51
270.0
  0
ARC
  5
6E
330
60
100
AcDbEntity
  8
0
  6
ByBlock
 62
     0
370
    -2
100
AcDbCircle
 10
0.0
 20
0.0
 30
0.0
 40
1.125
100
AcDbArc
 50
180.0
 51
270.0
  0
ARC
  5
6F
330
60
100
AcDbEntity
  8
0
  6
ByBlock
 62
     0
370
    -2
100
AcDbCircle
 10
0.0
 20
0.0
 30
0.0
 40
1.875
100
AcDbArc
 50
180.0
 51
270.0
  0
ARC
  5
70
330
60
100
AcDbEntity
  8
0
  6
ByBlock
 62
     0
370
    -2
100
AcDbCircle
 10
0.0
 20
0.0
 30
0.0
 40
1.5
100
AcDbArc
 50
180.0
 51
270.0
  0
ARC
  5
71
330
60
100
AcDbEntity
  8
0
  6
ByBlock
 62
     0
370
    -2
100
AcDbCircle
 10
0.0
 20
0.0
 30
0.0
 40
2.25
100
AcDbArc
 50
180.0
 51
270.0
  0
LINE
  5
72
330
60
100
AcDbEntity
  8
0
  6
ByBlock
 62
     0
370
    -2
100
AcDbLine
 10
-0.0000000000000002
 20
-3.75
 30
0.0
 11
0.0000000000000002
 21
3.75
 31
0.0
  0
LINE
  5
73
330
60
100
AcDbEntity
  8
0
  6
ByBlock
 62
     0
370
    -2
100
AcDbLine
 10
-3.75
 20
0.0000000000000002
 30
0.0
 11
3.75
 21
-0.0000000000000002
 31
0.0
  0
ENDBLK
  5
62
330
60
100
AcDbEntity
  8
0
100
AcDbBlockEnd
  0
BLOCK
  5
9D
330
9C
100
AcDbEntity
  8
0
100
AcDbBlockBegin
  2
ALL_ML_PFEIL
 70
     0
 10
0.0
 20
0.0
 30
0.0
  3
ALL_ML_PFEIL
  1

  0
LINE
  5
9F
330
9C
100
AcDbEntity
  8
0
  6
ByBlock
 62
     0
370
    -2
100
AcDbLine
 10
-1.0
 20
0.0
 30
0.0
 11
0.0
 21
0.0
 31
0.0
  0
LINE
  5
A0
330
9C
100
AcDbEntity
  8
0
  6
ByBlock
 62
     0
370
    -2
100
AcDbLine
 10
0.0
 20
-0.5
 30
0.0
 11
0.0
 21
0.5
 31
0.0
  0
LINE
  5
A1
330
9C
100
AcDbEntity
  8
0
  6
ByBlock
 62
     0
370
    -2
100
AcDbLine
 10
0.0
 20
0.0
 30
0.0
 11
-0.75
 21
0.1
 31
0.0
  0
LINE
  5
A2
330
9C
100
AcDbEntity
  8
0
  6
ByBlock
 62
     0
370
    -2
100
AcDbLine
 10
0.0
 20
0.0
 30
0.0
 11
-0.75
 21
-0.1
 31
0.0
  0
LINE
  5
A3
330
9C
100
AcDbEntity
  8
0
  6
ByBlock
 62
     0
370
    -2
100
AcDbLine
 10
-0.75
 20
-0.1
 30
0.0
 11
-0.75
 21
0.1
 31
0.0
  0
ENDBLK
  5
9E
330
9C
100
AcDbEntity
  8
0
100
AcDbBlockEnd
  0
BLOCK
  5
A5
330
A4
100
AcDbEntity
  8
0
100
AcDbBlockBegin
  2
*D5
 70
     1
 10
0.0
 20
0.0
 30
0.0
  3
*D5
  1

  0
LINE
  5
215
330
A4
100
AcDbEntity
  8
Maatlijnen 1_5
  6
Continuous
 62
    30
440
 16777216
370
     0
100
AcDbLine
 10
502.4447617853438
 20
938.2110561215158
 30
0.0
 11
487.4447617853438
 21
938.2110561215158
 31
0.0
  0
LINE
  5
216
330
A4
100
AcDbEntity
  8
Maatlijnen 1_5
  6
Continuous
 62
    30
440
 16777216
370
     0
100
AcDbLine
 10
562.4447617853438
 20
938.2110561215158
 30
0.0
 11
577.4447617853438
 21
938.2110561215158
 31
0.0
  0
MTEXT
  5
217
330
A4
100
AcDbEntity
  8
Maatlijnen 1_5
  6
Continuous
 62
    30
440
 16777216
370
    18
100
AcDbMText
 10
532.3218948911459
 20
950.5975748928467
 30
0.0
 40
10.0
 41
14.0
 46
0.0
 71
     5
 72
     1
  1
30
  7
Trebuchet MS
 73
     1
 44
1.0
  0
LINE
  5
218
330
A4
100
AcDbEntity
  8
Maatlijnen 1_5
  6
Continuous
 62
    30
440
 16777216
370
     0
100
AcDbLine
 10
517.4447617853438
 20
938.2110561215158
 30
0.0
 11
547.4447617853439
 21
938.2110561215158
 31
0.0
  0
INSERT
  5
219
330
A4
100
AcDbEntity
  8
Maatlijnen 1_5
  6
Continuous
 62
    30
440
 16777216
370
     0
100
AcDbBlockReference
  2
ALL_ML_PFEIL
 10
517.4447617853438
 20
938.2110561215158
 30
0.0
 41
15.0
 42
15.0
 43
15.0
  0
INSERT
  5
21A
330
A4
100
AcDbEntity
  8
Maatlijnen 1_5
  6
Continuous
 62
    30
440
 16777216
370
     0
100
AcDbBlockReference
  2
ALL_ML_PFEIL
 10
547.4447617853439
 20
938.2110561215158
 30
0.0
 41
15.0
 42
15.0
 43
15.0
 50
180.0
  0
POINT
  5
21B
330
A4
100
AcDbEntity
  8
DEFPOINTS
  6
Continuous
 62
     0
440
 16777216
100
AcDbPoint
 10
517.4447617853438
 20
938.2100561215159
 30
0.0
  0
POINT
  5
21C
330
A4
100
AcDbEntity
  8
DEFPOINTS
  6
Continuous
 62
     0
440
 16777216
100
AcDbPoint
 10
547.4447617853439
 20
938.2100560039509
 30
0.0
  0
POINT
  5
21D
330
A4
100
AcDbEntity
  8
DEFPOINTS
  6
Continuous
 62
     0
440
 16777216
100
AcDbPoint
 10
547.4447617853439
 20
938.2110561215158
 30
0.0
  0
ENDBLK
  5
A6
330
A4
100
AcDbEntity
  8
0
100
AcDbBlockEnd
  0
BLOCK
  5
B2
330
B1
100
AcDbEntity
  8
0
100
AcDbBlockBegin
  2
ALL_ML_STRICH
 70
     0
 10
0.0
 20
0.0
 30
0.0
  3
ALL_ML_STRICH
  1

  0
LINE
  5
B4
330
B1
100
AcDbEntity
  8
0
  6
ByBlock
 62
     0
370
    -2
100
AcDbLine
 10
-1.0
 20
0.0
 30
0.0
 11
0.5
 21
0.0
 31
0.0
  0
LINE
  5
B5
330
B1
100
AcDbEntity
  8
0
  6
ByBlock
 62
     0
370
    -2
100
AcDbLine
 10
0.0
 20
-0.5
 30
0.0
 11
0.0
 21
0.5
 31
0.0
  0
LINE
  5
B6
330
B1
100
AcDbEntity
  8
0
  6
ByBlock
 62
     0
370
    -2
100
AcDbLine
 10
-0.3
 20
-0.3
 30
0.0
 11
0.3
 21
0.3
 31
0.0
  0
ENDBLK
  5
B3
330
B1
100
AcDbEntity
  8
0
100
AcDbBlockEnd
  0
BLOCK
  5
B8
330
B7
100
AcDbEntity
  8
0
100
AcDbBlockBegin
  2
*D7
 70
     1
 10
0.0
 20
0.0
 30
0.0
  3
*D7
  1

  0
LINE
  5
1E9
330
B7
100
AcDbEntity
  8
Maatlijnen 1_5
  6
Continuous
 62
    30
440
 16777216
370
     0
100
AcDbLine
 10
397.4447618635022
 20
200.6310445099007
 30
0.0
 11
667.4447618635022
 21
200.6310445099007
 31
0.0
  0
MTEXT
  5
1EA
330
B7
100
AcDbEntity
  8
Maatlijnen 1_5
  6
Continuous
 62
    30
440
 16777216
370
    18
100
AcDbMText
 10
532.1563659590654
 20
210.7675632812316
 30
0.0
 40
10.0
 41
21.0
 46
0.0
 71
     5
 72
     1
  1
300
  7
Trebuchet MS
 73
     1
 44
1.0
  0
INSERT
  5
1EB
330
B7
100
AcDbEntity
  8
Maatlijnen 1_5
  6
Continuous
 62
    30
440
 16777216
370
     0
100
AcDbBlockReference
  2
ALL_ML_STRICH
 10
382.4447618635022
 20
200.6310445099007
 30
0.0
 41
15.0
 42
15.0
 43
15.0
 50
180.0
  0
INSERT
  5
1EC
330
B7
100
AcDbEntity
  8
Maatlijnen 1_5
  6
Continuous
 62
    30
440
 16777216
370
     0
100
AcDbBlockReference
  2
ALL_ML_STRICH
 10
682.4447618635022
 20
200.6310445099007
 30
0.0
 41
15.0
 42
15.0
 43
15.0
  0
POINT
  5
1ED
330
B7
100
AcDbEntity
  8
DEFPOINTS
  6
Continuous
 62
     0
440
 16777216
100
AcDbPoint
 10
382.4447618635022
 20
260.6300445099007
 30
0.0
  0
POINT
  5
1EE
330
B7
100
AcDbEntity
  8
DEFPOINTS
  6
Continuous
 62
     0
440
 16777216
100
AcDbPoint
 10
682.4447618635022
 20
260.6300445099007
 30
0.0
  0
POINT
  5
1EF
330
B7
100
AcDbEntity
  8
DEFPOINTS
  6
Continuous
 62
     0
440
 16777216
100
AcDbPoint
 10
682.4447618635022
 20
200.6310445099007
 30
0.0
  0
ENDBLK
  5
B9
330
B7
100
AcDbEntity
  8
0
100
AcDbBlockEnd
  0
BLOCK
  5
C5
330
C4
100
AcDbEntity
  8
0
100
AcDbBlockBegin
  2
*D8
 70
     1
 10
0.0
 20
0.0
 30
0.0
  3
*D8
  1

  0
LINE
  5
1E2
330
C4
100
AcDbEntity
  8
Maatlijnen 1_5
  6
Continuous
 62
    30
440
 16777216
370
     0
100
AcDbLine
 10
397.4447618635022
 20
230.6310445099007
 30
0.0
 11
487.4447618634876
 21
230.6310445099007
 31
0.0
  0
MTEXT
  5
1E3
330
C4
100
AcDbEntity
  8
Maatlijnen 1_5
  6
Continuous
 62
    30
440
 16777216
370
    18
100
AcDbMText
 10
442.1563659590653
 20
240.7675632812316
 30
0.0
 40
10.0
 41
21.0
 46
0.0
 71
     5
 72
     1
  1
120
  7
Trebuchet MS
 73
     1
 44
1.0
  0
INSERT
  5
1E4
330
C4
100
AcDbEntity
  8
Maatlijnen 1_5
  6
Continuous
 62
    30
440
 16777216
370
     0
100
AcDbBlockReference
  2
ALL_ML_STRICH
 10
382.4447618635022
 20
230.6310445099007
 30
0.0
 41
15.0
 42
15.0
 43
15.0
 50
180.0
  0
INSERT
  5
1E5
330
C4
100
AcDbEntity
  8
Maatlijnen 1_5
  6
Continuous
 62
    30
440
 16777216
370
     0
100
AcDbBlockReference
  2
ALL_ML_STRICH
 10
502.4447618634876
 20
230.6310445099007
 30
0.0
 41
15.0
 42
15.0
 43
15.0
  0
POINT
  5
1E6
330
C4
100
AcDbEntity
  8
DEFPOINTS
  6
Continuous
 62
     0
440
 16777216
100
AcDbPoint
 10
382.4447618635022
 20
260.6300445099007
 30
0.0
  0
POINT
  5
1E7
330
C4
100
AcDbEntity
  8
DEFPOINTS
  6
Continuous
 62
     0
440
 16777216
100
AcDbPoint
 10
502.4447618634876
 20
260.6300445099007
 30
0.0
  0
POINT
  5
1E8
330
C4
100
AcDbEntity
  8
DEFPOINTS
  6
Continuous
 62
     0
440
 16777216
100
AcDbPoint
 10
502.4447618634876
 20
230.6310445099007
 30
0.0
  0
ENDBLK
  5
C6
330
C4
100
AcDbEntity
  8
0
100
AcDbBlockEnd
  0
BLOCK
  5
D1
330
D0
100
AcDbEntity
  8
0
100
AcDbBlockBegin
  2
*D9
 70
     1
 10
0.0
 20
0.0
 30
0.0
  3
*D9
  1

  0
LINE
  5
1DB
330
D0
100
AcDbEntity
  8
Maatlijnen 1_5
  6
Continuous
 62
    30
440
 16777216
370
     0
100
AcDbLine
 10
517.4447618634876
 20
230.6310445099007
 30
0.0
 11
547.4447618635021
 21
230.6310445099007
 31
0.0
  0
MTEXT
  5
1DC
330
D0
100
AcDbEntity
  8
Maatlijnen 1_5
  6
Continuous
 62
    30
440
 16777216
370
    18
100
AcDbMText
 10
532.3218949693042
 20
240.8016929740697
 30
0.0
 40
10.0
 41
14.0
 46
0.0
 71
     5
 72
     1
  1
60
  7
Trebuchet MS
 73
     1
 44
1.0
  0
INSERT
  5
1DD
330
D0
100
AcDbEntity
  8
Maatlijnen 1_5
  6
Continuous
 62
    30
440
 16777216
370
     0
100
AcDbBlockReference
  2
ALL_ML_STRICH
 10
502.4447618634876
 20
230.6310445099007
 30
0.0
 41
15.0
 42
15.0
 43
15.0
 50
180.0
  0
INSERT
  5
1DE
330
D0
100
AcDbEntity
  8
Maatlijnen 1_5
  6
Continuous
 62
    30
440
 16777216
370
     0
100
AcDbBlockReference
  2
ALL_ML_STRICH
 10
562.4447618635022
 20
230.6310445099007
 30
0.0
 41
15.0
 42
15.0
 43
15.0
  0
POINT
  5
1DF
330
D0
100
AcDbEntity
  8
DEFPOINTS
  6
Continuous
 62
     0
440
 16777216
100
AcDbPoint
 10
502.4447618634876
 20
260.6300445099007
 30
0.0
  0
POINT
  5
1E0
330
D0
100
AcDbEntity
  8
DEFPOINTS
  6
Continuous
 62
     0
440
 16777216
100
AcDbPoint
 10
562.4447618635022
 20
260.6300445099007
 30
0.0
  0
POINT
  5
1E1
330
D0
100
AcDbEntity
  8
DEFPOINTS
  6
Continuous
 62
     0
440
 16777216
100
AcDbPoint
 10
562.4447618635022
 20
230.6310445099007
 30
0.0
  0
ENDBLK
  5
D2
330
D0
100
AcDbEntity
  8
0
100
AcDbBlockEnd
  0
BLOCK
  5
DC
330
DB
100
AcDbEntity
  8
0
100
AcDbBlockBegin
  2
*D10
 70
     1
 10
0.0
 20
0.0
 30
0.0
  3
*D10
  1

  0
LINE
  5
1D4
330
DB
100
AcDbEntity
  8
Maatlijnen 1_5
  6
Continuous
 62
    30
440
 16777216
370
     0
100
AcDbLine
 10
577.4447618635021
 20
230.6310445099007
 30
0.0
 11
667.4447618635022
 21
230.6310445099007
 31
0.0
  0
MTEXT
  5
1D5
330
DB
100
AcDbEntity
  8
Maatlijnen 1_5
  6
Continuous
 62
    30
440
 16777216
370
    18
100
AcDbMText
 10
622.1563659590653
 20
240.7675632812316
 30
0.0
 40
10.0
 41
21.0
 46
0.0
 71
     5
 72
     1
  1
120
  7
Trebuchet MS
 73
     1
 44
1.0
  0
INSERT
  5
1D6
330
DB
100
AcDbEntity
  8
Maatlijnen 1_5
  6
Continuous
 62
    30
440
 16777216
370
     0
100
AcDbBlockReference
  2
ALL_ML_STRICH
 10
562.4447618635022
 20
230.6310445099007
 30
0.0
 41
15.0
 42
15.0
 43
15.0
 50
180.0
  0
INSERT
  5
1D7
330
DB
100
AcDbEntity
  8
Maatlijnen 1_5
  6
Continuous
 62
    30
440
 16777216
370
     0
100
AcDbBlockReference
  2
ALL_ML_STRICH
 10
682.4447618635022
 20
230.6310445099007
 30
0.0
 41
15.0
 42
15.0
 43
15.0
  0
POINT
  5
1D8
330
DB
100
AcDbEntity
  8
DEFPOINTS
  6
Continuous
 62
     0
440
 16777216
100
AcDbPoint
 10
562.4447618635022
 20
260.6300445099007
 30
0.0
  0
POINT
  5
1D9
330
DB
100
AcDbEntity
  8
DEFPOINTS
  6
Continuous
 62
     0
440
 16777216
100
AcDbPoint
 10
682.4447618635022
 20
260.6300445099007
 30
0.0
  0
POINT
  5
1DA
330
DB
100
AcDbEntity
  8
DEFPOINTS
  6
Continuous
 62
     0
440
 16777216
100
AcDbPoint
 10
682.4447618635022
 20
230.6310445099007
 30
0.0
  0
ENDBLK
  5
DD
330
DB
100
AcDbEntity
  8
0
100
AcDbBlockEnd
  0
BLOCK
  5
F5
330
F4
100
AcDbEntity
  8
0
100
AcDbBlockBegin
  2
COMPLEXOBJECT_0
 70
     0
 10
0.0
 20
0.0
 30
0.0
  3
COMPLEXOBJECT_0
  1

  0
LINE
  5
F7
330
F4
100
AcDbEntity
  8
ANKER
  6
VERDECKT2_S2
 62
    30
370
    18
100
AcDbLine
 10
429.944761867364
 20
592.6310442113549
 30
0.0
 11
429.944761867364
 21
512.6310442113549
 31
0.0
  0
LINE
  5
F8
330
F4
100
AcDbEntity
  8
ANKER
  6
VERDECKT2_S2
 62
    30
370
    18
100
AcDbLine
 10
424.944761867364
 20
592.6310442113549
 30
0.0
 11
424.944761867364
 21
547.631044211355
 31
0.0
  0
LINE
  5
F9
330
F4
100
AcDbEntity
  8
ANKER
  6
VERDECKT2_S2
 62
    30
370
    18
100
AcDbLine
 10
434.944761867364
 20
592.6310442113549
 30
0.0
 11
434.944761867364
 21
547.631044211355
 31
0.0
  0
LINE
  5
FA
330
F4
100
AcDbEntity
  8
ANKER
  6
VERDECKT2_S2
 62
    30
370
    18
100
AcDbLine
 10
422.944761867364
 20
592.6310442113549
 30
0.0
 11
436.944761867364
 21
592.6310442113549
 31
0.0
  0
ENDBLK
  5
F6
330
F4
100
AcDbEntity
  8
0
100
AcDbBlockEnd
  0
BLOCK
  5
FD
330
FC
100
AcDbEntity
  8
0
100
AcDbBlockBegin
  2
COMPLEXOBJECT_1
 70
     0
 10
0.0
 20
0.0
 30
0.0
  3
COMPLEXOBJECT_1
  1

  0
LINE
  5
FF
330
FC
100
AcDbEntity
  8
ANKER
  6
VERDECKT2_S2
 62
    30
370
    18
100
AcDbLine
 10
367.4447618781907
 20
642.6310442113549
 30
0.0
 11
317.4447618781907
 21
642.6310442113622
 31
0.0
  0
LINE
  5
100
330
FC
100
AcDbEntity
  8
ANKER
  6
VERDECKT2_S2
 62
    30
370
    18
100
AcDbLine
 10
367.4447618781907
 20
639.6310442113549
 30
0.0
 11
337.4447618781907
 21
639.6310442113549
 31
0.0
  0
LINE
  5
101
330
FC
100
AcDbEntity
  8
ANKER
  6
VERDECKT2_S2
 62
    30
370
    18
100
AcDbLine
 10
367.4447618781907
 20
645.6310442113622
 30
0.0
 11
337.4447618781907
 21
645.6310442113622
 31
0.0
  0
LINE
  5
102
330
FC
100
AcDbEntity
  8
ANKER
  6
VERDECKT2_S2
 62
    30
370
    18
100
AcDbLine
 10
367.4447618781907
 20
638.6310442113549
 30
0.0
 11
367.4447618781907
 21
646.6310442113622
 31
0.0
  0
ENDBLK
  5
FE
330
FC
100
AcDbEntity
  8
0
100
AcDbBlockEnd
  0
BLOCK
  5
105
330
104
100
AcDbEntity
  8
0
100
AcDbBlockBegin
  2
COMPLEXOBJECT_2
 70
     0
 10
0.0
 20
0.0
 30
0.0
  3
COMPLEXOBJECT_2
  1

  0
LINE
  5
107
330
104
100
AcDbEntity
  8
ANKER
  6
VERDECKT2_S2
 62
    30
370
    18
100
AcDbLine
 10
367.4447618781907
 20
617.6310442113549
 30
0.0
 11
317.4447618781907
 21
617.6310442113622
 31
0.0
  0
LINE
  5
108
330
104
100
AcDbEntity
  8
ANKER
  6
VERDECKT2_S2
 62
    30
370
    18
100
AcDbLine
 10
367.4447618781907
 20
614.6310442113549
 30
0.0
 11
337.4447618781907
 21
614.6310442113549
 31
0.0
  0
LINE
  5
109
330
104
100
AcDbEntity
  8
ANKER
  6
VERDECKT2_S2
 62
    30
370
    18
100
AcDbLine
 10
367.4447618781907
 20
620.6310442113549
 30
0.0
 11
337.4447618781907
 21
620.6310442113549
 31
0.0
  0
LINE
  5
10A
330
104
100
AcDbEntity
  8
ANKER
  6
VERDECKT2_S2
 62
    30
370
    18
100
AcDbLine
 10
367.4447618781907
 20
613.6310442113549
 30
0.0
 11
367.4447618781907
 21
621.6310442113622
 31
0.0
  0
ENDBLK
  5
106
330
104
100
AcDbEntity
  8
0
100
AcDbBlockEnd
  0
BLOCK
  5
10E
330
10D
100
AcDbEntity
  8
0
100
AcDbBlockBegin
  2
COMPLEXOBJECT_3
 70
     0
 10
0.0
 20
0.0
 30
0.0
  3
COMPLEXOBJECT_3
  1

  0
LINE
  5
110
330
10D
100
AcDbEntity
  8
ANKER
  6
VERDECKT2_S2
 62
    30
370
    18
100
AcDbLine
 10
634.9447618634876
 20
592.6310442222406
 30
0.0
 11
634.9447618634876
 21
512.6310442222405
 31
0.0
  0
LINE
  5
111
330
10D
100
AcDbEntity
  8
ANKER
  6
VERDECKT2_S2
 62
    30
370
    18
100
AcDbLine
 10
639.9447618634876
 20
592.6310442222406
 30
0.0
 11
639.9447618634876
 21
547.6310442222406
 31
0.0
  0
LINE
  5
112
330
10D
100
AcDbEntity
  8
ANKER
  6
VERDECKT2_S2
 62
    30
370
    18
100
AcDbLine
 10
629.9447618634876
 20
592.6310442222406
 30
0.0
 11
629.9447618634876
 21
547.6310442222406
 31
0.0
  0
LINE
  5
113
330
10D
100
AcDbEntity
  8
ANKER
  6
VERDECKT2_S2
 62
    30
370
    18
100
AcDbLine
 10
641.9447618634876
 20
592.6310442222406
 30
0.0
 11
627.9447618634876
 21
592.6310442222406
 31
0.0
  0
ENDBLK
  5
10F
330
10D
100
AcDbEntity
  8
0
100
AcDbBlockEnd
  0
BLOCK
  5
116
330
115
100
AcDbEntity
  8
0
100
AcDbBlockBegin
  2
COMPLEXOBJECT_4
 70
     0
 10
0.0
 20
0.0
 30
0.0
  3
COMPLEXOBJECT_4
  1

  0
LINE
  5
118
330
115
100
AcDbEntity
  8
ANKER
  6
VERDECKT2_S2
 62
    30
370
    18
100
AcDbLine
 10
697.444761852661
 20
642.6310442222406
 30
0.0
 11
747.444761852661
 21
642.6310442222479
 31
0.0
  0
LINE
  5
119
330
115
100
AcDbEntity
  8
ANKER
  6
VERDECKT2_S2
 62
    30
370
    18
100
AcDbLine
 10
697.444761852661
 20
639.6310442222405
 30
0.0
 11
727.444761852661
 21
639.6310442222405
 31
0.0
  0
LINE
  5
11A
330
115
100
AcDbEntity
  8
ANKER
  6
VERDECKT2_S2
 62
    30
370
    18
100
AcDbLine
 10
697.444761852661
 20
645.6310442222478
 30
0.0
 11
727.444761852661
 21
645.6310442222478
 31
0.0
  0
LINE
  5
11B
330
115
100
AcDbEntity
  8
ANKER
  6
VERDECKT2_S2
 62
    30
370
    18
100
AcDbLine
 10
697.444761852661
 20
638.6310442222406
 30
0.0
 11
697.444761852661
 21
646.6310442222479
 31
0.0
  0
ENDBLK
  5
117
330
115
100
AcDbEntity
  8
0
100
AcDbBlockEnd
  0
BLOCK
  5
11E
330
11D
100
AcDbEntity
  8
0
100
AcDbBlockBegin
  2
COMPLEXOBJECT_5
 70
     0
 10
0.0
 20
0.0
 30
0.0
  3
COMPLEXOBJECT_5
  1

  0
LINE
  5
120
330
11D
100
AcDbEntity
  8
ANKER
  6
VERDECKT2_S2
 62
    30
370
    18
100
AcDbLine
 10
697.444761852661
 20
617.6310442222406
 30
0.0
 11
747.444761852661
 21
617.6310442222479
 31
0.0
  0
LINE
  5
121
330
11D
100
AcDbEntity
  8
ANKER
  6
VERDECKT2_S2
 62
    30
370
    18
100
AcDbLine
 10
697.444761852661
 20
614.6310442222405
 30
0.0
 11
727.444761852661
 21
614.6310442222405
 31
0.0
  0
LINE
  5
122
330
11D
100
AcDbEntity
  8
ANKER
  6
VERDECKT2_S2
 62
    30
370
    18
100
AcDbLine
 10
697.444761852661
 20
620.6310442222405
 30
0.0
 11
727.444761852661
 21
620.6310442222405
 31
0.0
  0
LINE
  5
123
330
11D
100
AcDbEntity
  8
ANKER
  6
VERDECKT2_S2
 62
    30
370
    18
100
AcDbLine
 10
697.444761852661
 20
613.6310442222406
 30
0.0
 11
697.444761852661
 21
621.6310442222479
 31
0.0
  0
ENDBLK
  5
11F
330
11D
100
AcDbEntity
  8
0
100
AcDbBlockEnd
  0
ENDSEC
  0
SECTION
  2
ENTITIES
  0
LWPOLYLINE
  5
74
330
1F
100
AcDbEntity
  8
AANHAALLIJN
  6
PUNKT2_S9
 62
     7
370
    13
100
AcDbPolyline
 90
        5
 70
     1
 43
0.0
 10
990.0
 20
60.0
 10
60.0
 20
60.0
 10
60.0
 20
1260.0
 10
990.0
 20
1260.0
 10
990.0
 20
60.0
  0
LWPOLYLINE
  5
75
330
1F
100
AcDbEntity
  8
AANHAALLIJN
  6
Continuous
 62
     7
370
    25
100
AcDbPolyline
 90
        5
 70
     1
 43
0.0
 10
1050.0
 20
0.0
 10
0.0
 20
0.0
 10
0.0
 20
1485.0
 10
1050.0
 20
1485.0
 10
1050.0
 20
0.0
  0
LWPOLYLINE
  5
76
330
1F
100
AcDbEntity
  8
DEFPOINTS
  6
PUNKT2_S9
 62
     7
370
    13
100
AcDbPolyline
 90
        5
 70
     1
 43
0.0
 10
990.0
 20
60.0
 10
60.0
 20
60.0
 10
60.0
 20
1260.0
 10
990.0
 20
1260.0
 10
990.0
 20
60.0
  0
MTEXT
  5
99
330
1F
100
AcDbEntity
  8
AANHAALLIJN
  6
Continuous
 62
    30
370
    18
100
AcDbMText
 10
377.4447617853439
 20
942.794389572424
 30
0.0
 40
12.5
 41
112.2916666666666
 46
0.0
 71
     7
 72
     5
  1
panlatafstand
  7
Trebuchet MS
 73
     1
 44
1.0
  0
LINE
  5
9A
330
1F
100
AcDbEntity
  8
AANHAALLIJN
  6
Continuous
 62
    30
370
    18
100
AcDbLine
 10
377.4447617853439
 20
938.2110562390954
 30
0.0
 11
517.4447617853438
 21
938.2110562390954
 31
0.0
  0
DIMENSION
  5
B0
330
1F
100
AcDbEntity
  8
Maatlijnen 1_5
  6
Continuous
 62
    30
370
    18
100
AcDbDimension
280
     0
  2
*D5
 10
547.4447617853439
 20
938.2110561215158
 30
0.0
 11
532.3218948911459
 21
950.5975748928467
 31
0.0
 70
   160
  1
<>
 71
     5
 42
30.0
 73
     0
 74
     0
 75
     0
  3
_DIMSTYLE_2
100
AcDbAlignedDimension
 13
517.4447617853438
 23
938.2100561215159
 33
0.0
 14
547.4447617853439
 24
938.2100560039509
 34
0.0
100
AcDbRotatedDimension
1001
NEM_ODX
1000
MASSLINIE
1002
{
1000
UTF_TYPE
1070
     1
1000
ODXVALUES
1070
     1
1070
     0
1070
   499
1040
0.1
1002
}
  0
DIMENSION
  5
C2
330
1F
100
AcDbEntity
  8
Maatlijnen 1_5
  6
Continuous
 62
    30
370
    18
100
AcDbDimension
280
     0
  2
*D7
 10
682.4447618635022
 20
200.6310445099007
 30
0.0
 11
532.1563659590654
 21
210.7675632812316
 31
0.0
 70
   160
  1
<>
 71
     5
 42
300.0
 73
     0
 74
     0
 75
     0
  3
_DIMSTYLE_3
100
AcDbAlignedDimension
 13
382.4447618635022
 23
260.6300445099007
 33
0.0
 14
682.4447618635022
 24
260.6300445099007
 34
0.0
100
AcDbRotatedDimension
1001
NEM_ODX
1000
MASSLINIE
1002
{
1000
UTF_TYPE
1070
     1
1000
ODXVALUES
1070
     1
1070
     0
1070
   499
1040
0.1
1002
}
  0
LINE
  5
C3
330
1F
100
AcDbEntity
  8
AFBREEKLIJNEN
  6
STRICHPUNKT2_S5
 62
     7
370
    25
100
AcDbLine
 10
712.4447618635022
 20
260.6310445099007
 30
0.0
 11
352.4447618635022
 21
260.6310445099007
 31
0.0
  0
DIMENSION
  5
CF
330
1F
100
AcDbEntity
  8
Maatlijnen 1_5
  6
Continuous
 62
    30
370
    18
100
AcDbDimension
280
     0
  2
*D8
 10
502.4447618634876
 20
230.6310445099007
 30
0.0
 11
442.1563659590653
 21
240.7675632812316
 31
0.0
 70
   160
  1
<>
 71
     5
 42
119.9999999999854
 73
     0
 74
     0
 75
     0
  3
_DIMSTYLE_3
100
AcDbAlignedDimension
 13
382.4447618635022
 23
260.6300445099007
 33
0.0
 14
502.4447618634876
 24
260.6300445099007
 34
0.0
100
AcDbRotatedDimension
1001
NEM_ODX
1000
MASSLINIE
1002
{
1000
UTF_TYPE
1070
     1
1000
ODXVALUES
1070
     1
1070
     0
1070
   499
1040
0.1
1002
}
  0
DIMENSION
  5
DA
330
1F
100
AcDbEntity
  8
Maatlijnen 1_5
  6
Continuous
 62
    30
370
    18
100
AcDbDimension
280
     0
  2
*D9
 10
562.4447618635022
 20
230.6310445099007
 30
0.0
 11
532.3218949693042
 21
240.8016929740697
 31
0.0
 70
   160
  1
<>
 71
     5
 42
60.00000000001455
 73
     0
 74
     0
 75
     0
  3
_DIMSTYLE_3
100
AcDbAlignedDimension
 13
502.4447618634876
 23
260.6300445099007
 33
0.0
 14
562.4447618635022
 24
260.6300445099007
 34
0.0
100
AcDbRotatedDimension
1001
NEM_ODX
1000
MASSLINIE
1002
{
1000
UTF_TYPE
1070
     1
1000
ODXVALUES
1070
     1
1070
     0
1070
   499
1040
0.1
1002
}
  0
DIMENSION
  5
E5
330
1F
100
AcDbEntity
  8
Maatlijnen 1_5
  6
Continuous
 62
    30
370
    18
100
AcDbDimension
280
     0
  2
*D10
 10
682.4447618635022
 20
230.6310445099007
 30
0.0
 11
622.1563659590653
 21
240.7675632812316
 31
0.0
 70
   160
  1
<>
 71
     5
 42
120.0
 73
     0
 74
     0
 75
     0
  3
_DIMSTYLE_3
100
AcDbAlignedDimension
 13
562.4447618635022
 23
260.6300445099007
 33
0.0
 14
682.4447618635022
 24
260.6300445099007
 34
0.0
100
AcDbRotatedDimension
1001
NEM_ODX
1000
MASSLINIE
1002
{
1000
UTF_TYPE
1070
     1
1000
ODXVALUES
1070
     1
1070
     0
1070
   499
1040
0.1
1002
}
  0
INSERT
  5
E6
330
1F
100
AcDbEntity
  8
AANHAALLIJN
  6
Continuous
 62
    30
370
    18
100
AcDbBlockReference
  2
NSY154
 10
622.4447618635021
 20
313.6282296660938
 30
0.0
 41
1.962533333333333
 42
1.962533333333333
 43
1.962533333333333
  0
INSERT
  5
E7
330
1F
100
AcDbEntity
  8
AANHAALLIJN
  6
Continuous
 62
    30
370
    18
100
AcDbBlockReference
  2
NSY154
 10
442.4447618635022
 20
313.6282296660938
 30
0.0
 41
1.962533333333333
 42
1.962533333333333
 43
1.962533333333333
  0
INSERT
  5
E8
330
1F
100
AcDbEntity
  8
AANHAALLIJN
  6
Continuous
 62
    30
370
    18
100
AcDbBlockReference
  2
NSY154
 10
532.4447618635022
 20
313.6282296660938
 30
0.0
 41
1.962533333333333
 42
1.962533333333333
 43
1.962533333333333
  0
INSERT
  5
E9
330
1F
100
AcDbEntity
  8
AANHAALLIJN
  6
Continuous
 62
    30
370
    18
100
AcDbBlockReference
  2
NSY154
 10
532.4447618634876
 20
464.5540929640628
 30
0.0
 41
1.962533333333333
 42
1.962533333333333
 43
1.962533333333333
  0
MTEXT
  5
EA
330
1F
100
AcDbEntity
  8
AANHAALLIJN
  6
Continuous
 62
     5
370
    13
100
AcDbMText
 10
70.00000000000001
 20
43.0
 30
0.0
 40
7.5
 41
440.1289571934895
 46
0.0
 71
     1
 72
     5
  1
\W1.00;ROCKWOOL\~bouwdetails\~ontwikkeld\~door\~Archidat\~Bouwformatie\~-\~bouwdetails.bouwformatie.nl
  7
TAHOMA
 73
     1
 44
1.0
  0
MTEXT
  5
EB
330
1F
100
AcDbEntity
  8
AANHAALLIJN
  6
Continuous
 62
    30
370
    25
100
AcDbMText
 10
51.50000000001455
 20
1431.75
 30
0.0
 40
17.5
 41
463.2323659575217
 46
0.0
 71
     1
 72
     5
  1
{\fArial|i0|b1;\H17.500000;\W1.000000;\C30;ROCKWOOL - bouwdetail 027}\P{\fArial|i0|b0;\H17.500000;\W1.000000;\C30;Hellend dak met woningscheidende wand}\P
  7
ARIAL
 73
     1
 44
0.9036144578313253
  0
HATCH
  5
EC
330
1F
100
AcDbEntity
  8
SANDWICH DAKELEMENTEN
  6
Continuous
 62
     7
370
    25
100
AcDbHatch
 10
0.0
 20
0.0
 30
0.0
210
0.0
220
0.0
230
1.0
  2
HATCHING_301
 70
     0
 71
     0
 91
        1
 92
        0
 93
        6
 72
     1
 10
362.4447618634877
 20
782.6310445099006
 11
340.4447618634876
 21
782.6310445099006
 72
     1
 10
340.4447618634876
 20
782.6310445099006
 11
340.4447618634876
 21
512.6310445099004
 72
     1
 10
340.4447618634876
 20
512.6310445099004
 11
362.4447618634877
 21
512.6310445099004
 72
     1
 10
362.4447618634877
 20
512.6310445099004
 11
362.4447618623963
 21
595.6310445099006
 72
     1
 10
362.4447618623963
 20
595.6310445099006
 11
362.4447618623963
 21
598.6310445099007
 72
     1
 10
362.4447618623963
 20
598.6310445099007
 11
362.4447618634877
 21
782.6310445099006
 97
        0
 75
     0
 76
     2
 52
0.0
 41
5.0
 77
     0
 78
     2
 53
45.0
 43
0.0
 44
0.0
 45
-10.60660171779821
 46
10.60660171779821
 79
     0
 53
45.0
 43
-5.303300858899105
 44
5.303300858899106
 45
-10.60660171779821
 46
10.60660171779821
 79
     0
 98
        0
1001
ACAD
1010
0.0
1020
0.0
1030
0.0
1001
NEM_ODX
1002
{
1000
BZM_DEPEND
1070
     1
1000
BZM_SCALE
1040
5.0
1000
HATCHING_301
1002
}
  0
LWPOLYLINE
  5
ED
330
1F
100
AcDbEntity
  8
SANDWICH DAKELEMENTEN
  6
Continuous
 62
     7
370
    25
100
AcDbPolyline
 90
        8
 70
     1
 43
0.0
 10
362.4447618634877
 20
512.6310445099004
 10
340.4447618634876
 20
512.6310445099004
 10
340.4447618634876
 20
782.6310445099006
 10
357.4447618634877
 20
782.6310445099006
 10
362.4447618634877
 20
782.6310445099006
 10
362.4447618623963
 20
598.6310445099007
 10
362.4447618634877
 20
595.6310445099006
 10
362.4447618634877
 20
512.6310445099004
  0
INSERT
  5
EE
330
1F
100
AcDbEntity
  8
AANHAALLIJN
  6
Continuous
 62
    30
370
    18
100
AcDbBlockReference
  2
NSY154
 10
187.4447618634876
 20
507.3369268628416
 30
0.0
 41
1.962533333333333
 42
1.962533333333333
 43
1.962533333333333
  0
LWPOLYLINE
  5
EF
330
1F
100
AcDbEntity
  8
SANDWICH DAKELEMENTEN
  6
Continuous
 62
     7
370
    25
100
AcDbPolyline
 90
        7
 70
     1
 43
0.0
 10
702.444761841849
 20
512.6310445099006
 10
724.4447618418489
 20
512.6310445099006
 10
724.4447618635022
 20
782.6310445099006
 10
702.4447618635022
 20
782.6310445099006
 10
702.4447618645936
 20
598.6310445099007
 10
702.4447618635022
 20
527.0428092157828
 10
702.444761841849
 20
512.6310445099006
  0
HATCH
  5
F0
330
1F
100
AcDbEntity
  8
SANDWICH DAKELEMENTEN
  6
Continuous
 62
     7
370
    25
100
AcDbHatch
 10
0.0
 20
0.0
 30
0.0
210
0.0
220
0.0
230
1.0
  2
HATCHING_301
 70
     0
 71
     0
 91
        1
 92
        0
 93
        6
 72
     1
 10
724.4447618635022
 20
782.6310445099006
 11
702.4447618635022
 21
782.6310445099006
 72
     1
 10
702.4447618635022
 20
782.6310445099006
 11
702.4447618645936
 21
598.6310445099007
 72
     1
 10
702.4447618645936
 20
598.6310445099007
 11
702.4447618635022
 21
527.0428092157828
 72
     1
 10
702.4447618635022
 20
527.0428092157828
 11
702.444761841849
 21
512.6310445099006
 72
     1
 10
702.444761841849
 20
512.6310445099006
 11
724.4447618418489
 21
512.6310445099006
 72
     1
 10
724.4447618418489
 20
512.6310445099006
 11
724.4447618635022
 21
782.6310445099006
 97
        0
 75
     0
 76
     2
 52
0.0
 41
5.0
 77
     0
 78
     2
 53
45.0
 43
0.0
 44
0.0
 45
-10.60660171779821
 46
10.60660171779821
 79
     0
 53
45.0
 43
-5.303300858899105
 44
5.303300858899106
 45
-10.60660171779821
 46
10.60660171779821
 79
     0
 98
        0
1001
ACAD
1010
0.0
1020
0.0
1030
0.0
1001
NEM_ODX
1002
{
1000
BZM_DEPEND
1070
     1
1000
BZM_SCALE
1040
5.0
1000
HATCHING_301
1002
}
  0
LWPOLYLINE
  5
F1
330
1F
100
AcDbEntity
  8
KALKZANDSTEEN
  6
Continuous
 62
     3
370
    70
100
AcDbPolyline
 90
        4
 70
     0
 43
0.0
 10
562.4447618635022
 20
260.6310445099003
 10
562.4447618634899
 20
587.6310442207729
 10
682.4447618634906
 20
587.6310442207731
 10
682.4447618635023
 20
260.6310445099009
  0
LWPOLYLINE
  5
F2
330
1F
100
AcDbEntity
  8
KALKZANDSTEEN
  6
Continuous
 62
     3
370
    70
100
AcDbPolyline
 90
        4
 70
     0
 43
0.0
 10
502.4447618634875
 20
260.6310445099007
 10
502.4447618634876
 20
587.6310442123026
 10
382.4447618634874
 20
587.6310442123026
 10
382.4447618634877
 20
260.6310445099007
  0
LWPOLYLINE
  5
F3
330
1F
100
AcDbEntity
  8
ANKER
  6
VERDECKT2_S2
 62
    30
370
    18
100
AcDbPolyline
 90
        7
 70
     1
 43
0.0
 10
367.4447618673641
 20
592.6310442113622
 10
367.4447618673641
 20
657.6310442113622
 10
362.444761867364
 20
657.6310442113622
 10
362.444761867364
 20
587.6310442113622
 10
462.444761867364
 20
587.6310442113622
 10
462.444761867364
 20
592.6310442113622
 10
367.4447618673641
 20
592.6310442113622
  0
INSERT
  5
FB
330
1F
100
AcDbEntity
  8
ANKER
  6
VERDECKT2_S2
 62
    30
370
    18
100
AcDbBlockReference
  2
COMPLEXOBJECT_0
 10
0.0
 20
0.0
 30
0.0
  0
INSERT
  5
103
330
1F
100
AcDbEntity
  8
ANKER
  6
VERDECKT2_S2
 62
    30
370
    18
100
AcDbBlockReference
  2
COMPLEXOBJECT_1
 10
0.0
 20
0.0
 30
0.0
  0
INSERT
  5
10B
330
1F
100
AcDbEntity
  8
ANKER
  6
VERDECKT2_S2
 62
    30
370
    18
100
AcDbBlockReference
  2
COMPLEXOBJECT_2
 10
0.0
 20
0.0
 30
0.0
  0
LWPOLYLINE
  5
10C
330
1F
100
AcDbEntity
  8
ANKER
  6
VERDECKT2_S2
 62
    30
370
    18
100
AcDbPolyline
 90
        7
 70
     1
 43
0.0
 10
697.4447618635021
 20
592.6310442222479
 10
697.4447618635021
 20
657.6310442222478
 10
702.4447618634876
 20
657.6310442222478
 10
702.4447618634876
 20
587.6310442222478
 10
602.4447618634876
 20
587.6310442222478
 10
602.4447618634876
 20
592.6310442222479
 10
697.4447618635021
 20
592.6310442222479
  0
INSERT
  5
114
330
1F
100
AcDbEntity
  8
ANKER
  6
VERDECKT2_S2
 62
    30
370
    18
100
AcDbBlockReference
  2
COMPLEXOBJECT_3
 10
0.0
 20
0.0
 30
0.0
  0
INSERT
  5
11C
330
1F
100
AcDbEntity
  8
ANKER
  6
VERDECKT2_S2
 62
    30
370
    18
100
AcDbBlockReference
  2
COMPLEXOBJECT_4
 10
0.0
 20
0.0
 30
0.0
  0
INSERT
  5
124
330
1F
100
AcDbEntity
  8
ANKER
  6
VERDECKT2_S2
 62
    30
370
    18
100
AcDbBlockReference
  2
COMPLEXOBJECT_5
 10
0.0
 20
0.0
 30
0.0
  0
HATCH
  5
125
330
1F
100
AcDbEntity
  8
KALKZANDSTEEN
  6
Continuous
 62
     7
370
    25
100
AcDbHatch
 10
0.0
 20
0.0
 30
0.0
210
0.0
220
0.0
230
1.0
  2
HATCHING_9
 70
     0
 71
     0
 91
        1
 92
        0
 93
        4
 72
     1
 10
682.4447618635022
 20
587.6310442207723
 11
562.4447618634876
 21
587.6310442207723
 72
     1
 10
562.4447618634876
 20
587.6310442207723
 11
562.4447618634881
 21
260.6310445099007
 72
     1
 10
562.4447618634881
 20
260.6310445099007
 11
682.4447618635026
 21
260.6310445099007
 72
     1
 10
682.4447618635026
 20
260.6310445099007
 11
682.4447618635022
 21
587.6310442207723
 97
        0
 75
     0
 76
     2
 52
0.0
 41
5.0
 77
     0
 78
     2
 53
45.0
 43
0.0
 44
0.0
 45
-176.7766952966368
 46
176.7766952966369
 79
     0
 53
45.0
 43
-88.38834764831842
 44
88.38834764831844
 45
-176.7766952966368
 46
176.7766952966369
 79
     0
 98
        0
1001
ACAD
1010
0.0
1020
0.0
1030
0.0
1001
NEM_ODX
1002
{
1000
BZM_DEPEND
1070
     1
1000
BZM_SCALE
1040
5.0
1000
HATCHING_9
1002
}
  0
HATCH
  5
126
330
1F
100
AcDbEntity
  8
KALKZANDSTEEN
  6
Continuous
 62
     7
370
    25
100
AcDbHatch
 10
0.0
 20
0.0
 30
0.0
210
0.0
220
0.0
230
1.0
  2
HATCHING_9
 70
     0
 71
     0
 91
        1
 92
        0
 93
        4
 72
     1
 10
382.4447618634877
 20
587.6310442207725
 11
382.4447618634877
 21
260.631044509901
 72
     1
 10
382.4447618634877
 20
260.631044509901
 11
502.4447618634875
 21
260.6310445099007
 72
     1
 10
502.4447618634875
 20
260.6310445099007
 11
502.4447618634876
 21
587.6310442207723
 72
     1
 10
502.4447618634876
 20
587.6310442207723
 11
382.4447618634877
 21
587.6310442207725
 97
        0
 75
     0
 76
     2
 52
0.0
 41
5.0
 77
     0
 78
     2
 53
45.0
 43
0.0
 44
0.0
 45
-176.7766952966368
 46
176.7766952966369
 79
     0
 53
45.0
 43
-88.38834764831842
 44
88.38834764831844
 45
-176.7766952966368
 46
176.7766952966369
 79
     0
 98
        0
1001
ACAD
1010
0.0
1020
0.0
1030
0.0
1001
NEM_ODX
1002
{
1000
BZM_DEPEND
1070
     1
1000
BZM_SCALE
1040
5.0
1000
HATCHING_9
1002
}
  0
INSERT
  5
127
330
1F
100
AcDbEntity
  8
AANHAALLIJN
  6
Continuous
 62
    30
370
    18
100
AcDbBlockReference
  2
NSY154
 10
647.9648628761642
 20
685.1310445099007
 30
0.0
 41
1.962533333333333
 42
1.962533333333333
 43
1.962533333333333
  0
INSERT
  5
128
330
1F
100
AcDbEntity
  8
AANHAALLIJN
  6
Continuous
 62
    30
370
    18
100
AcDbBlockReference
  2
NSY154
 10
372.4447618580744
 20
545.6310445099006
 30
0.0
 41
1.962533333333333
 42
1.962533333333333
 43
1.962533333333333
  0
LINE
  5
129
330
1F
100
AcDbEntity
  8
GLASWOL
  6
VERDECKT2_S2
 62
     7
370
    25
100
AcDbLine
 10
117.4447618634877
 20
646.9161123207721
 30
0.0
 11
340.4447618634876
 21
646.9161123207721
 31
0.0
  0
LINE
  5
12A
330
1F
100
AcDbEntity
  8
GLASWOL
  6
VERDECKT2_S2
 62
     7
370
    25
100
AcDbLine
 10
724.4447618526183
 20
646.9161123207721
 30
0.0
 11
947.444761852515
 21
646.9161123207721
 31
0.0
  0
LWPOLYLINE
  5
12B
330
1F
100
AcDbEntity
  8
DILALATIEVOEG EN AFDICHTING
  6
Continuous
 62
    30
370
    18
100
AcDbPolyline
 90
        5
 70
     0
 43
0.0
 10
117.4447618634876
 20
512.6310445099004
 10
362.4447618634877
 20
512.6310445099004
 10
362.4447618636186
 20
505.9145257226203
 10
362.4447618636803
 20
502.6310445099004
 10
117.4447618634766
 20
502.6310445099004
  0
HATCH
  5
12C
330
1F
100
AcDbEntity
  8
DILALATIEVOEG EN AFDICHTING
  6
Continuous
 62
   254
370
    13
100
AcDbHatch
 10
0.0
 20
0.0
 30
0.0
210
0.0
220
0.0
230
1.0
  2
SOLID
 70
     1
 71
     0
 91
        1
 92
        0
 93
        4
 72
     1
 10
382.4447618570094
 20
587.6310442077778
 11
362.4447618635051
 21
587.6310442077778
 72
     1
 10
362.4447618635051
 20
587.6310442077778
 11
362.4447618636914
 21
502.6310445099004
 72
     1
 10
362.4447618636914
 20
502.6310445099004
 11
382.4447618634877
 21
502.6310445099004
 72
     1
 10
382.4447618634877
 20
502.6310445099004
 11
382.4447618570094
 21
587.6310442077778
 97
        0
 75
     0
 76
     1
 98
        0
450
        0
451
        0
460
1.570796326794896
461
0.0
452
        1
462
0.0
453
        0
470

1001
ACAD
1010
0.0
1020
0.0
1030
0.0
1001
NEM_ODX
1002
{
1000
BZM_DEPEND
1070
     1
1000
BZM_SCALE
1040
5.0
1000
HATCHING_15
1002
}
  0
HATCH
  5
12D
330
1F
100
AcDbEntity
  8
DILALATIEVOEG EN AFDICHTING
  6
Continuous
 62
     7
370
    13
100
AcDbHatch
 10
0.0
 20
0.0
 30
0.0
210
0.0
220
0.0
230
1.0
  2
HATCHING_15
 70
     0
 71
     0
 91
        1
 92
        0
 93
        4
 72
     1
 10
382.4447618570094
 20
587.6310442077778
 11
362.4447618635051
 21
587.6310442077778
 72
     1
 10
362.4447618635051
 20
587.6310442077778
 11
362.4447618636914
 21
502.6310445099004
 72
     1
 10
362.4447618636914
 20
502.6310445099004
 11
382.4447618634877
 21
502.6310445099004
 72
     1
 10
382.4447618634877
 20
502.6310445099004
 11
382.4447618570094
 21
587.6310442077778
 97
        0
 75
     0
 76
     2
 52
90.00000000000001
 41
5.0
 77
     0
 78
     2
 53
135.0
 43
0.0
 44
0.0
 45
-10.60660171779821
 46
-10.60660171779821
 79
     0
 53
135.0
 43
-5.303300858899105
 44
-5.303300858899106
 45
-10.60660171779821
 46
-10.60660171779821
 79
     4
 49
40.0
 49
-5.0
 49
5.0
 49
-5.0
 98
        0
1001
ACAD
1010
0.0
1020
0.0
1030
0.0
1001
NEM_ODX
1002
{
1000
BZM_DEPEND
1070
     1
1000
BZM_SCALE
1040
5.0
1000
HATCHING_15
1002
}
  0
LWPOLYLINE
  5
12E
330
1F
100
AcDbEntity
  8
DILALATIEVOEG EN AFDICHTING
  6
Continuous
 62
     5
370
    13
100
AcDbPolyline
 90
        6
 70
     1
 43
0.0
 10
382.4447618570094
 20
587.6310442077778
 10
362.4447618635051
 20
587.6310442077778
 10
362.4447618636186
 20
573.5563414261778
 10
362.4447618636914
 20
502.6310445099004
 10
382.4447618634877
 20
502.6310445099004
 10
382.4447618570094
 20
587.6310442077778
  0
LWPOLYLINE
  5
12F
330
1F
100
AcDbEntity
  8
DILALATIEVOEG EN AFDICHTING
  6
Continuous
 62
     5
370
    13
100
AcDbPolyline
 90
       10
 70
     1
 43
0.0
 10
382.4447618634877
 20
502.6310445099004
 10
382.4447618634877
 20
487.6310445099004
 10
381.6358406154468
 20
488.4595408360544
 10
380.7976758756413
 20
488.9624396682554
 10
379.9447618674021
 20
489.1310445055494
 10
379.0918479022948
 20
488.9624396227807
 10
378.2536831196485
 20
488.4595409121609
 10
377.4447619169368
 20
487.6310449888039
 10
377.4447618634876
 20
502.6310445099004
 10
382.4447618634877
 20
502.6310445099004
  0
HATCH
  5
130
330
1F
100
AcDbEntity
  8
DILALATIEVOEG EN AFDICHTING
  6
Continuous
 62
     8
370
    25
100
AcDbHatch
 10
0.0
 20
0.0
 30
0.0
210
0.0
220
0.0
230
1.0
  2
SOLID
 70
     1
 71
     0
 91
        1
 92
        3
 72
     0
 73
     1
 93
        9
 10
382.4447618634877
 20
487.6310445099004
 10
382.4447618634877
 20
502.6310445099004
 10
377.4447618634876
 20
502.6310445099004
 10
377.4447619169368
 20
487.6310449888039
 10
378.2536831196485
 20
488.4595409121609
 10
379.0918479022948
 20
488.9624396227807
 10
379.9447618674021
 20
489.1310445055494
 10
380.7976758756413
 20
488.9624396682554
 10
381.6358406154468
 20
488.4595408360544
 97
        0
 75
     0
 76
     1
 98
        0
450
        0
451
        0
460
0.0
461
0.0
452
        1
462
0.0
453
        0
470

  0
HATCH
  5
131
330
1F
100
AcDbEntity
  8
SANDWICH DAKELEMENTEN
  6
Continuous
 62
    30
370
    18
100
AcDbHatch
 10
0.0
 20
0.0
 30
0.0
210
0.0
220
0.0
230
1.0
  2
HATCHING_301
 70
     0
 71
     0
 91
        1
 92
        0
 93
        4
 72
     1
 10
317.4447618634876
 20
487.6310445099004
 11
377.4447618634876
 21
487.6310445099004
 72
     1
 10
377.4447618634876
 20
487.6310445099004
 11
377.4447618634876
 21
502.6310445099004
 72
     1
 10
377.4447618634876
 20
502.6310445099004
 11
317.4447618634876
 21
502.6310445099004
 72
     1
 10
317.4447618634876
 20
502.6310445099004
 11
317.4447618634876
 21
487.6310445099004
 97
        0
 75
     0
 76
     2
 52
0.0
 41
5.0
 77
     0
 78
     2
 53
45.0
 43
0.0
 44
0.0
 45
-10.60660171779821
 46
10.60660171779821
 79
     0
 53
45.0
 43
-5.303300858899105
 44
5.303300858899106
 45
-10.60660171779821
 46
10.60660171779821
 79
     0
 98
        0
1001
ACAD
1010
0.0
1020
0.0
1030
0.0
1001
NEM_ODX
1002
{
1000
BZM_DEPEND
1070
     1
1000
BZM_SCALE
1040
5.0
1000
HATCHING_301
1002
}
  0
LWPOLYLINE
  5
132
330
1F
100
AcDbEntity
  8
SANDWICH DAKELEMENTEN
  6
Continuous
 62
    30
370
    18
100
AcDbPolyline
 90
        5
 70
     1
 43
0.0
 10
377.4447618634876
 20
502.6310445099004
 10
317.4447618634876
 20
502.6310445099004
 10
317.4447618634876
 20
487.6310445099004
 10
377.4447618634876
 20
487.6310445099004
 10
377.4447618634876
 20
502.6310445099004
  0
LWPOLYLINE
  5
133
330
1F
100
AcDbEntity
  8
DILALATIEVOEG EN AFDICHTING
  6
Continuous
 62
     5
370
    13
100
AcDbPolyline
 90
       10
 70
     1
 43
0.0
 10
687.4447618418344
 20
502.6310445099004
 10
687.4447618418344
 20
487.6310445099004
 10
686.6358405938081
 20
488.4595408360544
 10
685.7976758540026
 20
488.9624396682554
 10
684.9447618457489
 20
489.1310445055494
 10
684.0918478806561
 20
488.9624396227807
 10
683.2536830980098
 20
488.4595409121609
 10
682.4447618952981
 20
487.6310449888039
 10
682.4447618418344
 20
502.6310445099004
 10
687.4447618418344
 20
502.6310445099004
  0
HATCH
  5
134
330
1F
100
AcDbEntity
  8
DILALATIEVOEG EN AFDICHTING
  6
Continuous
 62
     8
370
    25
100
AcDbHatch
 10
0.0
 20
0.0
 30
0.0
210
0.0
220
0.0
230
1.0
  2
SOLID
 70
     1
 71
     0
 91
        1
 92
        3
 72
     0
 73
     1
 93
        9
 10
687.4447618418344
 20
487.6310445099004
 10
687.4447618418344
 20
502.6310445099004
 10
682.4447618418344
 20
502.6310445099004
 10
682.4447618952981
 20
487.6310449888039
 10
683.2536830980098
 20
488.4595409121609
 10
684.0918478806561
 20
488.9624396227807
 10
684.9447618457489
 20
489.1310445055494
 10
685.7976758540026
 20
488.9624396682554
 10
686.6358405938081
 20
488.4595408360544
 97
        0
 75
     0
 76
     1
 98
        0
450
        0
451
        0
460
0.0
461
0.0
452
        1
462
0.0
453
        0
470

  0
HATCH
  5
135
330
1F
100
AcDbEntity
  8
SANDWICH DAKELEMENTEN
  6
Continuous
 62
    30
370
    18
100
AcDbHatch
 10
0.0
 20
0.0
 30
0.0
210
0.0
220
0.0
230
1.0
  2
HATCHING_301
 70
     0
 71
     0
 91
        1
 92
        0
 93
        4
 72
     1
 10
747.4447618418344
 20
487.6310445099004
 11
747.4447618418344
 21
502.6310445099004
 72
     1
 10
747.4447618418344
 20
502.6310445099004
 11
687.4447618418344
 21
502.6310445099004
 72
     1
 10
687.4447618418344
 20
502.6310445099004
 11
687.4447618418344
 21
487.6310445099004
 72
     1
 10
687.4447618418344
 20
487.6310445099004
 11
747.4447618418344
 21
487.6310445099004
 97
        0
 75
     0
 76
     2
 52
0.0
 41
5.0
 77
     0
 78
     2
 53
45.0
 43
0.0
 44
0.0
 45
-10.60660171779821
 46
10.60660171779821
 79
     0
 53
45.0
 43
-5.303300858899105
 44
5.303300858899106
 45
-10.60660171779821
 46
10.60660171779821
 79
     0
 98
        0
1001
ACAD
1010
0.0
1020
0.0
1030
0.0
1001
NEM_ODX
1002
{
1000
BZM_DEPEND
1070
     1
1000
BZM_SCALE
1040
5.0
1000
HATCHING_301
1002
}
  0
LWPOLYLINE
  5
136
330
1F
100
AcDbEntity
  8
SANDWICH DAKELEMENTEN
  6
Continuous
 62
    30
370
    18
100
AcDbPolyline
 90
        5
 70
     1
 43
0.0
 10
687.4447618418344
 20
502.6310445099004
 10
747.4447618418344
 20
502.6310445099004
 10
747.4447618418344
 20
487.6310445099004
 10
687.4447618418344
 20
487.6310445099004
 10
687.4447618418344
 20
502.6310445099004
  0
LWPOLYLINE
  5
137
330
1F
100
AcDbEntity
  8
DILALATIEVOEG EN AFDICHTING
  6
Continuous
 62
     5
370
    13
100
AcDbPolyline
 90
        7
 70
     1
 43
0.0
 10
682.4447618635022
 20
587.6310442207723
 10
702.4447618743433
 20
587.6310442207723
 10
702.4447618634876
 20
527.0428092157974
 10
702.444761841718
 20
507.5563414261778
 10
702.444761841718
 20
502.6310445098858
 10
682.4447618418344
 20
502.6310445099004
 10
682.4447618635022
 20
587.6310442207723
  0
LWPOLYLINE
  5
138
330
1F
100
AcDbEntity
  8
DILALATIEVOEG EN AFDICHTING
  6
Continuous
 62
    30
370
    18
100
AcDbPolyline
 90
        5
 70
     0
 43
0.0
 10
947.4447618418343
 20
512.6310445099006
 10
702.4447618418344
 20
512.6310445099006
 10
702.4447618417034
 20
507.5563414261778
 10
702.444761841718
 20
502.6310445098858
 10
947.4735167156564
 20
502.6310445099004
  0
HATCH
  5
139
330
1F
100
AcDbEntity
  8
DILALATIEVOEG EN AFDICHTING
  6
Continuous
 62
   254
370
    13
100
AcDbHatch
 10
0.0
 20
0.0
 30
0.0
210
0.0
220
0.0
230
1.0
  2
SOLID
 70
     1
 71
     0
 91
        1
 92
        0
 93
        6
 72
     1
 10
702.4447618396213
 20
508.1445767203099
 11
702.444761862497
 21
527.631044509915
 72
     1
 10
702.444761862497
 20
527.631044509915
 11
702.4447618743433
 21
587.6310442207723
 72
     1
 10
702.4447618743433
 20
587.6310442207723
 11
682.4447618635022
 21
587.6310442207723
 72
     1
 10
682.4447618635022
 20
587.6310442207723
 11
682.4447618397377
 21
502.6310445099004
 72
     1
 10
682.4447618397377
 20
502.6310445099004
 11
702.4447618396213
 21
502.6310445099004
 72
     1
 10
702.4447618396213
 20
502.6310445099004
 11
702.4447618396213
 21
508.1445767203099
 97
        0
 75
     0
 76
     1
 98
        0
450
        0
451
        0
460
1.570796326794896
461
0.0
452
        1
462
0.0
453
        0
470

1001
ACAD
1010
0.0
1020
0.0
1030
0.0
1001
NEM_ODX
1002
{
1000
BZM_DEPEND
1070
     1
1000
BZM_SCALE
1040
5.0
1000
HATCHING_15
1002
}
  0
HATCH
  5
13A
330
1F
100
AcDbEntity
  8
DILALATIEVOEG EN AFDICHTING
  6
Continuous
 62
     7
370
    13
100
AcDbHatch
 10
0.0
 20
0.0
 30
0.0
210
0.0
220
0.0
230
1.0
  2
HATCHING_15
 70
     0
 71
     0
 91
        1
 92
        0
 93
        6
 72
     1
 10
702.4447618396213
 20
508.1445767203099
 11
702.444761862497
 21
527.631044509915
 72
     1
 10
702.444761862497
 20
527.631044509915
 11
702.4447618743433
 21
587.6310442207723
 72
     1
 10
702.4447618743433
 20
587.6310442207723
 11
682.4447618635022
 21
587.6310442207723
 72
     1
 10
682.4447618635022
 20
587.6310442207723
 11
682.4447618397377
 21
502.6310445099004
 72
     1
 10
682.4447618397377
 20
502.6310445099004
 11
702.4447618396213
 21
502.6310445099004
 72
     1
 10
702.4447618396213
 20
502.6310445099004
 11
702.4447618396213
 21
508.1445767203099
 97
        0
 75
     0
 76
     2
 52
90.00000000000001
 41
5.0
 77
     0
 78
     2
 53
135.0
 43
0.0
 44
0.0
 45
-10.60660171779821
 46
-10.60660171779821
 79
     0
 53
135.0
 43
-5.303300858899105
 44
-5.303300858899106
 45
-10.60660171779821
 46
-10.60660171779821
 79
     4
 49
40.0
 49
-5.0
 49
5.0
 49
-5.0
 98
        0
1001
ACAD
1010
0.0
1020
0.0
1030
0.0
1001
NEM_ODX
1002
{
1000
BZM_DEPEND
1070
     1
1000
BZM_SCALE
1040
5.0
1000
HATCHING_15
1002
}
  0
LINE
  5
13B
330
1F
100
AcDbEntity
  8
DILALATIEVOEG EN AFDICHTING
  6
VERDECKT2_S2
 62
     7
370
    25
100
AcDbLine
 10
362.4447618634877
 20
786.0217705810741
 30
0.0
 11
117.4447618634876
 21
786.0217705810741
 31
0.0
  0
LINE
  5
13C
330
1F
100
AcDbEntity
  8
DILALATIEVOEG EN AFDICHTING
  6
VERDECKT2_S2
 62
     7
370
    25
100
AcDbLine
 10
947.4447618634876
 20
786.0218705810742
 30
0.0
 11
702.4447618634876
 21
786.0218705810742
 31
0.0
  0
INSERT
  5
13D
330
1F
100
AcDbEntity
  8
AANHAALLIJN
  6
Continuous
 62
    30
370
    18
100
AcDbBlockReference
  2
NSY154
 10
647.9651468741795
 20
805.6310440798769
 30
0.0
 41
1.962533333333333
 42
1.962533333333333
 43
1.962533333333333
  0
HATCH
  5
13E
330
1F
100
AcDbEntity
  8
HOUTEN KAPCONSTRUCTIE
  6
Continuous
 62
    30
370
    18
100
AcDbHatch
 10
0.0
 20
0.0
 30
0.0
210
0.0
220
0.0
230
1.0
  2
HATCHING_301
 70
     0
 71
     0
 91
        1
 92
        0
 93
        4
 72
     1
 10
332.4447618634877
 20
782.6310445099006
 11
362.4447618634877
 21
782.6310445099006
 72
     1
 10
362.4447618634877
 20
782.6310445099006
 11
362.4447618634877
 21
802.6310445099007
 72
     1
 10
362.4447618634877
 20
802.6310445099007
 11
332.4447618634877
 21
802.6310445099007
 72
     1
 10
332.4447618634877
 20
802.6310445099007
 11
332.4447618634877
 21
782.6310445099006
 97
        0
 75
     0
 76
     2
 52
0.0
 41
5.0
 77
     0
 78
     2
 53
45.0
 43
0.0
 44
0.0
 45
-10.60660171779821
 46
10.60660171779821
 79
     0
 53
45.0
 43
-5.303300858899105
 44
5.303300858899106
 45
-10.60660171779821
 46
10.60660171779821
 79
     0
 98
        0
1001
ACAD
1010
0.0
1020
0.0
1030
0.0
1001
NEM_ODX
1002
{
1000
BZM_DEPEND
1070
     1
1000
BZM_SCALE
1040
5.0
1000
HATCHING_301
1002
}
  0
LWPOLYLINE
  5
13F
330
1F
100
AcDbEntity
  8
HOUTEN KAPCONSTRUCTIE
  6
Continuous
 62
    30
370
    18
100
AcDbPolyline
 90
        5
 70
     1
 43
0.0
 10
332.4447618634877
 20
782.6310445099006
 10
362.4447618634877
 20
782.6310445099006
 10
362.4447618634877
 20
802.6310445099007
 10
332.4447618634877
 20
802.6310445099007
 10
332.4447618634877
 20
782.6310445099006
  0
LWPOLYLINE
  5
140
330
1F
100
AcDbEntity
  8
DILALATIEVOEG EN AFDICHTING
  6
VERDECKT2_S2
 62
     7
370
    25
100
AcDbPolyline
 90
        6
 70
     0
 43
0.0
 10
279.4447618634877
 20
785.6310445099007
 10
329.4489237024536
 20
785.631044005342
 10
329.4489237005473
 20
805.6310444708433
 10
739.1606000047613
 20
805.6310445099006
 10
752.4939333381044
 20
785.6310445099007
 10
805.7780951968162
 20
785.6310439630397
  0
HATCH
  5
141
330
1F
100
AcDbEntity
  8
HOUTEN KAPCONSTRUCTIE
  6
Continuous
 62
    30
370
    18
100
AcDbHatch
 10
0.0
 20
0.0
 30
0.0
210
0.0
220
0.0
230
1.0
  2
HATCHING_301
 70
     0
 71
     0
 91
        1
 92
        0
 93
        4
 72
     1
 10
702.4447618418344
 20
782.6310445099006
 11
732.4447618418344
 21
782.6310445099006
 72
     1
 10
732.4447618418344
 20
782.6310445099006
 11
732.4447618418344
 21
802.6310445099007
 72
     1
 10
732.4447618418344
 20
802.6310445099007
 11
702.4447618418344
 21
802.6310439630396
 72
     1
 10
702.4447618418344
 20
802.6310439630396
 11
702.4447618418344
 21
782.6310445099006
 97
        0
 75
     0
 76
     2
 52
0.0
 41
5.0
 77
     0
 78
     2
 53
45.0
 43
0.0
 44
0.0
 45
-10.60660171779821
 46
10.60660171779821
 79
     0
 53
45.0
 43
-5.303300858899105
 44
5.303300858899106
 45
-10.60660171779821
 46
10.60660171779821
 79
     0
 98
        0
1001
ACAD
1010
0.0
1020
0.0
1030
0.0
1001
NEM_ODX
1002
{
1000
BZM_DEPEND
1070
     1
1000
BZM_SCALE
1040
5.0
1000
HATCHING_301
1002
}
  0
LWPOLYLINE
  5
142
330
1F
100
AcDbEntity
  8
HOUTEN KAPCONSTRUCTIE
  6
Continuous
 62
    30
370
    18
100
AcDbPolyline
 90
        5
 70
     1
 43
0.0
 10
702.4447618418344
 20
782.6310445099006
 10
732.4447618418344
 20
782.6310445099006
 10
732.4447618418344
 20
802.6310445099007
 10
702.4447618418344
 20
802.6310439630396
 10
702.4447618418344
 20
782.6310445099006
  0
INSERT
  5
143
330
1F
100
AcDbEntity
  8
AANHAALLIJN
  6
Continuous
 62
    30
370
    18
100
AcDbBlockReference
  2
NSY154
 10
187.4447618634731
 20
813.6310444704649
 30
0.0
 41
1.962533333333333
 42
1.962533333333333
 43
1.962533333333333
  0
LINE
  5
144
330
1F
100
AcDbEntity
  8
Maatlijnen 1_5
  6
ALL_S17
 62
    30
370
    18
100
AcDbLine
 10
547.4422617931558
 20
802.6310410613078
 30
0.0
 11
547.4447617853439
 21
930.2110561215158
 31
0.0
  0
LINE
  5
145
330
1F
100
AcDbEntity
  8
Maatlijnen 1_5
  6
ALL_S17
 62
    30
370
    18
100
AcDbLine
 10
517.442261796983
 20
802.6314329319356
 30
0.0
 11
517.4447617891855
 21
930.2114480312084
 31
0.0
  0
LWPOLYLINE
  5
146
330
1F
100
AcDbEntity
  8
SANDWICH DAKELEMENTEN
  6
Continuous
 62
    30
370
    18
100
AcDbPolyline
 90
        4
 70
     0
 43
0.0
 10
947.4447618656123
 20
802.6310459161395
 10
547.4412278672826
 20
802.6310427911594
 10
547.4436969998205
 20
824.6310459161396
 10
947.4447618634876
 20
824.6310459161396
  0
LWPOLYLINE
  5
147
330
1F
100
AcDbEntity
  8
BETONNEN DAKPANNEN
  6
Continuous
 62
    30
370
    18
100
AcDbPolyline
 90
       37
 70
     0
 43
0.0
 10
813.44281370299
 20
856.4642037267404
 10
813.0304827357031
 20
852.4090542094127
 10
811.6857487944944
 20
848.5612051056742
 10
809.4824563015281
 20
845.1319553220892
 10
806.5415957853401
 20
842.3096173302401
 10
781.6726137853402
 20
827.3608113302397
 10
763.5466485291544
 20
818.4936518539689
 10
750.2721987030382
 20
814.1957157284997
 10
736.5897104789183
 20
811.4620753193376
 10
722.6828637853468
 20
810.3294283302457
 10
716.0962711186876
 20
811.5360502061594
 10
710.0508849937032
 20
814.415711114263
 10
704.9635760517412
 20
818.7698387344935
 10
701.1851487853419
 20
824.2981863302484
 10
698.0925747853325
 20
830.6102733302468
 10
693.5633968552719
 20
837.2421044309957
 10
687.3380550929432
 20
842.3155407385857
 10
679.9286688244028
 20
845.4132227145965
 10
671.9447615151294
 20
846.2803231669022
 10
667.9186981585663
 20
846.1341877620361
 10
663.9552807613362
 20
845.4117845497894
 10
660.1365613029193
 20
844.1280691698121
 10
656.5415957848308
 20
842.3096173612357
 10
626.1942057863489
 20
824.2981863146487
 10
613.5183792107709
 20
818.4888020657453
 10
600.2542334231256
 20
814.1890392952264
 10
586.5808569719665
 20
811.4569520771983
 10
572.6828637853468
 20
810.3294283302457
 10
566.0962711186876
 20
811.5360502061594
 10
560.0508849937032
 20
814.415711114263
 10
554.9635760517412
 20
818.7698387344935
 10
551.1851487853419
 20
824.2981863302484
 10
550.269190785344
 20
826.3262633302439
 10
548.4802976249484
 20
829.9428846809242
 10
546.2969743805443
 20
833.3359936277046
 10
543.746785089781
 20
836.4627528519267
 10
540.8619253950019
 20
839.2836875800202
  0
LWPOLYLINE
  5
148
330
1F
100
AcDbEntity
  8
BETONNEN DAKPANNEN
  6
Continuous
 62
     7
370
    25
100
AcDbPolyline
 90
       89
 70
     0
 43
0.0
 10
526.3469310902583
 20
843.2981863302483
 10
514.9447617853438
 20
843.2981863302483
 10
514.9447617853438
 20
855.2981863302484
 10
520.9447617853438
 20
855.2981863302484
 10
522.9447617853439
 20
851.2981863302483
 10
528.9447617853438
 20
851.2981863302483
 10
530.9447617853439
 20
855.2981863302484
 10
533.9447617853438
 20
855.2981863302484
 10
535.9447617853438
 20
850.2981863302483
 10
541.9447617853438
 20
850.2981863302483
 10
543.9447617853438
 20
853.2981863302484
 10
549.374918785339
 20
853.2981863302484
 10
552.7853431135445
 20
847.0952280964338
 10
557.7335296789388
 20
842.0332981822648
 10
563.8573922200885
 20
838.4828061854276
 10
570.7088135771191
 20
836.7035616078283
 10
577.7864367853472
 20
836.8257613302485
 10
595.5750631838745
 20
840.6636599818375
 10
613.080509779771
 20
845.6359868684884
 10
630.2305103687103
 20
851.7222151801034
 10
646.9542661083978
 20
858.8972196345494
 10
663.1827381757757
 20
867.13138054312
 10
671.2325662656658
 20
869.9441953605056
 10
679.7596684249729
 20
869.930315218553
 10
687.8002970363886
 20
867.0913082831466
 10
694.4456857831828
 20
861.7480439344872
 10
698.9447617853438
 20
854.504427330241
 10
702.1910503473482
 20
847.929808042878
 10
707.1339735134533
 20
842.5139499877623
 10
713.385436391356
 20
838.6820808044504
 10
720.4546035479288
 20
836.7350611521178
 10
727.7864367853472
 20
836.8257613302485
 10
745.579551165807
 20
840.6478477675191
 10
763.088256288509
 20
845.6125742453368
 10
780.239255530163
 20
851.6991569616148
 10
796.9607497358083
 20
858.8821156391277
 10
813.1827380169269
 20
867.131380480998
 10
819.2185908608662
 20
869.6787102227027
 10
825.7178166268422
 20
870.5036180587413
 10
832.1986639999231
 20
869.5449577047183
 10
838.180743148594
 20
866.873789167912
 10
843.2206355099479
 20
862.6881116509249
 10
846.9447617853438
 20
857.2981863302484
 10
846.9447617853438
 20
855.2981863302484
 10
842.9447617853439
 20
855.2981863302484
 10
840.9447617853439
 20
852.2981863302485
 10
837.9447617853438
 20
852.2981863302485
 10
834.9447617853439
 20
857.2981863302484
 10
829.9447617853438
 20
857.2981863302484
 10
827.9447617853438
 20
853.2981863302484
 10
824.9447617853439
 20
853.2981863302484
 10
821.9447617853438
 20
858.2981863302483
 10
818.9447617853438
 20
858.2981863302483
 10
812.9447617853438
 20
856.2981863302484
 10
812.7693367853499
 20
853.1322123302452
 10
812.5832656965357
 20
852.2457407720576
 10
812.1410901806665
 20
851.4552114852486
 10
811.4831212480057
 20
850.8326913933633
 10
810.6693400454679
 20
850.4349293880295
 10
809.7739317853411
 20
850.2981863302483
 10
806.4048087853443
 20
850.2981863302483
 10
791.8008426924061
 20
843.3289284275597
 10
776.7868367316987
 20
837.2935323247293
 10
761.4224366642447
 20
832.2159746561592
 10
745.7686802535754
 20
828.1164269376677
 10
729.887754785348
 20
825.0111753302407
 10
719.2688987063011
 20
824.6310441472378
 10
708.9731758400448
 20
827.2583444146075
 10
699.8348860274709
 20
832.6801775409913
 10
692.5945373695721
 20
840.4571925484997
 10
687.8388407853345
 20
849.9591903302425
 10
684.7231068481487
 20
854.6442448764356
 10
679.9403135797328
 20
857.6077602836376
 10
674.3580754724389
 20
858.3121443529453
 10
668.989031042729
 20
856.629620466345
 10
652.1355061279464
 20
847.8555870661294
 10
634.7133712854847
 20
840.273096044104
 10
616.8067432961979
 20
833.9187568297566
 10
598.5020784415101
 20
828.8232492624157
 10
579.887754785348
 20
825.0111753302407
 10
572.8293840849509
 20
824.710271669981
 10
565.8164669925026
 20
825.5647487822061
 10
559.0368582882802
 20
827.5517173914776
 10
552.67216350956
 20
830.6179526593988
 10
546.8928737853421
 20
834.6813193302441
 10
542.4744523172121
 20
838.2809085418484
 10
537.4530077050876
 20
840.9761978782698
 10
532.0111878257303
 20
842.6691500811356
 10
526.346931061038
 20
843.2981863556269
  0
HATCH
  5
149
330
1F
100
AcDbEntity
  8
BETONNEN DAKPANNEN
  6
Continuous
 62
   254
370
    13
100
AcDbHatch
 10
0.0
 20
0.0
 30
0.0
210
0.0
220
0.0
230
1.0
  2
SOLID
 70
     1
 71
     0
 91
        1
 92
        0
 93
       88
 72
     1
 10
616.8067432961979
 20
833.9187568297566
 11
634.7133712854847
 21
840.273096044104
 72
     1
 10
634.7133712854847
 20
840.273096044104
 11
652.1355061279464
 21
847.8555870661294
 72
     1
 10
652.1355061279464
 20
847.8555870661294
 11
668.989031042729
 21
856.629620466345
 72
     1
 10
668.989031042729
 20
856.629620466345
 11
674.3580754724389
 21
858.3121443529453
 72
     1
 10
674.3580754724389
 20
858.3121443529453
 11
679.9403135797328
 21
857.6077602836376
 72
     1
 10
679.9403135797328
 20
857.6077602836376
 11
684.7231068481487
 21
854.6442448764356
 72
     1
 10
684.7231068481487
 20
854.6442448764356
 11
687.8388407853345
 21
849.9591903302425
 72
     1
 10
687.8388407853345
 20
849.9591903302425
 11
692.5945373695721
 21
840.4571925484997
 72
     1
 10
692.5945373695721
 20
840.4571925484997
 11
699.8348860274709
 21
832.6801775409913
 72
     1
 10
699.8348860274709
 20
832.6801775409913
 11
708.9731758400448
 21
827.2583444146075
 72
     1
 10
708.9731758400448
 20
827.2583444146075
 11
719.2688987063011
 21
824.6310441472378
 72
     1
 10
719.2688987063011
 20
824.6310441472378
 11
729.887754785348
 21
825.0111753302407
 72
     1
 10
729.887754785348
 20
825.0111753302407
 11
745.7686802535754
 21
828.1164269376677
 72
     1
 10
745.7686802535754
 20
828.1164269376677
 11
761.4224366642447
 21
832.2159746561592
 72
     1
 10
761.4224366642447
 20
832.2159746561592
 11
776.7868367316987
 21
837.2935323247293
 72
     1
 10
776.7868367316987
 20
837.2935323247293
 11
791.8008426924061
 21
843.3289284275597
 72
     1
 10
791.8008426924061
 20
843.3289284275597
 11
806.4048087853443
 21
850.2981863302483
 72
     1
 10
806.4048087853443
 20
850.2981863302483
 11
809.7739317853411
 21
850.2981863302483
 72
     1
 10
809.7739317853411
 20
850.2981863302483
 11
810.6693400454679
 21
850.4349293880295
 72
     1
 10
810.6693400454679
 20
850.4349293880295
 11
811.4831212480057
 21
850.8326913933633
 72
     1
 10
811.4831212480057
 20
850.8326913933633
 11
812.1410901806665
 21
851.4552114852486
 72
     1
 10
812.1410901806665
 20
851.4552114852486
 11
812.5832656965357
 21
852.2457407720576
 72
     1
 10
812.5832656965357
 20
852.2457407720576
 11
812.7693367853499
 21
853.1322123302452
 72
     1
 10
812.7693367853499
 20
853.1322123302452
 11
812.9447617853438
 21
856.2981863302484
 72
     1
 10
812.9447617853438
 20
856.2981863302484
 11
818.9447617853438
 21
858.2981863302483
 72
     1
 10
818.9447617853438
 20
858.2981863302483
 11
821.9447617853438
 21
858.2981863302483
 72
     1
 10
821.9447617853438
 20
858.2981863302483
 11
824.9447617853439
 21
853.2981863302484
 72
     1
 10
824.9447617853439
 20
853.2981863302484
 11
827.9447617853438
 21
853.2981863302484
 72
     1
 10
827.9447617853438
 20
853.2981863302484
 11
829.9447617853438
 21
857.2981863302484
 72
     1
 10
829.9447617853438
 20
857.2981863302484
 11
834.9447617853439
 21
857.2981863302484
 72
     1
 10
834.9447617853439
 20
857.2981863302484
 11
837.9447617853438
 21
852.2981863302485
 72
     1
 10
837.9447617853438
 20
852.2981863302485
 11
840.9447617853439
 21
852.2981863302485
 72
     1
 10
840.9447617853439
 20
852.2981863302485
 11
842.9447617853439
 21
855.2981863302484
 72
     1
 10
842.9447617853439
 20
855.2981863302484
 11
846.9447617853438
 21
855.2981863302484
 72
     1
 10
846.9447617853438
 20
855.2981863302484
 11
846.9447617853438
 21
857.2981863302484
 72
     1
 10
846.9447617853438
 20
857.2981863302484
 11
843.2206355099479
 21
862.6881116509249
 72
     1
 10
843.2206355099479
 20
862.6881116509249
 11
838.180743148594
 21
866.873789167912
 72
     1
 10
838.180743148594
 20
866.873789167912
 11
832.1986639999231
 21
869.5449577047183
 72
     1
 10
832.1986639999231
 20
869.5449577047183
 11
825.7178166268422
 21
870.5036180587413
 72
     1
 10
825.7178166268422
 20
870.5036180587413
 11
819.2185908608662
 21
869.6787102227027
 72
     1
 10
819.2185908608662
 20
869.6787102227027
 11
813.1827380169269
 21
867.131380480998
 72
     1
 10
813.1827380169269
 20
867.131380480998
 11
796.9607497358083
 21
858.8821156391277
 72
     1
 10
796.9607497358083
 20
858.8821156391277
 11
780.239255530163
 21
851.6991569616148
 72
     1
 10
780.239255530163
 20
851.6991569616148
 11
763.088256288509
 21
845.6125742453368
 72
     1
 10
763.088256288509
 20
845.6125742453368
 11
745.579551165807
 21
840.6478477675191
 72
     1
 10
745.579551165807
 20
840.6478477675191
 11
727.7864367853472
 21
836.8257613302485
 72
     1
 10
727.7864367853472
 20
836.8257613302485
 11
720.4546035479288
 21
836.7350611521178
 72
     1
 10
720.4546035479288
 20
836.7350611521178
 11
713.385436391356
 21
838.6820808044504
 72
     1
 10
713.385436391356
 20
838.6820808044504
 11
707.1339735134533
 21
842.5139499877623
 72
     1
 10
707.1339735134533
 20
842.5139499877623
 11
702.1910503473482
 21
847.929808042878
 72
     1
 10
702.1910503473482
 20
847.929808042878
 11
698.9447617853438
 21
854.504427330241
 72
     1
 10
698.9447617853438
 20
854.504427330241
 11
694.4456857831828
 21
861.7480439344872
 72
     1
 10
694.4456857831828
 20
861.7480439344872
 11
687.8002970363886
 21
867.0913082831466
 72
     1
 10
687.8002970363886
 20
867.0913082831466
 11
679.7596684249729
 21
869.930315218553
 72
     1
 10
679.7596684249729
 20
869.930315218553
 11
671.2325662656658
 21
869.9441953605056
 72
     1
 10
671.2325662656658
 20
869.9441953605056
 11
663.1827381757757
 21
867.13138054312
 72
     1
 10
663.1827381757757
 20
867.13138054312
 11
646.9542661083978
 21
858.8972196345494
 72
     1
 10
646.9542661083978
 20
858.8972196345494
 11
630.2305103687103
 21
851.7222151801034
 72
     1
 10
630.2305103687103
 20
851.7222151801034
 11
613.080509779771
 21
845.6359868684884
 72
     1
 10
613.080509779771
 20
845.6359868684884
 11
595.5750631838745
 21
840.6636599818375
 72
     1
 10
595.5750631838745
 20
840.6636599818375
 11
577.7864367853472
 21
836.8257613302485
 72
     1
 10
577.7864367853472
 20
836.8257613302485
 11
570.7088135771191
 21
836.7035616078283
 72
     1
 10
570.7088135771191
 20
836.7035616078283
 11
563.8573922200885
 21
838.4828061854276
 72
     1
 10
563.8573922200885
 20
838.4828061854276
 11
557.7335296789388
 21
842.0332981822648
 72
     1
 10
557.7335296789388
 20
842.0332981822648
 11
552.7853431135445
 21
847.0952280964338
 72
     1
 10
552.7853431135445
 20
847.0952280964338
 11
549.374918785339
 21
853.2981863302484
 72
     1
 10
549.374918785339
 20
853.2981863302484
 11
543.9447617853438
 21
853.2981863302484
 72
     1
 10
543.9447617853438
 20
853.2981863302484
 11
541.9447617853438
 21
850.2981863302483
 72
     1
 10
541.9447617853438
 20
850.2981863302483
 11
535.9447617853438
 21
850.2981863302483
 72
     1
 10
535.9447617853438
 20
850.2981863302483
 11
533.9447617853438
 21
855.2981863302484
 72
     1
 10
533.9447617853438
 20
855.2981863302484
 11
530.9447617853439
 21
855.2981863302484
 72
     1
 10
530.9447617853439
 20
855.2981863302484
 11
528.9447617853438
 21
851.2981863302483
 72
     1
 10
528.9447617853438
 20
851.2981863302483
 11
522.9447617853439
 21
851.2981863302483
 72
     1
 10
522.9447617853439
 20
851.2981863302483
 11
520.9447617853438
 21
855.2981863302484
 72
     1
 10
520.9447617853438
 20
855.2981863302484
 11
514.9447617853438
 21
855.2981863302484
 72
     1
 10
514.9447617853438
 20
855.2981863302484
 11
514.9447617853438
 21
843.2981863302483
 72
     1
 10
514.9447617853438
 20
843.2981863302483
 11
526.346931061038
 21
843.2981863556269
 72
     1
 10
526.346931061038
 20
843.2981863556269
 11
532.0111878257303
 21
842.6691500811356
 72
     1
 10
532.0111878257303
 20
842.6691500811356
 11
537.4530077050876
 21
840.9761978782698
 72
     1
 10
537.4530077050876
 20
840.9761978782698
 11
542.4744523172121
 21
838.2809085418484
 72
     1
 10
542.4744523172121
 20
838.2809085418484
 11
546.8928737853421
 21
834.6813193302441
 72
     1
 10
546.8928737853421
 20
834.6813193302441
 11
552.67216350956
 21
830.6179526593988
 72
     1
 10
552.67216350956
 20
830.6179526593988
 11
559.0368582882802
 21
827.5517173914776
 72
     1
 10
559.0368582882802
 20
827.5517173914776
 11
565.8164669925026
 21
825.5647487822061
 72
     1
 10
565.8164669925026
 20
825.5647487822061
 11
572.8293840849509
 21
824.710271669981
 72
     1
 10
572.8293840849509
 20
824.710271669981
 11
579.887754785348
 21
825.0111753302407
 72
     1
 10
579.887754785348
 20
825.0111753302407
 11
598.5020784415101
 21
828.8232492624157
 72
     1
 10
598.5020784415101
 20
828.8232492624157
 11
616.8067432961979
 21
833.9187568297566
 97
        0
 75
     0
 76
     1
 98
        0
450
        0
451
        0
460
0.0
461
0.0
452
        1
462
0.0
453
        0
470

1001
ACAD
1010
0.0
1020
0.0
1030
0.0
1001
NEM_ODX
1002
{
1000
BZM_DEPEND
1070
     1
1000
BZM_SCALE
1040
5.0
1000
HATCHING_314
1002
}
  0
HATCH
  5
14A
330
1F
100
AcDbEntity
  8
BETONNEN DAKPANNEN
  6
Continuous
 62
     7
370
    13
100
AcDbHatch
 10
0.0
 20
0.0
 30
0.0
210
0.0
220
0.0
230
1.0
  2
HATCHING_314
 70
     0
 71
     0
 91
        1
 92
        0
 93
       88
 72
     1
 10
616.8067432961979
 20
833.9187568297566
 11
634.7133712854847
 21
840.273096044104
 72
     1
 10
634.7133712854847
 20
840.273096044104
 11
652.1355061279464
 21
847.8555870661294
 72
     1
 10
652.1355061279464
 20
847.8555870661294
 11
668.989031042729
 21
856.629620466345
 72
     1
 10
668.989031042729
 20
856.629620466345
 11
674.3580754724389
 21
858.3121443529453
 72
     1
 10
674.3580754724389
 20
858.3121443529453
 11
679.9403135797328
 21
857.6077602836376
 72
     1
 10
679.9403135797328
 20
857.6077602836376
 11
684.7231068481487
 21
854.6442448764356
 72
     1
 10
684.7231068481487
 20
854.6442448764356
 11
687.8388407853345
 21
849.9591903302425
 72
     1
 10
687.8388407853345
 20
849.9591903302425
 11
692.5945373695721
 21
840.4571925484997
 72
     1
 10
692.5945373695721
 20
840.4571925484997
 11
699.8348860274709
 21
832.6801775409913
 72
     1
 10
699.8348860274709
 20
832.6801775409913
 11
708.9731758400448
 21
827.2583444146075
 72
     1
 10
708.9731758400448
 20
827.2583444146075
 11
719.2688987063011
 21
824.6310441472378
 72
     1
 10
719.2688987063011
 20
824.6310441472378
 11
729.887754785348
 21
825.0111753302407
 72
     1
 10
729.887754785348
 20
825.0111753302407
 11
745.7686802535754
 21
828.1164269376677
 72
     1
 10
745.7686802535754
 20
828.1164269376677
 11
761.4224366642447
 21
832.2159746561592
 72
     1
 10
761.4224366642447
 20
832.2159746561592
 11
776.7868367316987
 21
837.2935323247293
 72
     1
 10
776.7868367316987
 20
837.2935323247293
 11
791.8008426924061
 21
843.3289284275597
 72
     1
 10
791.8008426924061
 20
843.3289284275597
 11
806.4048087853443
 21
850.2981863302483
 72
     1
 10
806.4048087853443
 20
850.2981863302483
 11
809.7739317853411
 21
850.2981863302483
 72
     1
 10
809.7739317853411
 20
850.2981863302483
 11
810.6693400454679
 21
850.4349293880295
 72
     1
 10
810.6693400454679
 20
850.4349293880295
 11
811.4831212480057
 21
850.8326913933633
 72
     1
 10
811.4831212480057
 20
850.8326913933633
 11
812.1410901806665
 21
851.4552114852486
 72
     1
 10
812.1410901806665
 20
851.4552114852486
 11
812.5832656965357
 21
852.2457407720576
 72
     1
 10
812.5832656965357
 20
852.2457407720576
 11
812.7693367853499
 21
853.1322123302452
 72
     1
 10
812.7693367853499
 20
853.1322123302452
 11
812.9447617853438
 21
856.2981863302484
 72
     1
 10
812.9447617853438
 20
856.2981863302484
 11
818.9447617853438
 21
858.2981863302483
 72
     1
 10
818.9447617853438
 20
858.2981863302483
 11
821.9447617853438
 21
858.2981863302483
 72
     1
 10
821.9447617853438
 20
858.2981863302483
 11
824.9447617853439
 21
853.2981863302484
 72
     1
 10
824.9447617853439
 20
853.2981863302484
 11
827.9447617853438
 21
853.2981863302484
 72
     1
 10
827.9447617853438
 20
853.2981863302484
 11
829.9447617853438
 21
857.2981863302484
 72
     1
 10
829.9447617853438
 20
857.2981863302484
 11
834.9447617853439
 21
857.2981863302484
 72
     1
 10
834.9447617853439
 20
857.2981863302484
 11
837.9447617853438
 21
852.2981863302485
 72
     1
 10
837.9447617853438
 20
852.2981863302485
 11
840.9447617853439
 21
852.2981863302485
 72
     1
 10
840.9447617853439
 20
852.2981863302485
 11
842.9447617853439
 21
855.2981863302484
 72
     1
 10
842.9447617853439
 20
855.2981863302484
 11
846.9447617853438
 21
855.2981863302484
 72
     1
 10
846.9447617853438
 20
855.2981863302484
 11
846.9447617853438
 21
857.2981863302484
 72
     1
 10
846.9447617853438
 20
857.2981863302484
 11
843.2206355099479
 21
862.6881116509249
 72
     1
 10
843.2206355099479
 20
862.6881116509249
 11
838.180743148594
 21
866.873789167912
 72
     1
 10
838.180743148594
 20
866.873789167912
 11
832.1986639999231
 21
869.5449577047183
 72
     1
 10
832.1986639999231
 20
869.5449577047183
 11
825.7178166268422
 21
870.5036180587413
 72
     1
 10
825.7178166268422
 20
870.5036180587413
 11
819.2185908608662
 21
869.6787102227027
 72
     1
 10
819.2185908608662
 20
869.6787102227027
 11
813.1827380169269
 21
867.131380480998
 72
     1
 10
813.1827380169269
 20
867.131380480998
 11
796.9607497358083
 21
858.8821156391277
 72
     1
 10
796.9607497358083
 20
858.8821156391277
 11
780.239255530163
 21
851.6991569616148
 72
     1
 10
780.239255530163
 20
851.6991569616148
 11
763.088256288509
 21
845.6125742453368
 72
     1
 10
763.088256288509
 20
845.6125742453368
 11
745.579551165807
 21
840.6478477675191
 72
     1
 10
745.579551165807
 20
840.6478477675191
 11
727.7864367853472
 21
836.8257613302485
 72
     1
 10
727.7864367853472
 20
836.8257613302485
 11
720.4546035479288
 21
836.7350611521178
 72
     1
 10
720.4546035479288
 20
836.7350611521178
 11
713.385436391356
 21
838.6820808044504
 72
     1
 10
713.385436391356
 20
838.6820808044504
 11
707.1339735134533
 21
842.5139499877623
 72
     1
 10
707.1339735134533
 20
842.5139499877623
 11
702.1910503473482
 21
847.929808042878
 72
     1
 10
702.1910503473482
 20
847.929808042878
 11
698.9447617853438
 21
854.504427330241
 72
     1
 10
698.9447617853438
 20
854.504427330241
 11
694.4456857831828
 21
861.7480439344872
 72
     1
 10
694.4456857831828
 20
861.7480439344872
 11
687.8002970363886
 21
867.0913082831466
 72
     1
 10
687.8002970363886
 20
867.0913082831466
 11
679.7596684249729
 21
869.930315218553
 72
     1
 10
679.7596684249729
 20
869.930315218553
 11
671.2325662656658
 21
869.9441953605056
 72
     1
 10
671.2325662656658
 20
869.9441953605056
 11
663.1827381757757
 21
867.13138054312
 72
     1
 10
663.1827381757757
 20
867.13138054312
 11
646.9542661083978
 21
858.8972196345494
 72
     1
 10
646.9542661083978
 20
858.8972196345494
 11
630.2305103687103
 21
851.7222151801034
 72
     1
 10
630.2305103687103
 20
851.7222151801034
 11
613.080509779771
 21
845.6359868684884
 72
     1
 10
613.080509779771
 20
845.6359868684884
 11
595.5750631838745
 21
840.6636599818375
 72
     1
 10
595.5750631838745
 20
840.6636599818375
 11
577.7864367853472
 21
836.8257613302485
 72
     1
 10
577.7864367853472
 20
836.8257613302485
 11
570.7088135771191
 21
836.7035616078283
 72
     1
 10
570.7088135771191
 20
836.7035616078283
 11
563.8573922200885
 21
838.4828061854276
 72
     1
 10
563.8573922200885
 20
838.4828061854276
 11
557.7335296789388
 21
842.0332981822648
 72
     1
 10
557.7335296789388
 20
842.0332981822648
 11
552.7853431135445
 21
847.0952280964338
 72
     1
 10
552.7853431135445
 20
847.0952280964338
 11
549.374918785339
 21
853.2981863302484
 72
     1
 10
549.374918785339
 20
853.2981863302484
 11
543.9447617853438
 21
853.2981863302484
 72
     1
 10
543.9447617853438
 20
853.2981863302484
 11
541.9447617853438
 21
850.2981863302483
 72
     1
 10
541.9447617853438
 20
850.2981863302483
 11
535.9447617853438
 21
850.2981863302483
 72
     1
 10
535.9447617853438
 20
850.2981863302483
 11
533.9447617853438
 21
855.2981863302484
 72
     1
 10
533.9447617853438
 20
855.2981863302484
 11
530.9447617853439
 21
855.2981863302484
 72
     1
 10
530.9447617853439
 20
855.2981863302484
 11
528.9447617853438
 21
851.2981863302483
 72
     1
 10
528.9447617853438
 20
851.2981863302483
 11
522.9447617853439
 21
851.2981863302483
 72
     1
 10
522.9447617853439
 20
851.2981863302483
 11
520.9447617853438
 21
855.2981863302484
 72
     1
 10
520.9447617853438
 20
855.2981863302484
 11
514.9447617853438
 21
855.2981863302484
 72
     1
 10
514.9447617853438
 20
855.2981863302484
 11
514.9447617853438
 21
843.2981863302483
 72
     1
 10
514.9447617853438
 20
843.2981863302483
 11
526.346931061038
 21
843.2981863556269
 72
     1
 10
526.346931061038
 20
843.2981863556269
 11
532.0111878257303
 21
842.6691500811356
 72
     1
 10
532.0111878257303
 20
842.6691500811356
 11
537.4530077050876
 21
840.9761978782698
 72
     1
 10
537.4530077050876
 20
840.9761978782698
 11
542.4744523172121
 21
838.2809085418484
 72
     1
 10
542.4744523172121
 20
838.2809085418484
 11
546.8928737853421
 21
834.6813193302441
 72
     1
 10
546.8928737853421
 20
834.6813193302441
 11
552.67216350956
 21
830.6179526593988
 72
     1
 10
552.67216350956
 20
830.6179526593988
 11
559.0368582882802
 21
827.5517173914776
 72
     1
 10
559.0368582882802
 20
827.5517173914776
 11
565.8164669925026
 21
825.5647487822061
 72
     1
 10
565.8164669925026
 20
825.5647487822061
 11
572.8293840849509
 21
824.710271669981
 72
     1
 10
572.8293840849509
 20
824.710271669981
 11
579.887754785348
 21
825.0111753302407
 72
     1
 10
579.887754785348
 20
825.0111753302407
 11
598.5020784415101
 21
828.8232492624157
 72
     1
 10
598.5020784415101
 20
828.8232492624157
 11
616.8067432961979
 21
833.9187568297566
 97
        0
 75
     0
 76
     2
 52
0.0
 41
5.0
 77
     0
 78
     2
 53
45.0
 43
0.0
 44
0.0
 45
-5.303300858899105
 46
5.303300858899106
 79
     0
 53
135.0
 43
0.0
 44
0.0
 45
-5.303300858899106
 46
-5.303300858899105
 79
     0
 98
        0
1001
ACAD
1010
0.0
1020
0.0
1030
0.0
1001
NEM_ODX
1002
{
1000
BZM_DEPEND
1070
     1
1000
BZM_SCALE
1040
5.0
1000
HATCHING_314
1002
}
  0
LWPOLYLINE
  5
14B
330
1F
100
AcDbEntity
  8
BETONNEN DAKPANNEN
  6
Continuous
 62
    30
370
    18
100
AcDbPolyline
 90
       37
 70
     0
 43
0.0
 10
513.4428137029899
 20
856.4642037267404
 10
513.0304827357031
 20
852.4090542094127
 10
511.6857487944944
 20
848.5612051056742
 10
509.4824563015281
 20
845.1319553220892
 10
506.5415957853401
 20
842.3096173302401
 10
481.6726137853402
 20
827.3608113302397
 10
463.5466485291544
 20
818.4936518539689
 10
450.2721987030382
 20
814.1957157284997
 10
436.5897104789183
 20
811.4620753193376
 10
422.6828637853468
 20
810.3294283302457
 10
416.0962711186876
 20
811.5360502061594
 10
410.0508849937032
 20
814.415711114263
 10
404.9635760517412
 20
818.7698387344935
 10
401.1851487853419
 20
824.2981863302484
 10
398.0925747853325
 20
830.6102733302468
 10
393.563396855272
 20
837.2421044309957
 10
387.3380550929433
 20
842.3155407385857
 10
379.9286688244028
 20
845.4132227145965
 10
371.9447615151294
 20
846.2803231669022
 10
367.9186981585663
 20
846.1341877620361
 10
363.9552807613363
 20
845.4117845497894
 10
360.1365613029193
 20
844.1280691698121
 10
356.5415957848309
 20
842.3096173612357
 10
326.1942057863489
 20
824.2981863146487
 10
313.518379210771
 20
818.4888020657453
 10
300.2542334231257
 20
814.1890392952264
 10
286.5808569719666
 20
811.4569520771983
 10
272.6828637853468
 20
810.3294283302457
 10
266.0962711186876
 20
811.5360502061594
 10
260.0508849937032
 20
814.415711114263
 10
254.9635760517412
 20
818.7698387344935
 10
251.1851487853419
 20
824.2981863302484
 10
250.2691907853441
 20
826.3262633302439
 10
248.4802976249484
 20
829.9428846809242
 10
246.2969743805443
 20
833.3359936277046
 10
243.746785089781
 20
836.4627528519267
 10
240.8619253950019
 20
839.2836875800202
  0
LWPOLYLINE
  5
14C
330
1F
100
AcDbEntity
  8
BETONNEN DAKPANNEN
  6
Continuous
 62
     7
370
    25
100
AcDbPolyline
 90
       89
 70
     0
 43
0.0
 10
226.3469310902583
 20
843.2981863302483
 10
214.9447617853439
 20
843.2981863302483
 10
214.9447617853439
 20
855.2981863302484
 10
220.9447617853439
 20
855.2981863302484
 10
222.9447617853439
 20
851.2981863302483
 10
228.9447617853439
 20
851.2981863302483
 10
230.9447617853439
 20
855.2981863302484
 10
233.9447617853439
 20
855.2981863302484
 10
235.9447617853439
 20
850.2981863302483
 10
241.9447617853439
 20
850.2981863302483
 10
243.9447617853438
 20
853.2981863302484
 10
249.3749187853391
 20
853.2981863302484
 10
252.7853431135445
 20
847.0952280964338
 10
257.7335296789388
 20
842.0332981822648
 10
263.8573922200885
 20
838.4828061854276
 10
270.7088135771191
 20
836.7035616078283
 10
277.7864367853472
 20
836.8257613302485
 10
295.5750631838746
 20
840.6636599818375
 10
313.0805097797711
 20
845.6359868684884
 10
330.2305103687104
 20
851.7222151801034
 10
346.9542661083979
 20
858.8972196345494
 10
363.1827381757757
 20
867.13138054312
 10
371.2325662656658
 20
869.9441953605056
 10
379.7596684249729
 20
869.930315218553
 10
387.8002970363887
 20
867.0913082831466
 10
394.4456857831828
 20
861.7480439344872
 10
398.9447617853439
 20
854.504427330241
 10
402.1910503473482
 20
847.929808042878
 10
407.1339735134533
 20
842.5139499877623
 10
413.385436391356
 20
838.6820808044504
 10
420.4546035479288
 20
836.7350611521178
 10
427.7864367853472
 20
836.8257613302485
 10
445.579551165807
 20
840.6478477675191
 10
463.088256288509
 20
845.6125742453368
 10
480.239255530163
 20
851.6991569616148
 10
496.9607497358083
 20
858.8821156391277
 10
513.182738016927
 20
867.131380480998
 10
519.2185908608662
 20
869.6787102227027
 10
525.7178166268422
 20
870.5036180587413
 10
532.1986639999231
 20
869.5449577047183
 10
538.180743148594
 20
866.873789167912
 10
543.2206355099479
 20
862.6881116509249
 10
546.9447617853439
 20
857.2981863302484
 10
546.9447617853439
 20
855.2981863302484
 10
542.9447617853439
 20
855.2981863302484
 10
540.9447617853438
 20
852.2981863302485
 10
537.9447617853438
 20
852.2981863302485
 10
534.9447617853439
 20
857.2981863302484
 10
529.9447617853438
 20
857.2981863302484
 10
527.9447617853438
 20
853.2981863302484
 10
524.9447617853438
 20
853.2981863302484
 10
521.9447617853439
 20
858.2981863302483
 10
518.9447617853438
 20
858.2981863302483
 10
512.9447617853438
 20
856.2981863302484
 10
512.7693367853498
 20
853.1322123302452
 10
512.5832656965358
 20
852.2457407720576
 10
512.1410901806666
 20
851.4552114852486
 10
511.4831212480058
 20
850.8326913933633
 10
510.6693400454678
 20
850.4349293880295
 10
509.773931785341
 20
850.2981863302483
 10
506.4048087853443
 20
850.2981863302483
 10
491.8008426924061
 20
843.3289284275597
 10
476.7868367316987
 20
837.2935323247293
 10
461.4224366642447
 20
832.2159746561592
 10
445.7686802535754
 20
828.1164269376677
 10
429.887754785348
 20
825.0111753302407
 10
419.2688987063011
 20
824.6310441472378
 10
408.9731758400448
 20
827.2583444146075
 10
399.8348860274709
 20
832.6801775409913
 10
392.5945373695722
 20
840.4571925484997
 10
387.8388407853345
 20
849.9591903302425
 10
384.7231068481487
 20
854.6442448764356
 10
379.9403135797329
 20
857.6077602836376
 10
374.3580754724389
 20
858.3121443529453
 10
368.9890310427291
 20
856.629620466345
 10
352.1355061279464
 20
847.8555870661294
 10
334.7133712854847
 20
840.273096044104
 10
316.806743296198
 20
833.9187568297566
 10
298.5020784415101
 20
828.8232492624157
 10
279.8877547853481
 20
825.0111753302407
 10
272.829384084951
 20
824.710271669981
 10
265.8164669925027
 20
825.5647487822061
 10
259.0368582882802
 20
827.5517173914776
 10
252.6721635095601
 20
830.6179526593988
 10
246.8928737853421
 20
834.6813193302441
 10
242.4744523172121
 20
838.2809085418484
 10
237.4530077050877
 20
840.9761978782698
 10
232.0111878257303
 20
842.6691500811356
 10
226.3469310610381
 20
843.2981863556269
  0
HATCH
  5
14D
330
1F
100
AcDbEntity
  8
BETONNEN DAKPANNEN
  6
Continuous
 62
   254
370
    13
100
AcDbHatch
 10
0.0
 20
0.0
 30
0.0
210
0.0
220
0.0
230
1.0
  2
SOLID
 70
     1
 71
     0
 91
        1
 92
        0
 93
       88
 72
     1
 10
316.806743296198
 20
833.9187568297566
 11
334.7133712854847
 21
840.273096044104
 72
     1
 10
334.7133712854847
 20
840.273096044104
 11
352.1355061279464
 21
847.8555870661294
 72
     1
 10
352.1355061279464
 20
847.8555870661294
 11
368.9890310427291
 21
856.629620466345
 72
     1
 10
368.9890310427291
 20
856.629620466345
 11
374.3580754724389
 21
858.3121443529453
 72
     1
 10
374.3580754724389
 20
858.3121443529453
 11
379.9403135797329
 21
857.6077602836376
 72
     1
 10
379.9403135797329
 20
857.6077602836376
 11
384.7231068481487
 21
854.6442448764356
 72
     1
 10
384.7231068481487
 20
854.6442448764356
 11
387.8388407853345
 21
849.9591903302425
 72
     1
 10
387.8388407853345
 20
849.9591903302425
 11
392.5945373695722
 21
840.4571925484997
 72
     1
 10
392.5945373695722
 20
840.4571925484997
 11
399.8348860274709
 21
832.6801775409913
 72
     1
 10
399.8348860274709
 20
832.6801775409913
 11
408.9731758400448
 21
827.2583444146075
 72
     1
 10
408.9731758400448
 20
827.2583444146075
 11
419.2688987063011
 21
824.6310441472378
 72
     1
 10
419.2688987063011
 20
824.6310441472378
 11
429.887754785348
 21
825.0111753302407
 72
     1
 10
429.887754785348
 20
825.0111753302407
 11
445.7686802535754
 21
828.1164269376677
 72
     1
 10
445.7686802535754
 20
828.1164269376677
 11
461.4224366642447
 21
832.2159746561592
 72
     1
 10
461.4224366642447
 20
832.2159746561592
 11
476.7868367316987
 21
837.2935323247293
 72
     1
 10
476.7868367316987
 20
837.2935323247293
 11
491.8008426924061
 21
843.3289284275597
 72
     1
 10
491.8008426924061
 20
843.3289284275597
 11
506.4048087853443
 21
850.2981863302483
 72
     1
 10
506.4048087853443
 20
850.2981863302483
 11
509.773931785341
 21
850.2981863302483
 72
     1
 10
509.773931785341
 20
850.2981863302483
 11
510.6693400454678
 21
850.4349293880295
 72
     1
 10
510.6693400454678
 20
850.4349293880295
 11
511.4831212480058
 21
850.8326913933633
 72
     1
 10
511.4831212480058
 20
850.8326913933633
 11
512.1410901806666
 21
851.4552114852486
 72
     1
 10
512.1410901806666
 20
851.4552114852486
 11
512.5832656965358
 21
852.2457407720576
 72
     1
 10
512.5832656965358
 20
852.2457407720576
 11
512.7693367853498
 21
853.1322123302452
 72
     1
 10
512.7693367853498
 20
853.1322123302452
 11
512.9447617853438
 21
856.2981863302484
 72
     1
 10
512.9447617853438
 20
856.2981863302484
 11
518.9447617853438
 21
858.2981863302483
 72
     1
 10
518.9447617853438
 20
858.2981863302483
 11
521.9447617853439
 21
858.2981863302483
 72
     1
 10
521.9447617853439
 20
858.2981863302483
 11
524.9447617853438
 21
853.2981863302484
 72
     1
 10
524.9447617853438
 20
853.2981863302484
 11
527.9447617853438
 21
853.2981863302484
 72
     1
 10
527.9447617853438
 20
853.2981863302484
 11
529.9447617853438
 21
857.2981863302484
 72
     1
 10
529.9447617853438
 20
857.2981863302484
 11
534.9447617853439
 21
857.2981863302484
 72
     1
 10
534.9447617853439
 20
857.2981863302484
 11
537.9447617853438
 21
852.2981863302485
 72
     1
 10
537.9447617853438
 20
852.2981863302485
 11
540.9447617853438
 21
852.2981863302485
 72
     1
 10
540.9447617853438
 20
852.2981863302485
 11
542.9447617853439
 21
855.2981863302484
 72
     1
 10
542.9447617853439
 20
855.2981863302484
 11
546.9447617853439
 21
855.2981863302484
 72
     1
 10
546.9447617853439
 20
855.2981863302484
 11
546.9447617853439
 21
857.2981863302484
 72
     1
 10
546.9447617853439
 20
857.2981863302484
 11
543.2206355099479
 21
862.6881116509249
 72
     1
 10
543.2206355099479
 20
862.6881116509249
 11
538.180743148594
 21
866.873789167912
 72
     1
 10
538.180743148594
 20
866.873789167912
 11
532.1986639999231
 21
869.5449577047183
 72
     1
 10
532.1986639999231
 20
869.5449577047183
 11
525.7178166268422
 21
870.5036180587413
 72
     1
 10
525.7178166268422
 20
870.5036180587413
 11
519.2185908608662
 21
869.6787102227027
 72
     1
 10
519.2185908608662
 20
869.6787102227027
 11
513.182738016927
 21
867.131380480998
 72
     1
 10
513.182738016927
 20
867.131380480998
 11
496.9607497358083
 21
858.8821156391277
 72
     1
 10
496.9607497358083
 20
858.8821156391277
 11
480.239255530163
 21
851.6991569616148
 72
     1
 10
480.239255530163
 20
851.6991569616148
 11
463.088256288509
 21
845.6125742453368
 72
     1
 10
463.088256288509
 20
845.6125742453368
 11
445.579551165807
 21
840.6478477675191
 72
     1
 10
445.579551165807
 20
840.6478477675191
 11
427.7864367853472
 21
836.8257613302485
 72
     1
 10
427.7864367853472
 20
836.8257613302485
 11
420.4546035479288
 21
836.7350611521178
 72
     1
 10
420.4546035479288
 20
836.7350611521178
 11
413.385436391356
 21
838.6820808044504
 72
     1
 10
413.385436391356
 20
838.6820808044504
 11
407.1339735134533
 21
842.5139499877623
 72
     1
 10
407.1339735134533
 20
842.5139499877623
 11
402.1910503473482
 21
847.929808042878
 72
     1
 10
402.1910503473482
 20
847.929808042878
 11
398.9447617853439
 21
854.504427330241
 72
     1
 10
398.9447617853439
 20
854.504427330241
 11
394.4456857831828
 21
861.7480439344872
 72
     1
 10
394.4456857831828
 20
861.7480439344872
 11
387.8002970363887
 21
867.0913082831466
 72
     1
 10
387.8002970363887
 20
867.0913082831466
 11
379.7596684249729
 21
869.930315218553
 72
     1
 10
379.7596684249729
 20
869.930315218553
 11
371.2325662656658
 21
869.9441953605056
 72
     1
 10
371.2325662656658
 20
869.9441953605056
 11
363.1827381757757
 21
867.13138054312
 72
     1
 10
363.1827381757757
 20
867.13138054312
 11
346.9542661083979
 21
858.8972196345494
 72
     1
 10
346.9542661083979
 20
858.8972196345494
 11
330.2305103687104
 21
851.7222151801034
 72
     1
 10
330.2305103687104
 20
851.7222151801034
 11
313.0805097797711
 21
845.6359868684884
 72
     1
 10
313.0805097797711
 20
845.6359868684884
 11
295.5750631838746
 21
840.6636599818375
 72
     1
 10
295.5750631838746
 20
840.6636599818375
 11
277.7864367853472
 21
836.8257613302485
 72
     1
 10
277.7864367853472
 20
836.8257613302485
 11
270.7088135771191
 21
836.7035616078283
 72
     1
 10
270.7088135771191
 20
836.7035616078283
 11
263.8573922200885
 21
838.4828061854276
 72
     1
 10
263.8573922200885
 20
838.4828061854276
 11
257.7335296789388
 21
842.0332981822648
 72
     1
 10
257.7335296789388
 20
842.0332981822648
 11
252.7853431135445
 21
847.0952280964338
 72
     1
 10
252.7853431135445
 20
847.0952280964338
 11
249.3749187853391
 21
853.2981863302484
 72
     1
 10
249.3749187853391
 20
853.2981863302484
 11
243.9447617853438
 21
853.2981863302484
 72
     1
 10
243.9447617853438
 20
853.2981863302484
 11
241.9447617853439
 21
850.2981863302483
 72
     1
 10
241.9447617853439
 20
850.2981863302483
 11
235.9447617853439
 21
850.2981863302483
 72
     1
 10
235.9447617853439
 20
850.2981863302483
 11
233.9447617853439
 21
855.2981863302484
 72
     1
 10
233.9447617853439
 20
855.2981863302484
 11
230.9447617853439
 21
855.2981863302484
 72
     1
 10
230.9447617853439
 20
855.2981863302484
 11
228.9447617853439
 21
851.2981863302483
 72
     1
 10
228.9447617853439
 20
851.2981863302483
 11
222.9447617853439
 21
851.2981863302483
 72
     1
 10
222.9447617853439
 20
851.2981863302483
 11
220.9447617853439
 21
855.2981863302484
 72
     1
 10
220.9447617853439
 20
855.2981863302484
 11
214.9447617853439
 21
855.2981863302484
 72
     1
 10
214.9447617853439
 20
855.2981863302484
 11
214.9447617853439
 21
843.2981863302483
 72
     1
 10
214.9447617853439
 20
843.2981863302483
 11
226.3469310610381
 21
843.2981863556269
 72
     1
 10
226.3469310610381
 20
843.2981863556269
 11
232.0111878257303
 21
842.6691500811356
 72
     1
 10
232.0111878257303
 20
842.6691500811356
 11
237.4530077050877
 21
840.9761978782698
 72
     1
 10
237.4530077050877
 20
840.9761978782698
 11
242.4744523172121
 21
838.2809085418484
 72
     1
 10
242.4744523172121
 20
838.2809085418484
 11
246.8928737853421
 21
834.6813193302441
 72
     1
 10
246.8928737853421
 20
834.6813193302441
 11
252.6721635095601
 21
830.6179526593988
 72
     1
 10
252.6721635095601
 20
830.6179526593988
 11
259.0368582882802
 21
827.5517173914776
 72
     1
 10
259.0368582882802
 20
827.5517173914776
 11
265.8164669925027
 21
825.5647487822061
 72
     1
 10
265.8164669925027
 20
825.5647487822061
 11
272.829384084951
 21
824.710271669981
 72
     1
 10
272.829384084951
 20
824.710271669981
 11
279.8877547853481
 21
825.0111753302407
 72
     1
 10
279.8877547853481
 20
825.0111753302407
 11
298.5020784415101
 21
828.8232492624157
 72
     1
 10
298.5020784415101
 20
828.8232492624157
 11
316.806743296198
 21
833.9187568297566
 97
        0
 75
     0
 76
     1
 98
        0
450
        0
451
        0
460
0.0
461
0.0
452
        1
462
0.0
453
        0
470

1001
ACAD
1010
0.0
1020
0.0
1030
0.0
1001
NEM_ODX
1002
{
1000
BZM_DEPEND
1070
     1
1000
BZM_SCALE
1040
5.0
1000
HATCHING_314
1002
}
  0
HATCH
  5
14E
330
1F
100
AcDbEntity
  8
BETONNEN DAKPANNEN
  6
Continuous
 62
     7
370
    13
100
AcDbHatch
 10
0.0
 20
0.0
 30
0.0
210
0.0
220
0.0
230
1.0
  2
HATCHING_314
 70
     0
 71
     0
 91
        1
 92
        0
 93
       88
 72
     1
 10
316.806743296198
 20
833.9187568297566
 11
334.7133712854847
 21
840.273096044104
 72
     1
 10
334.7133712854847
 20
840.273096044104
 11
352.1355061279464
 21
847.8555870661294
 72
     1
 10
352.1355061279464
 20
847.8555870661294
 11
368.9890310427291
 21
856.629620466345
 72
     1
 10
368.9890310427291
 20
856.629620466345
 11
374.3580754724389
 21
858.3121443529453
 72
     1
 10
374.3580754724389
 20
858.3121443529453
 11
379.9403135797329
 21
857.6077602836376
 72
     1
 10
379.9403135797329
 20
857.6077602836376
 11
384.7231068481487
 21
854.6442448764356
 72
     1
 10
384.7231068481487
 20
854.6442448764356
 11
387.8388407853345
 21
849.9591903302425
 72
     1
 10
387.8388407853345
 20
849.9591903302425
 11
392.5945373695722
 21
840.4571925484997
 72
     1
 10
392.5945373695722
 20
840.4571925484997
 11
399.8348860274709
 21
832.6801775409913
 72
     1
 10
399.8348860274709
 20
832.6801775409913
 11
408.9731758400448
 21
827.2583444146075
 72
     1
 10
408.9731758400448
 20
827.2583444146075
 11
419.2688987063011
 21
824.6310441472378
 72
     1
 10
419.2688987063011
 20
824.6310441472378
 11
429.887754785348
 21
825.0111753302407
 72
     1
 10
429.887754785348
 20
825.0111753302407
 11
445.7686802535754
 21
828.1164269376677
 72
     1
 10
445.7686802535754
 20
828.1164269376677
 11
461.4224366642447
 21
832.2159746561592
 72
     1
 10
461.4224366642447
 20
832.2159746561592
 11
476.7868367316987
 21
837.2935323247293
 72
     1
 10
476.7868367316987
 20
837.2935323247293
 11
491.8008426924061
 21
843.3289284275597
 72
     1
 10
491.8008426924061
 20
843.3289284275597
 11
506.4048087853443
 21
850.2981863302483
 72
     1
 10
506.4048087853443
 20
850.2981863302483
 11
509.773931785341
 21
850.2981863302483
 72
     1
 10
509.773931785341
 20
850.2981863302483
 11
510.6693400454678
 21
850.4349293880295
 72
     1
 10
510.6693400454678
 20
850.4349293880295
 11
511.4831212480058
 21
850.8326913933633
 72
     1
 10
511.4831212480058
 20
850.8326913933633
 11
512.1410901806666
 21
851.4552114852486
 72
     1
 10
512.1410901806666
 20
851.4552114852486
 11
512.5832656965358
 21
852.2457407720576
 72
     1
 10
512.5832656965358
 20
852.2457407720576
 11
512.7693367853498
 21
853.1322123302452
 72
     1
 10
512.7693367853498
 20
853.1322123302452
 11
512.9447617853438
 21
856.2981863302484
 72
     1
 10
512.9447617853438
 20
856.2981863302484
 11
518.9447617853438
 21
858.2981863302483
 72
     1
 10
518.9447617853438
 20
858.2981863302483
 11
521.9447617853439
 21
858.2981863302483
 72
     1
 10
521.9447617853439
 20
858.2981863302483
 11
524.9447617853438
 21
853.2981863302484
 72
     1
 10
524.9447617853438
 20
853.2981863302484
 11
527.9447617853438
 21
853.2981863302484
 72
     1
 10
527.9447617853438
 20
853.2981863302484
 11
529.9447617853438
 21
857.2981863302484
 72
     1
 10
529.9447617853438
 20
857.2981863302484
 11
534.9447617853439
 21
857.2981863302484
 72
     1
 10
534.9447617853439
 20
857.2981863302484
 11
537.9447617853438
 21
852.2981863302485
 72
     1
 10
537.9447617853438
 20
852.2981863302485
 11
540.9447617853438
 21
852.2981863302485
 72
     1
 10
540.9447617853438
 20
852.2981863302485
 11
542.9447617853439
 21
855.2981863302484
 72
     1
 10
542.9447617853439
 20
855.2981863302484
 11
546.9447617853439
 21
855.2981863302484
 72
     1
 10
546.9447617853439
 20
855.2981863302484
 11
546.9447617853439
 21
857.2981863302484
 72
     1
 10
546.9447617853439
 20
857.2981863302484
 11
543.2206355099479
 21
862.6881116509249
 72
     1
 10
543.2206355099479
 20
862.6881116509249
 11
538.180743148594
 21
866.873789167912
 72
     1
 10
538.180743148594
 20
866.873789167912
 11
532.1986639999231
 21
869.5449577047183
 72
     1
 10
532.1986639999231
 20
869.5449577047183
 11
525.7178166268422
 21
870.5036180587413
 72
     1
 10
525.7178166268422
 20
870.5036180587413
 11
519.2185908608662
 21
869.6787102227027
 72
     1
 10
519.2185908608662
 20
869.6787102227027
 11
513.182738016927
 21
867.131380480998
 72
     1
 10
513.182738016927
 20
867.131380480998
 11
496.9607497358083
 21
858.8821156391277
 72
     1
 10
496.9607497358083
 20
858.8821156391277
 11
480.239255530163
 21
851.6991569616148
 72
     1
 10
480.239255530163
 20
851.6991569616148
 11
463.088256288509
 21
845.6125742453368
 72
     1
 10
463.088256288509
 20
845.6125742453368
 11
445.579551165807
 21
840.6478477675191
 72
     1
 10
445.579551165807
 20
840.6478477675191
 11
427.7864367853472
 21
836.8257613302485
 72
     1
 10
427.7864367853472
 20
836.8257613302485
 11
420.4546035479288
 21
836.7350611521178
 72
     1
 10
420.4546035479288
 20
836.7350611521178
 11
413.385436391356
 21
838.6820808044504
 72
     1
 10
413.385436391356
 20
838.6820808044504
 11
407.1339735134533
 21
842.5139499877623
 72
     1
 10
407.1339735134533
 20
842.5139499877623
 11
402.1910503473482
 21
847.929808042878
 72
     1
 10
402.1910503473482
 20
847.929808042878
 11
398.9447617853439
 21
854.504427330241
 72
     1
 10
398.9447617853439
 20
854.504427330241
 11
394.4456857831828
 21
861.7480439344872
 72
     1
 10
394.4456857831828
 20
861.7480439344872
 11
387.8002970363887
 21
867.0913082831466
 72
     1
 10
387.8002970363887
 20
867.0913082831466
 11
379.7596684249729
 21
869.930315218553
 72
     1
 10
379.7596684249729
 20
869.930315218553
 11
371.2325662656658
 21
869.9441953605056
 72
     1
 10
371.2325662656658
 20
869.9441953605056
 11
363.1827381757757
 21
867.13138054312
 72
     1
 10
363.1827381757757
 20
867.13138054312
 11
346.9542661083979
 21
858.8972196345494
 72
     1
 10
346.9542661083979
 20
858.8972196345494
 11
330.2305103687104
 21
851.7222151801034
 72
     1
 10
330.2305103687104
 20
851.7222151801034
 11
313.0805097797711
 21
845.6359868684884
 72
     1
 10
313.0805097797711
 20
845.6359868684884
 11
295.5750631838746
 21
840.6636599818375
 72
     1
 10
295.5750631838746
 20
840.6636599818375
 11
277.7864367853472
 21
836.8257613302485
 72
     1
 10
277.7864367853472
 20
836.8257613302485
 11
270.7088135771191
 21
836.7035616078283
 72
     1
 10
270.7088135771191
 20
836.7035616078283
 11
263.8573922200885
 21
838.4828061854276
 72
     1
 10
263.8573922200885
 20
838.4828061854276
 11
257.7335296789388
 21
842.0332981822648
 72
     1
 10
257.7335296789388
 20
842.0332981822648
 11
252.7853431135445
 21
847.0952280964338
 72
     1
 10
252.7853431135445
 20
847.0952280964338
 11
249.3749187853391
 21
853.2981863302484
 72
     1
 10
249.3749187853391
 20
853.2981863302484
 11
243.9447617853438
 21
853.2981863302484
 72
     1
 10
243.9447617853438
 20
853.2981863302484
 11
241.9447617853439
 21
850.2981863302483
 72
     1
 10
241.9447617853439
 20
850.2981863302483
 11
235.9447617853439
 21
850.2981863302483
 72
     1
 10
235.9447617853439
 20
850.2981863302483
 11
233.9447617853439
 21
855.2981863302484
 72
     1
 10
233.9447617853439
 20
855.2981863302484
 11
230.9447617853439
 21
855.2981863302484
 72
     1
 10
230.9447617853439
 20
855.2981863302484
 11
228.9447617853439
 21
851.2981863302483
 72
     1
 10
228.9447617853439
 20
851.2981863302483
 11
222.9447617853439
 21
851.2981863302483
 72
     1
 10
222.9447617853439
 20
851.2981863302483
 11
220.9447617853439
 21
855.2981863302484
 72
     1
 10
220.9447617853439
 20
855.2981863302484
 11
214.9447617853439
 21
855.2981863302484
 72
     1
 10
214.9447617853439
 20
855.2981863302484
 11
214.9447617853439
 21
843.2981863302483
 72
     1
 10
214.9447617853439
 20
843.2981863302483
 11
226.3469310610381
 21
843.2981863556269
 72
     1
 10
226.3469310610381
 20
843.2981863556269
 11
232.0111878257303
 21
842.6691500811356
 72
     1
 10
232.0111878257303
 20
842.6691500811356
 11
237.4530077050877
 21
840.9761978782698
 72
     1
 10
237.4530077050877
 20
840.9761978782698
 11
242.4744523172121
 21
838.2809085418484
 72
     1
 10
242.4744523172121
 20
838.2809085418484
 11
246.8928737853421
 21
834.6813193302441
 72
     1
 10
246.8928737853421
 20
834.6813193302441
 11
252.6721635095601
 21
830.6179526593988
 72
     1
 10
252.6721635095601
 20
830.6179526593988
 11
259.0368582882802
 21
827.5517173914776
 72
     1
 10
259.0368582882802
 20
827.5517173914776
 11
265.8164669925027
 21
825.5647487822061
 72
     1
 10
265.8164669925027
 20
825.5647487822061
 11
272.829384084951
 21
824.710271669981
 72
     1
 10
272.829384084951
 20
824.710271669981
 11
279.8877547853481
 21
825.0111753302407
 72
     1
 10
279.8877547853481
 20
825.0111753302407
 11
298.5020784415101
 21
828.8232492624157
 72
     1
 10
298.5020784415101
 20
828.8232492624157
 11
316.806743296198
 21
833.9187568297566
 97
        0
 75
     0
 76
     2
 52
0.0
 41
5.0
 77
     0
 78
     2
 53
45.0
 43
0.0
 44
0.0
 45
-5.303300858899105
 46
5.303300858899106
 79
     0
 53
135.0
 43
0.0
 44
0.0
 45
-5.303300858899106
 46
-5.303300858899105
 79
     0
 98
        0
1001
ACAD
1010
0.0
1020
0.0
1030
0.0
1001
NEM_ODX
1002
{
1000
BZM_DEPEND
1070
     1
1000
BZM_SCALE
1040
5.0
1000
HATCHING_314
1002
}
  0
HATCH
  5
14F
330
1F
100
AcDbEntity
  8
BETONNEN DAKPANNEN
  6
Continuous
 62
   254
370
    13
100
AcDbHatch
 10
0.0
 20
0.0
 30
0.0
210
0.0
220
0.0
230
1.0
  2
SOLID
 70
     1
 71
     0
 91
        1
 92
        0
 93
       39
 72
     1
 10
145.579551165807
 20
840.6478477675191
 11
127.7864367853472
 21
836.8257613302485
 72
     1
 10
127.7864367853472
 20
836.8257613302485
 11
120.4546035479288
 21
836.7350611521178
 72
     1
 10
120.4546035479288
 20
836.7350611521178
 11
117.4754954753007
 21
837.5333107543482
 72
     1
 10
117.4754954753007
 20
837.5333107543482
 11
117.4447618634876
 21
825.0965340673865
 72
     1
 10
117.4447618634876
 20
825.0965340673865
 11
119.2688987063011
 21
824.6310441472378
 72
     1
 10
119.2688987063011
 20
824.6310441472378
 11
129.8877547853481
 21
825.0111753302407
 72
     1
 10
129.8877547853481
 20
825.0111753302407
 11
145.7686802535754
 21
828.1164269376677
 72
     1
 10
145.7686802535754
 20
828.1164269376677
 11
161.4224366642447
 21
832.2159746561592
 72
     1
 10
161.4224366642447
 20
832.2159746561592
 11
176.7868367316987
 21
837.2935323247293
 72
     1
 10
176.7868367316987
 20
837.2935323247293
 11
191.8008426924061
 21
843.3289284275597
 72
     1
 10
191.8008426924061
 20
843.3289284275597
 11
206.4048087853444
 21
850.2981863302483
 72
     1
 10
206.4048087853444
 20
850.2981863302483
 11
209.7739317853411
 21
850.2981863302483
 72
     1
 10
209.7739317853411
 20
850.2981863302483
 11
210.6693400454678
 21
850.4349293880295
 72
     1
 10
210.6693400454678
 20
850.4349293880295
 11
211.4831212480058
 21
850.8326913933633
 72
     1
 10
211.4831212480058
 20
850.8326913933633
 11
212.1410901806667
 21
851.4552114852486
 72
     1
 10
212.1410901806667
 20
851.4552114852486
 11
212.5832656965358
 21
852.2457407720576
 72
     1
 10
212.5832656965358
 20
852.2457407720576
 11
212.7693367853499
 21
853.1322123302452
 72
     1
 10
212.7693367853499
 20
853.1322123302452
 11
212.9447617853439
 21
856.2981863302484
 72
     1
 10
212.9447617853439
 20
856.2981863302484
 11
218.9447617853438
 21
858.2981863302483
 72
     1
 10
218.9447617853438
 20
858.2981863302483
 11
221.9447617853439
 21
858.2981863302483
 72
     1
 10
221.9447617853439
 20
858.2981863302483
 11
224.9447617853439
 21
853.2981863302484
 72
     1
 10
224.9447617853439
 20
853.2981863302484
 11
227.9447617853439
 21
853.2981863302484
 72
     1
 10
227.9447617853439
 20
853.2981863302484
 11
229.9447617853439
 21
857.2981863302484
 72
     1
 10
229.9447617853439
 20
857.2981863302484
 11
234.9447617853439
 21
857.2981863302484
 72
     1
 10
234.9447617853439
 20
857.2981863302484
 11
237.9447617853439
 21
852.2981863302485
 72
     1
 10
237.9447617853439
 20
852.2981863302485
 11
240.9447617853439
 21
852.2981863302485
 72
     1
 10
240.9447617853439
 20
852.2981863302485
 11
242.9447617853439
 21
855.2981863302484
 72
     1
 10
242.9447617853439
 20
855.2981863302484
 11
246.9447617853439
 21
855.2981863302484
 72
     1
 10
246.9447617853439
 20
855.2981863302484
 11
246.9447617853439
 21
857.2981863302484
 72
     1
 10
246.9447617853439
 20
857.2981863302484
 11
243.2206355099479
 21
862.6881116509249
 72
     1
 10
243.2206355099479
 20
862.6881116509249
 11
238.180743148594
 21
866.873789167912
 72
     1
 10
238.180743148594
 20
866.873789167912
 11
232.1986639999232
 21
869.5449577047183
 72
     1
 10
232.1986639999232
 20
869.5449577047183
 11
225.7178166268423
 21
870.5036180587413
 72
     1
 10
225.7178166268423
 20
870.5036180587413
 11
219.2185908608662
 21
869.6787102227027
 72
     1
 10
219.2185908608662
 20
869.6787102227027
 11
213.182738016927
 21
867.131380480998
 72
     1
 10
213.182738016927
 20
867.131380480998
 11
196.9607497358083
 21
858.8821156391277
 72
     1
 10
196.9607497358083
 20
858.8821156391277
 11
180.239255530163
 21
851.6991569616148
 72
     1
 10
180.239255530163
 20
851.6991569616148
 11
163.088256288509
 21
845.6125742453368
 72
     1
 10
163.088256288509
 20
845.6125742453368
 11
145.579551165807
 21
840.6478477675191
 97
        0
 75
     0
 76
     1
 98
        0
450
        0
451
        0
460
0.0
461
0.0
452
        1
462
0.0
453
        0
470

1001
ACAD
1010
0.0
1020
0.0
1030
0.0
1001
NEM_ODX
1002
{
1000
BZM_DEPEND
1070
     1
1000
BZM_SCALE
1040
5.0
1000
HATCHING_314
1002
}
  0
HATCH
  5
150
330
1F
100
AcDbEntity
  8
BETONNEN DAKPANNEN
  6
Continuous
 62
     7
370
    13
100
AcDbHatch
 10
0.0
 20
0.0
 30
0.0
210
0.0
220
0.0
230
1.0
  2
HATCHING_314
 70
     0
 71
     0
 91
        1
 92
        0
 93
       39
 72
     1
 10
145.579551165807
 20
840.6478477675191
 11
127.7864367853472
 21
836.8257613302485
 72
     1
 10
127.7864367853472
 20
836.8257613302485
 11
120.4546035479288
 21
836.7350611521178
 72
     1
 10
120.4546035479288
 20
836.7350611521178
 11
117.4754954753007
 21
837.5333107543482
 72
     1
 10
117.4754954753007
 20
837.5333107543482
 11
117.4447618634876
 21
825.0965340673865
 72
     1
 10
117.4447618634876
 20
825.0965340673865
 11
119.2688987063011
 21
824.6310441472378
 72
     1
 10
119.2688987063011
 20
824.6310441472378
 11
129.8877547853481
 21
825.0111753302407
 72
     1
 10
129.8877547853481
 20
825.0111753302407
 11
145.7686802535754
 21
828.1164269376677
 72
     1
 10
145.7686802535754
 20
828.1164269376677
 11
161.4224366642447
 21
832.2159746561592
 72
     1
 10
161.4224366642447
 20
832.2159746561592
 11
176.7868367316987
 21
837.2935323247293
 72
     1
 10
176.7868367316987
 20
837.2935323247293
 11
191.8008426924061
 21
843.3289284275597
 72
     1
 10
191.8008426924061
 20
843.3289284275597
 11
206.4048087853444
 21
850.2981863302483
 72
     1
 10
206.4048087853444
 20
850.2981863302483
 11
209.7739317853411
 21
850.2981863302483
 72
     1
 10
209.7739317853411
 20
850.2981863302483
 11
210.6693400454678
 21
850.4349293880295
 72
     1
 10
210.6693400454678
 20
850.4349293880295
 11
211.4831212480058
 21
850.8326913933633
 72
     1
 10
211.4831212480058
 20
850.8326913933633
 11
212.1410901806667
 21
851.4552114852486
 72
     1
 10
212.1410901806667
 20
851.4552114852486
 11
212.5832656965358
 21
852.2457407720576
 72
     1
 10
212.5832656965358
 20
852.2457407720576
 11
212.7693367853499
 21
853.1322123302452
 72
     1
 10
212.7693367853499
 20
853.1322123302452
 11
212.9447617853439
 21
856.2981863302484
 72
     1
 10
212.9447617853439
 20
856.2981863302484
 11
218.9447617853438
 21
858.2981863302483
 72
     1
 10
218.9447617853438
 20
858.2981863302483
 11
221.9447617853439
 21
858.2981863302483
 72
     1
 10
221.9447617853439
 20
858.2981863302483
 11
224.9447617853439
 21
853.2981863302484
 72
     1
 10
224.9447617853439
 20
853.2981863302484
 11
227.9447617853439
 21
853.2981863302484
 72
     1
 10
227.9447617853439
 20
853.2981863302484
 11
229.9447617853439
 21
857.2981863302484
 72
     1
 10
229.9447617853439
 20
857.2981863302484
 11
234.9447617853439
 21
857.2981863302484
 72
     1
 10
234.9447617853439
 20
857.2981863302484
 11
237.9447617853439
 21
852.2981863302485
 72
     1
 10
237.9447617853439
 20
852.2981863302485
 11
240.9447617853439
 21
852.2981863302485
 72
     1
 10
240.9447617853439
 20
852.2981863302485
 11
242.9447617853439
 21
855.2981863302484
 72
     1
 10
242.9447617853439
 20
855.2981863302484
 11
246.9447617853439
 21
855.2981863302484
 72
     1
 10
246.9447617853439
 20
855.2981863302484
 11
246.9447617853439
 21
857.2981863302484
 72
     1
 10
246.9447617853439
 20
857.2981863302484
 11
243.2206355099479
 21
862.6881116509249
 72
     1
 10
243.2206355099479
 20
862.6881116509249
 11
238.180743148594
 21
866.873789167912
 72
     1
 10
238.180743148594
 20
866.873789167912
 11
232.1986639999232
 21
869.5449577047183
 72
     1
 10
232.1986639999232
 20
869.5449577047183
 11
225.7178166268423
 21
870.5036180587413
 72
     1
 10
225.7178166268423
 20
870.5036180587413
 11
219.2185908608662
 21
869.6787102227027
 72
     1
 10
219.2185908608662
 20
869.6787102227027
 11
213.182738016927
 21
867.131380480998
 72
     1
 10
213.182738016927
 20
867.131380480998
 11
196.9607497358083
 21
858.8821156391277
 72
     1
 10
196.9607497358083
 20
858.8821156391277
 11
180.239255530163
 21
851.6991569616148
 72
     1
 10
180.239255530163
 20
851.6991569616148
 11
163.088256288509
 21
845.6125742453368
 72
     1
 10
163.088256288509
 20
845.6125742453368
 11
145.579551165807
 21
840.6478477675191
 97
        0
 75
     0
 76
     2
 52
0.0
 41
5.0
 77
     0
 78
     2
 53
45.0
 43
0.0
 44
0.0
 45
-5.303300858899105
 46
5.303300858899106
 79
     0
 53
135.0
 43
0.0
 44
0.0
 45
-5.303300858899106
 46
-5.303300858899105
 79
     0
 98
        0
1001
ACAD
1010
0.0
1020
0.0
1030
0.0
1001
NEM_ODX
1002
{
1000
BZM_DEPEND
1070
     1
1000
BZM_SCALE
1040
5.0
1000
HATCHING_314
1002
}
  0
LWPOLYLINE
  5
151
330
1F
100
AcDbEntity
  8
BETONNEN DAKPANNEN
  6
Continuous
 62
     7
370
    25
100
AcDbPolyline
 90
       39
 70
     0
 43
0.0
 10
117.4754954753007
 20
837.5333107543482
 10
120.4546035479288
 20
836.7350611521178
 10
127.7864367853472
 20
836.8257613302485
 10
145.579551165807
 20
840.6478477675191
 10
163.088256288509
 20
845.6125742453368
 10
180.239255530163
 20
851.6991569616148
 10
196.9607497358083
 20
858.8821156391277
 10
213.182738016927
 20
867.131380480998
 10
219.2185908608662
 20
869.6787102227027
 10
225.7178166268423
 20
870.5036180587413
 10
232.1986639999232
 20
869.5449577047183
 10
238.180743148594
 20
866.873789167912
 10
243.2206355099479
 20
862.6881116509249
 10
246.9447617853439
 20
857.2981863302484
 10
246.9447617853439
 20
855.2981863302484
 10
242.9447617853439
 20
855.2981863302484
 10
240.9447617853439
 20
852.2981863302485
 10
237.9447617853439
 20
852.2981863302485
 10
234.9447617853439
 20
857.2981863302484
 10
229.9447617853439
 20
857.2981863302484
 10
227.9447617853439
 20
853.2981863302484
 10
224.9447617853439
 20
853.2981863302484
 10
221.9447617853439
 20
858.2981863302483
 10
218.9447617853438
 20
858.2981863302483
 10
212.9447617853439
 20
856.2981863302484
 10
212.7693367853499
 20
853.1322123302452
 10
212.5832656965358
 20
852.2457407720576
 10
212.1410901806667
 20
851.4552114852486
 10
211.4831212480058
 20
850.8326913933633
 10
210.6693400454678
 20
850.4349293880295
 10
209.7739317853411
 20
850.2981863302483
 10
206.4048087853444
 20
850.2981863302483
 10
191.8008426924061
 20
843.3289284275597
 10
176.7868367316987
 20
837.2935323247293
 10
161.4224366642447
 20
832.2159746561592
 10
145.7686802535754
 20
828.1164269376677
 10
129.8877547853481
 20
825.0111753302407
 10
119.2688987063011
 20
824.6310441472378
 10
117.4447618634876
 20
825.0965340673865
  0
LWPOLYLINE
  5
152
330
1F
100
AcDbEntity
  8
BETONNEN DAKPANNEN
  6
Continuous
 62
    30
370
    18
100
AcDbPolyline
 90
       11
 70
     0
 43
0.0
 10
213.44281370299
 20
856.4642037267404
 10
213.0304827357031
 20
852.4090542094127
 10
211.6857487944944
 20
848.5612051056742
 10
209.4824563015281
 20
845.1319553220892
 10
206.5415957853402
 20
842.3096173302401
 10
181.6726137853402
 20
827.3608113302397
 10
163.5466485291544
 20
818.4936518539689
 10
150.2721987030381
 20
814.1957157284997
 10
136.5897104789183
 20
811.4620753193376
 10
117.6828637853468
 20
810.3294283302457
 10
117.4447618634876
 20
810.3730470876397
  0
LWPOLYLINE
  5
153
330
1F
100
AcDbEntity
  8
BETONNEN DAKPANNEN
  6
Continuous
 62
     7
370
    25
100
AcDbPolyline
 90
       35
 70
     0
 43
0.0
 10
947.4447618634876
 20
859.1460921689213
 10
946.9542661083979
 20
858.8972196345494
 10
930.2305103687103
 20
851.7222151801034
 10
913.0805097797711
 20
845.6359868684884
 10
895.5750631838746
 20
840.6636599818375
 10
877.7864367853471
 20
836.8257613302485
 10
870.7088135771192
 20
836.7035616078283
 10
863.8573922200885
 20
838.4828061854276
 10
857.7335296789387
 20
842.0332981822648
 10
852.7853431135445
 20
847.0952280964338
 10
849.374918785339
 20
853.2981863302484
 10
843.9447617853438
 20
853.2981863302484
 10
841.9447617853439
 20
850.2981863302483
 10
835.9447617853438
 20
850.2981863302483
 10
833.9447617853439
 20
855.2981863302484
 10
830.9447617853438
 20
855.2981863302484
 10
828.9447617853438
 20
851.2981863302483
 10
822.9447617853438
 20
851.2981863302483
 10
820.9447617853438
 20
855.2981863302484
 10
814.9447617853438
 20
855.2981863302484
 10
814.9447617853438
 20
843.2981863302483
 10
826.3469310902582
 20
843.2981863302483
 10
832.0111878257304
 20
842.6691500811356
 10
837.4530077050875
 20
840.9761978782698
 10
842.4744523172121
 20
838.2809085418484
 10
846.8928737853421
 20
834.6813193302441
 10
852.6721635095601
 20
830.6179526593988
 10
859.0368582882801
 20
827.5517173914776
 10
865.8164669925026
 20
825.5647487822061
 10
872.8293840849509
 20
824.710271669981
 10
879.887754785348
 20
825.0111753302407
 10
898.50207844151
 20
828.8232492624157
 10
916.8067432961979
 20
833.9187568297566
 10
934.7133712854848
 20
840.273096044104
 10
947.4447618634876
 20
845.8140734058614
  0
HATCH
  5
154
330
1F
100
AcDbEntity
  8
BETONNEN DAKPANNEN
  6
Continuous
 62
   254
370
    13
100
AcDbHatch
 10
0.0
 20
0.0
 30
0.0
210
0.0
220
0.0
230
1.0
  2
SOLID
 70
     1
 71
     0
 91
        1
 92
        0
 93
       35
 72
     1
 10
832.0111878257304
 20
842.6691500811356
 11
837.4530077050875
 21
840.9761978782698
 72
     1
 10
837.4530077050875
 20
840.9761978782698
 11
842.4744523172121
 21
838.2809085418484
 72
     1
 10
842.4744523172121
 20
838.2809085418484
 11
846.8928737853421
 21
834.6813193302441
 72
     1
 10
846.8928737853421
 20
834.6813193302441
 11
852.6721635095601
 21
830.6179526593988
 72
     1
 10
852.6721635095601
 20
830.6179526593988
 11
859.0368582882801
 21
827.5517173914776
 72
     1
 10
859.0368582882801
 20
827.5517173914776
 11
865.8164669925026
 21
825.5647487822061
 72
     1
 10
865.8164669925026
 20
825.5647487822061
 11
872.8293840849509
 21
824.710271669981
 72
     1
 10
872.8293840849509
 20
824.710271669981
 11
879.887754785348
 21
825.0111753302407
 72
     1
 10
879.887754785348
 20
825.0111753302407
 11
898.50207844151
 21
828.8232492624157
 72
     1
 10
898.50207844151
 20
828.8232492624157
 11
916.8067432961979
 21
833.9187568297566
 72
     1
 10
916.8067432961979
 20
833.9187568297566
 11
934.7133712854848
 21
840.273096044104
 72
     1
 10
934.7133712854848
 20
840.273096044104
 11
947.4447618634876
 21
845.8140734058614
 72
     1
 10
947.4447618634876
 20
845.8140734058614
 11
947.4447618634876
 21
859.1460921689213
 72
     1
 10
947.4447618634876
 20
859.1460921689213
 11
946.9542661083979
 21
858.8972196345494
 72
     1
 10
946.9542661083979
 20
858.8972196345494
 11
930.2305103687103
 21
851.7222151801034
 72
     1
 10
930.2305103687103
 20
851.7222151801034
 11
913.0805097797711
 21
845.6359868684884
 72
     1
 10
913.0805097797711
 20
845.6359868684884
 11
895.5750631838746
 21
840.6636599818375
 72
     1
 10
895.5750631838746
 20
840.6636599818375
 11
877.7864367853471
 21
836.8257613302485
 72
     1
 10
877.7864367853471
 20
836.8257613302485
 11
870.7088135771192
 21
836.7035616078283
 72
     1
 10
870.7088135771192
 20
836.7035616078283
 11
863.8573922200885
 21
838.4828061854276
 72
     1
 10
863.8573922200885
 20
838.4828061854276
 11
857.7335296789387
 21
842.0332981822648
 72
     1
 10
857.7335296789387
 20
842.0332981822648
 11
852.7853431135445
 21
847.0952280964338
 72
     1
 10
852.7853431135445
 20
847.0952280964338
 11
849.374918785339
 21
853.2981863302484
 72
     1
 10
849.374918785339
 20
853.2981863302484
 11
843.9447617853438
 21
853.2981863302484
 72
     1
 10
843.9447617853438
 20
853.2981863302484
 11
841.9447617853439
 21
850.2981863302483
 72
     1
 10
841.9447617853439
 20
850.2981863302483
 11
835.9447617853438
 21
850.2981863302483
 72
     1
 10
835.9447617853438
 20
850.2981863302483
 11
833.9447617853439
 21
855.2981863302484
 72
     1
 10
833.9447617853439
 20
855.2981863302484
 11
830.9447617853438
 21
855.2981863302484
 72
     1
 10
830.9447617853438
 20
855.2981863302484
 11
828.9447617853438
 21
851.2981863302483
 72
     1
 10
828.9447617853438
 20
851.2981863302483
 11
822.9447617853438
 21
851.2981863302483
 72
     1
 10
822.9447617853438
 20
851.2981863302483
 11
820.9447617853438
 21
855.2981863302484
 72
     1
 10
820.9447617853438
 20
855.2981863302484
 11
814.9447617853438
 21
855.2981863302484
 72
     1
 10
814.9447617853438
 20
855.2981863302484
 11
814.9447617853438
 21
843.2981863302483
 72
     1
 10
814.9447617853438
 20
843.2981863302483
 11
826.346931061038
 21
843.2981863556269
 72
     1
 10
826.346931061038
 20
843.2981863556269
 11
832.0111878257304
 21
842.6691500811356
 97
        0
 75
     0
 76
     1
 98
        0
450
        0
451
        0
460
0.0
461
0.0
452
        1
462
0.0
453
        0
470

1001
ACAD
1010
0.0
1020
0.0
1030
0.0
1001
NEM_ODX
1002
{
1000
BZM_DEPEND
1070
     1
1000
BZM_SCALE
1040
5.0
1000
HATCHING_314
1002
}
  0
HATCH
  5
155
330
1F
100
AcDbEntity
  8
BETONNEN DAKPANNEN
  6
Continuous
 62
     7
370
    13
100
AcDbHatch
 10
0.0
 20
0.0
 30
0.0
210
0.0
220
0.0
230
1.0
  2
HATCHING_314
 70
     0
 71
     0
 91
        1
 92
        0
 93
       35
 72
     1
 10
832.0111878257304
 20
842.6691500811356
 11
837.4530077050875
 21
840.9761978782698
 72
     1
 10
837.4530077050875
 20
840.9761978782698
 11
842.4744523172121
 21
838.2809085418484
 72
     1
 10
842.4744523172121
 20
838.2809085418484
 11
846.8928737853421
 21
834.6813193302441
 72
     1
 10
846.8928737853421
 20
834.6813193302441
 11
852.6721635095601
 21
830.6179526593988
 72
     1
 10
852.6721635095601
 20
830.6179526593988
 11
859.0368582882801
 21
827.5517173914776
 72
     1
 10
859.0368582882801
 20
827.5517173914776
 11
865.8164669925026
 21
825.5647487822061
 72
     1
 10
865.8164669925026
 20
825.5647487822061
 11
872.8293840849509
 21
824.710271669981
 72
     1
 10
872.8293840849509
 20
824.710271669981
 11
879.887754785348
 21
825.0111753302407
 72
     1
 10
879.887754785348
 20
825.0111753302407
 11
898.50207844151
 21
828.8232492624157
 72
     1
 10
898.50207844151
 20
828.8232492624157
 11
916.8067432961979
 21
833.9187568297566
 72
     1
 10
916.8067432961979
 20
833.9187568297566
 11
934.7133712854848
 21
840.273096044104
 72
     1
 10
934.7133712854848
 20
840.273096044104
 11
947.4447618634876
 21
845.8140734058614
 72
     1
 10
947.4447618634876
 20
845.8140734058614
 11
947.4447618634876
 21
859.1460921689213
 72
     1
 10
947.4447618634876
 20
859.1460921689213
 11
946.9542661083979
 21
858.8972196345494
 72
     1
 10
946.9542661083979
 20
858.8972196345494
 11
930.2305103687103
 21
851.7222151801034
 72
     1
 10
930.2305103687103
 20
851.7222151801034
 11
913.0805097797711
 21
845.6359868684884
 72
     1
 10
913.0805097797711
 20
845.6359868684884
 11
895.5750631838746
 21
840.6636599818375
 72
     1
 10
895.5750631838746
 20
840.6636599818375
 11
877.7864367853471
 21
836.8257613302485
 72
     1
 10
877.7864367853471
 20
836.8257613302485
 11
870.7088135771192
 21
836.7035616078283
 72
     1
 10
870.7088135771192
 20
836.7035616078283
 11
863.8573922200885
 21
838.4828061854276
 72
     1
 10
863.8573922200885
 20
838.4828061854276
 11
857.7335296789387
 21
842.0332981822648
 72
     1
 10
857.7335296789387
 20
842.0332981822648
 11
852.7853431135445
 21
847.0952280964338
 72
     1
 10
852.7853431135445
 20
847.0952280964338
 11
849.374918785339
 21
853.2981863302484
 72
     1
 10
849.374918785339
 20
853.2981863302484
 11
843.9447617853438
 21
853.2981863302484
 72
     1
 10
843.9447617853438
 20
853.2981863302484
 11
841.9447617853439
 21
850.2981863302483
 72
     1
 10
841.9447617853439
 20
850.2981863302483
 11
835.9447617853438
 21
850.2981863302483
 72
     1
 10
835.9447617853438
 20
850.2981863302483
 11
833.9447617853439
 21
855.2981863302484
 72
     1
 10
833.9447617853439
 20
855.2981863302484
 11
830.9447617853438
 21
855.2981863302484
 72
     1
 10
830.9447617853438
 20
855.2981863302484
 11
828.9447617853438
 21
851.2981863302483
 72
     1
 10
828.9447617853438
 20
851.2981863302483
 11
822.9447617853438
 21
851.2981863302483
 72
     1
 10
822.9447617853438
 20
851.2981863302483
 11
820.9447617853438
 21
855.2981863302484
 72
     1
 10
820.9447617853438
 20
855.2981863302484
 11
814.9447617853438
 21
855.2981863302484
 72
     1
 10
814.9447617853438
 20
855.2981863302484
 11
814.9447617853438
 21
843.2981863302483
 72
     1
 10
814.9447617853438
 20
843.2981863302483
 11
826.346931061038
 21
843.2981863556269
 72
     1
 10
826.346931061038
 20
843.2981863556269
 11
832.0111878257304
 21
842.6691500811356
 97
        0
 75
     0
 76
     2
 52
0.0
 41
5.0
 77
     0
 78
     2
 53
45.0
 43
0.0
 44
0.0
 45
-5.303300858899105
 46
5.303300858899106
 79
     0
 53
135.0
 43
0.0
 44
0.0
 45
-5.303300858899106
 46
-5.303300858899105
 79
     0
 98
        0
1001
ACAD
1010
0.0
1020
0.0
1030
0.0
1001
NEM_ODX
1002
{
1000
BZM_DEPEND
1070
     1
1000
BZM_SCALE
1040
5.0
1000
HATCHING_314
1002
}
  0
LWPOLYLINE
  5
156
330
1F
100
AcDbEntity
  8
BETONNEN DAKPANNEN
  6
Continuous
 62
    30
370
    18
100
AcDbPolyline
 90
       15
 70
     0
 43
0.0
 10
947.4447618634876
 20
836.9105699662323
 10
926.1942057863489
 20
824.2981863146487
 10
913.5183792107708
 20
818.4888020657453
 10
900.2542334231257
 20
814.1890392952264
 10
886.5808569719666
 20
811.4569520771983
 10
872.6828637853468
 20
810.3294283302457
 10
866.0962711186876
 20
811.5360502061594
 10
860.0508849937032
 20
814.415711114263
 10
854.9635760517412
 20
818.7698387344935
 10
851.1851487853418
 20
824.2981863302484
 10
850.269190785344
 20
826.3262633302439
 10
848.4802976249484
 20
829.9428846809242
 10
846.2969743805443
 20
833.3359936277046
 10
843.746785089781
 20
836.4627528519267
 10
840.8619253950018
 20
839.2836875800202
  0
INSERT
  5
157
330
1F
100
AcDbEntity
  8
AANHAALLIJN
  6
Continuous
 62
    30
370
    18
100
AcDbBlockReference
  2
NSY154
 10
187.4447618634876
 20
854.7943859887746
 30
0.0
 41
1.962533333333333
 42
1.962533333333333
 43
1.962533333333333
  0
LWPOLYLINE
  5
158
330
1F
100
AcDbEntity
  8
AANHAALLIJN
  6
Continuous
 62
    30
370
    18
100
AcDbPolyline
 90
        3
 70
     0
 43
0.0
 10
187.4447618634876
 20
499.3369268628416
 10
187.4447618634876
 20
1006.464391184716
 10
505.3614285301591
 20
1006.464391184716
  0
LWPOLYLINE
  5
159
330
1F
100
AcDbEntity
  8
AANHAALLIJN
  6
Continuous
 62
    30
370
    18
100
AcDbPolyline
 90
        3
 70
     0
 43
0.0
 10
97.44476186348766
 20
350.6310448614677
 10
417.4447618634876
 20
350.6310448614677
 10
532.4447618634876
 20
464.5540929640628
  0
INSERT
  5
15A
330
1F
100
AcDbEntity
  8
AANHAALLIJN
  6
Continuous
 62
    30
370
    18
100
AcDbBlockReference
  2
NSY154
 10
187.4447618634731
 20
646.9161123207721
 30
0.0
 41
1.962533333333333
 42
1.962533333333333
 43
1.962533333333333
  0
INSERT
  5
15B
330
1F
100
AcDbEntity
  8
AANHAALLIJN
  6
Continuous
 62
    30
370
    18
100
AcDbBlockReference
  2
NSY154
 10
187.4447618634876
 20
786.0217705810741
 30
0.0
 41
1.962533333333333
 42
1.962533333333333
 43
1.962533333333333
  0
LINE
  5
15C
330
1F
100
AcDbEntity
  8
AANHAALLIJN
  6
Continuous
 62
    30
370
    18
100
AcDbLine
 10
442.4447618635022
 20
313.6282296660938
 30
0.0
 11
949.6953207981132
 21
313.6282296660938
 31
0.0
  0
MTEXT
  5
15D
330
1F
100
AcDbEntity
  8
AANHAALLIJN
  6
Continuous
 62
    30
100
AcDbMText
 10
949.6953207981132
 20
379.4615629994272
 30
0.0
 40
12.5
 41
196.4246982373576
 46
0.0
 71
     3
 72
     5
  1
{\Lwoningscheidende wand}\Pgestapelde wand\Pluchtspouw\Pgestapelde wand
  7
Trebuchet MS
 73
     1
 44
0.783132530120482
  0
MTEXT
  5
15E
330
1F
100
AcDbEntity
  8
AANHAALLIJN
  6
Continuous
 62
    30
370
    18
100
AcDbMText
 10
949.6953207981132
 20
951.0443911847083
 30
0.0
 40
12.5
 41
138.9583333333332
 46
0.0
 71
     9
 72
     5
  1
tengel 20x30 mm
  7
Trebuchet MS
 73
     1
 44
1.0
  0
INSERT
  5
15F
330
1F
100
AcDbEntity
  8
AANHAALLIJN
  6
Continuous
 62
    30
370
    18
100
AcDbBlockReference
  2
NSY154
 10
716.8139711008207
 20
792.9380358944686
 30
0.0
 41
1.962533333333333
 42
1.962533333333333
 43
1.962533333333333
  0
LWPOLYLINE
  5
160
330
1F
100
AcDbEntity
  8
AANHAALLIJN
  6
Continuous
 62
    30
370
    18
100
AcDbPolyline
 90
        3
 70
     0
 43
0.0
 10
716.8139711008207
 20
792.9380358944686
 10
716.8139711008207
 20
946.4610578513747
 10
949.6953207981132
 20
946.4610578513747
  0
HATCH
  5
161
330
1F
100
AcDbEntity
  8
SANDWICH DAKELEMENTEN
  6
Continuous
 62
     5
370
    13
100
AcDbHatch
 10
0.0
 20
0.0
 30
0.0
210
0.0
220
0.0
230
1.0
  2
HATCHING_341
 70
     0
 71
     0
 91
        1
 92
        0
 93
        6
 72
     1
 10
947.4447618437864
 20
512.6310445099006
 11
702.4447618473873
 21
512.6310445099006
 72
     1
 10
702.4447618473873
 20
512.6310445099006
 11
702.4447618396213
 21
508.1445767203099
 72
     1
 10
702.4447618396213
 20
508.1445767203099
 11
702.4447618417034
 21
507.5563414261778
 72
     1
 10
702.4447618417034
 20
507.5563414261778
 11
702.444761841718
 21
502.6310445099004
 72
     1
 10
702.444761841718
 20
502.6310445099004
 11
947.4447618432728
 21
502.6310445099004
 72
     1
 10
947.4447618432728
 20
502.6310445099004
 11
947.4447618437864
 21
512.6310445099006
 97
        0
 75
     0
 76
     2
 52
0.0
 41
5.0
 77
     0
 78
     2
 53
90.0
 43
0.0
 44
0.0
 45
-15.0
 46
0.0000000000000009
 79
     0
 53
90.0
 43
-7.5
 44
0.0000000000000009
 45
-15.0
 46
0.0000000000000009
 79
     0
 98
        0
1001
ACAD
1010
215.084697400741
1020
502.6310445099004
1030
0.0
1001
NEM_ODX
1002
{
1000
BZM_DEPEND
1070
     1
1000
BZM_SCALE
1040
5.0
1000
HATCHING_341
1002
}
  0
HATCH
  5
162
330
1F
100
AcDbEntity
  8
SANDWICH DAKELEMENTEN
  6
Continuous
 62
     5
370
    13
100
AcDbHatch
 10
0.0
 20
0.0
 30
0.0
210
0.0
220
0.0
230
1.0
  2
HATCHING_341
 70
     0
 71
     0
 91
        1
 92
        0
 93
        4
 72
     1
 10
117.4447618634876
 20
512.6310445099002
 11
117.4447618634875
 21
502.6310445099001
 72
     1
 10
117.4447618634875
 20
502.6310445099001
 11
187.4447618634876
 21
502.6310445099004
 72
     1
 10
187.4447618634876
 20
502.6310445099004
 11
187.4447618634878
 21
512.6310445099004
 72
     1
 10
187.4447618634878
 20
512.6310445099004
 11
117.4447618634876
 21
512.6310445099002
 97
        0
 75
     0
 76
     2
 52
0.0
 41
5.0
 77
     0
 78
     2
 53
90.0
 43
0.0
 44
0.0
 45
-15.0
 46
0.0000000000000009
 79
     0
 53
90.0
 43
-7.5
 44
0.0000000000000009
 45
-15.0
 46
0.0000000000000009
 79
     0
 98
        0
1001
ACAD
1010
359.315359868955
1020
512.6310445099006
1030
0.0
1001
NEM_ODX
1002
{
1000
BZM_DEPEND
1070
     1
1000
BZM_SCALE
1040
5.0
1000
HATCHING_341
1002
}
  0
HATCH
  5
163
330
1F
100
AcDbEntity
  8
SANDWICH DAKELEMENTEN
  6
Continuous
 62
     5
370
    13
100
AcDbHatch
 10
0.0
 20
0.0
 30
0.0
210
0.0
220
0.0
230
1.0
  2
HATCHING_341
 70
     0
 71
     0
 91
        1
 92
        0
 93
        4
 72
     1
 10
187.4447618634876
 20
512.6310445099004
 11
187.4447618634876
 21
502.6310445099004
 72
     1
 10
187.4447618634876
 20
502.6310445099004
 11
362.4447618636914
 21
502.6310445099004
 72
     1
 10
362.4447618636914
 20
502.6310445099004
 11
362.4447618634877
 21
512.6310445099004
 72
     1
 10
362.4447618634877
 20
512.6310445099004
 11
187.4447618634876
 21
512.6310445099004
 97
        0
 75
     0
 76
     2
 52
0.0
 41
5.0
 77
     0
 78
     2
 53
90.0
 43
0.0
 44
0.0
 45
-15.0
 46
0.0000000000000009
 79
     0
 53
90.0
 43
-7.5
 44
0.0000000000000009
 45
-15.0
 46
0.0000000000000009
 79
     0
 98
        0
1001
ACAD
1010
947.4447618432728
1020
502.6310445099004
1030
0.0
1001
NEM_ODX
1002
{
1000
BZM_DEPEND
1070
     1
1000
BZM_SCALE
1040
5.0
1000
HATCHING_341
1002
}
  0
LWPOLYLINE
  5
164
330
1F
100
AcDbEntity
  8
SANDWICH DAKELEMENTEN
  6
Continuous
 62
    30
370
    18
100
AcDbPolyline
 90
        4
 70
     0
 43
0.0
 10
117.4447931298346
 20
802.631042791174
 10
517.442474415191
 20
802.6310459161177
 10
517.4424744150019
 20
824.6310459161177
 10
117.4472930917109
 20
824.6310459161541
  0
LWPOLYLINE
  5
165
330
1F
100
AcDbEntity
  8
STEENWOL
  6
PUNKT2_S9
 62
     5
370
    13
100
AcDbPolyline
 90
       13
 70
     1
 43
0.0
 10
332.4447618634877
 20
782.6310445099006
 10
252.4447618634876
 20
782.6310445099006
 10
252.4447618632985
 20
824.6310459027954
 10
812.4464411862572
 20
824.6310458770821
 10
812.4447618634876
 20
782.6310439630397
 10
732.4447618418344
 20
782.6310445099006
 10
732.4447618418344
 20
802.6310445099007
 10
702.4447618418344
 20
802.6310439630396
 10
702.4447618418344
 20
782.6310445099006
 10
362.4447618634877
 20
782.6310445099006
 10
362.4447618634877
 20
802.6310445099007
 10
332.4447618634877
 20
802.6310445099007
 10
332.4447618634877
 20
782.6310445099006
  0
LWPOLYLINE
  5
166
330
1F
100
AcDbEntity
  8
STEENWOL
  6
PUNKT2_S9
 62
     5
370
    13
100
AcDbPolyline
 90
       16
 70
     0
 43
0.0
 10
362.4447618634877
 20
789.0796771000182
 10
366.1678816252977
 20
782.6310445098994
 10
390.4165937317932
 20
824.6310458964602
 10
414.6653056201891
 20
782.6310448876591
 10
438.9140175072993
 20
824.6310458942334
 10
463.1627295999806
 20
782.6310445315996
 10
487.4114416913763
 20
824.6310458920067
 10
511.6601539883431
 20
782.63104417554
 10
535.9088662840242
 20
824.6310458897797
 10
560.1575787852762
 20
782.6310438194805
 10
584.4062913017473
 20
824.6310459161396
 10
608.6550040237892
 20
782.6310434634209
 10
632.9037167458312
 20
824.6310459161396
 10
657.1524296734444
 20
782.6310431073614
 10
681.4011426010575
 20
824.6310459161396
 10
702.4447618418344
 20
788.1824282159802
  0
LWPOLYLINE
  5
167
330
1F
100
AcDbEntity
  8
STEENWOL
  6
PUNKT2_S9
 62
     5
370
    13
100
AcDbPolyline
 90
        6
 70
     0
 43
0.0
 10
354.6208762415044
 20
802.6310445099007
 10
341.9191695175105
 20
824.6310458986918
 10
316.747247560168
 20
782.6310445099006
 10
292.4985354510864
 20
824.6310459009619
 10
268.2498233419901
 20
782.6310445099006
 10
252.4447618633713
 20
810.0062140076406
  0
LWPOLYLINE
  5
168
330
1F
100
AcDbEntity
  8
STEENWOL
  6
PUNKT2_S9
 62
     5
370
    13
100
AcDbPolyline
 90
        6
 70
     0
 43
0.0
 10
717.1968598760705
 20
802.6310441173551
 10
729.887754785348
 20
824.612318893741
 10
754.1256548517818
 20
782.6310445099006
 10
778.3743669696385
 20
824.6310459161396
 10
802.6230790874953
 20
782.6310445099006
 10
812.4454421024262
 20
799.6438763021465
  0
LINE
  5
169
330
1F
100
AcDbEntity
  8
AFBREEKLIJNEN
  6
STRICHPUNKT2_S5
 62
     7
370
    25
100
AcDbLine
 10
947.4757485707106
 20
472.63104459292
 30
0.0
 11
947.4447618634876
 21
889.1460921689214
 31
0.0
  0
LINE
  5
16A
330
1F
100
AcDbEntity
  8
AFBREEKLIJNEN
  6
STRICHPUNKT2_S5
 62
     7
370
    25
100
AcDbLine
 10
117.4420277391764
 20
472.6310446344907
 30
0.0
 11
117.4780181355265
 21
867.5333106482847
 31
0.0
  0
MTEXT
  5
16B
330
1F
100
AcDbEntity
  8
AANHAALLIJN
  6
Continuous
 62
    30
370
    18
100
AcDbMText
 10
97.44476186348766
 20
425.9400636846184
 30
0.0
 40
12.5
 41
184.1666666666666
 46
0.0
 71
     7
 72
     5
  1
luchtdichte aansluiting
  7
Trebuchet MS
 73
     1
 44
1.0
  0
LWPOLYLINE
  5
16C
330
1F
100
AcDbEntity
  8
AANHAALLIJN
  6
Continuous
 62
    30
370
    18
100
AcDbPolyline
 90
        3
 70
     0
 43
0.0
 10
97.44476186348766
 20
421.35673035129
 10
330.9581137451023
 20
421.35673035129
 10
372.4447618580744
 20
545.6310445099006
  0
LWPOLYLINE
  5
16D
330
1F
100
AcDbEntity
  8
STEENWOL
  6
Continuous
 62
     7
370
    25
100
AcDbPolyline
 90
        4
 70
     0
 43
0.0
 10
362.4447618634877
 20
782.6310445099006
 10
475.0280645264438
 20
587.6310442137561
 10
587.6113671894
 20
782.6310445099006
 10
697.3079185015052
 20
592.6310442222479
  0
LWPOLYLINE
  5
16E
330
1F
100
AcDbEntity
  8
STEENWOL
  6
Continuous
 62
     7
370
    25
100
AcDbPolyline
 90
        3
 70
     0
 43
0.0
 10
724.4447618418489
 20
512.6310445099006
 10
880.3293345230478
 20
782.6310445099006
 10
947.4613364438965
 20
666.3550063691793
  0
LWPOLYLINE
  5
16F
330
1F
100
AcDbEntity
  8
STEENWOL
  6
Continuous
 62
     7
370
    25
100
AcDbPolyline
 90
        3
 70
     0
 43
0.0
 10
340.4447618634876
 20
578.6310445099006
 10
222.6653069488093
 20
782.6310445099006
 10
117.4447618634876
 20
600.3837144220524
  0
LWPOLYLINE
  5
170
330
1F
100
AcDbEntity
  8
STEENWOL
  6
Continuous
 62
     7
370
    25
100
AcDbPolyline
 90
        4
 70
     0
 43
0.0
 10
947.4447618418343
 20
782.6310445099006
 10
724.4447618418344
 20
782.6310445099006
 10
724.4447618201811
 20
512.6310445099006
 10
947.4447618201811
 20
512.6310445099006
  0
LWPOLYLINE
  5
171
330
1F
100
AcDbEntity
  8
STEENWOL
  6
Continuous
 62
     7
370
    25
100
AcDbPolyline
 90
        4
 70
     0
 43
0.0
 10
117.4447618634876
 20
782.6310445099006
 10
340.4447618634876
 20
782.6310445099006
 10
340.4447618634876
 20
512.6310445099004
 10
117.4447618634876
 20
512.6310445099004
  0
INSERT
  5
172
330
1F
100
AcDbEntity
  8
AANHAALLIJN
  6
Continuous
 62
    30
370
    18
100
AcDbBlockReference
  2
NSY154
 10
577.4538115259929
 20
792.6310428844226
 30
0.0
 41
1.962533333333333
 42
1.962533333333333
 43
1.962533333333333
  0
MTEXT
  5
173
330
1F
100
AcDbEntity
  8
AANHAALLIJN
  6
Continuous
 62
    30
370
    18
100
AcDbMText
 10
51.49999999999999
 20
1344.25
 30
0.0
 40
17.5
 41
183.7983911513323
 46
0.0
 71
     1
 72
     5
  1
\W1.01;RockSono\~Solid
  7
ARIAL
 73
     1
 44
1.0
  0
MTEXT
  5
174
330
1F
100
AcDbEntity
  8
AANHAALLIJN
  6
Continuous
 62
     5
370
    18
100
AcDbMText
 10
51.5
 20
1283.0
 30
0.0
 40
10.0
 41
541.234117157817
 46
0.0
 71
     1
 72
     5
  1
{\fArial|i0|b0;\H10.000000;\W1.000000;\C5;Bouwdetail gebaseerd op:     Rc dak ≥ \fArial|i0|b1;6,3 m²·K/W     \fArial|i0|b0;qv10-waarde\fArial|i0|b1; \fArial|i0|b0;≤ \fArial|i0|b1;0,4 dm³/s per m²}\P
  7
ARIAL
 73
     1
 44
1.0
  0
LWPOLYLINE
  5
175
330
1F
100
AcDbEntity
  8
STEENWOL
  6
Continuous
 62
     7
370
    25
100
AcDbPolyline
 90
        5
 70
     1
 43
0.0
 10
502.4447618634876
 20
587.6310442166368
 10
502.4447618634878
 20
387.63104421595
 10
562.4447618635022
 20
387.6310442159497
 10
562.4447618634877
 20
587.6310442166363
 10
502.4447618634876
 20
587.6310442166368
  0
LWPOLYLINE
  5
176
330
1F
100
AcDbEntity
  8
STEENWOL
  6
Continuous
 62
     7
370
    25
100
AcDbPolyline
 90
        8
 70
     0
 43
0.0
 10
515.6793905682787
 20
387.6310442159499
 10
502.4447618634876
 20
395.2720606612857
 10
562.4447618635022
 20
429.9130768126778
 10
502.4447618634876
 20
464.5540929640628
 10
562.4447618635022
 20
499.1951091154478
 10
502.4447618634876
 20
533.8361252668327
 10
562.4447618635022
 20
568.4771414182177
 10
529.2692290533978
 20
587.6310442166363
  0
MTEXT
  5
177
330
1F
100
AcDbEntity
  8
AANHAALLIJN
  6
Continuous
 62
    30
370
    18
100
AcDbMText
 10
97.44476186348766
 20
355.214378194801
 30
0.0
 40
12.5
 41
124.2505457888084
 46
0.0
 71
     7
 72
     5
  1
{\fArial|i0|b1;\H12.500000;\W1.000000;\C30;Rockfit Mono*}\P
  7
ARIAL
 73
     1
 44
1.0
  0
INSERT
  5
178
330
1F
100
AcDbEntity
  8
AANHAALLIJN
  6
Continuous
 62
    30
370
    18
100
AcDbBlockReference
  2
NSY154
 10
647.9648628761643
 20
597.4310442188055
 30
0.0
 41
1.962533333333333
 42
1.962533333333333
 43
1.962533333333333
  0
INSERT
  5
179
330
1F
100
AcDbEntity
  8
AANHAALLIJN
  6
Continuous
 62
    30
370
    18
100
AcDbBlockReference
  2
NSY154
 10
647.9648628761642
 20
594.6310442176395
 30
0.0
 41
1.962533333333333
 42
1.962533333333333
 43
1.962533333333333
  0
LWPOLYLINE
  5
17A
330
1F
100
AcDbEntity
  8
AANHAALLIJN
  6
Continuous
 62
    30
370
    18
100
AcDbPolyline
 90
        3
 70
     0
 43
0.0
 10
647.9648628761642
 20
594.6310442176395
 10
647.9648628761642
 20
976.464391184716
 10
949.6953207981132
 20
976.464391184716
  0
LWPOLYLINE
  5
17B
330
1F
100
AcDbEntity
  8
DILALATIEVOEG EN AFDICHTING
  6
Continuous
 62
     5
370
    13
100
AcDbPolyline
 90
       17
 70
     1
 43
0.0
 10
730.4447618517687
 20
791.1736900194524
 10
700.4447618517687
 20
791.173690186865
 10
700.444761863674
 20
663.4594713435419
 10
695.4447618636886
 20
658.459471343542
 10
695.4447618635022
 20
596.6310442188025
 10
601.6163347387482
 20
596.6310442188025
 10
596.6163347387483
 20
591.6310442188025
 10
576.6163347387482
 20
591.6310442188025
 10
576.6163347387482
 20
592.4310442188055
 10
596.2849638888583
 20
592.4310442188055
 10
601.2849638888583
 20
597.4310442188055
 10
694.6447618634993
 20
597.4310442188055
 10
694.6447618636857
 20
658.7908421934464
 10
699.6447618636857
 20
663.7908421934464
 10
699.6447618517803
 20
791.9736901868678
 10
730.4447618517687
 20
791.9736900194553
 10
730.4447618517687
 20
791.1736900194524
  0
HATCH
  5
17C
330
1F
100
AcDbEntity
  8
DILALATIEVOEG EN AFDICHTING
  6
Continuous
 62
   250
370
    25
100
AcDbHatch
 10
0.0
 20
0.0
 30
0.0
210
0.0
220
0.0
230
1.0
  2
SOLID
 70
     1
 71
     0
 91
        1
 92
        3
 72
     0
 73
     1
 93
       16
 10
576.6163347387482
 20
591.6310442188025
 10
596.6163347387483
 20
591.6310442188025
 10
601.6163347387482
 20
596.6310442188025
 10
695.4447618635022
 20
596.6310442188025
 10
695.4447618636886
 20
658.459471343542
 10
700.444761863674
 20
663.4594713435419
 10
700.4447618517687
 20
791.173690186865
 10
730.4447618517687
 20
791.1736900194524
 10
730.4447618517687
 20
791.9736900194553
 10
699.6447618517803
 20
791.9736901868678
 10
699.6447618636857
 20
663.7908421934464
 10
694.6447618636857
 20
658.7908421934464
 10
694.6447618634993
 20
597.4310442188055
 10
601.2849638888583
 20
597.4310442188055
 10
596.2849638888583
 20
592.4310442188055
 10
576.6163347387482
 20
592.4310442188055
 97
        0
 75
     0
 76
     1
 98
        0
450
        0
451
        0
460
0.0
461
0.0
452
        1
462
0.0
453
        0
470

  0
LWPOLYLINE
  5
17D
330
1F
100
AcDbEntity
  8
DILALATIEVOEG EN AFDICHTING
  6
Continuous
 62
     5
370
    13
100
AcDbPolyline
 90
       17
 70
     1
 43
0.0
 10
334.4447618743586
 20
791.173692171899
 10
364.4447618743586
 20
791.1736923393115
 10
364.4447618636741
 20
663.4594713435419
 10
369.4447618636741
 20
658.459471343542
 10
369.4447618634876
 20
596.6310442188025
 10
463.2731889882416
 20
596.6310442188025
 10
468.2731889882416
 20
591.6310442188025
 10
488.2731889882416
 20
591.6310442188025
 10
488.2731889882416
 20
592.4310442188055
 10
468.604559838146
 20
592.4310442188055
 10
463.6045598381461
 20
597.4310442188055
 10
370.244761863476
 20
597.4310442188055
 10
370.2447618636625
 20
658.7908421934464
 10
365.244761863677
 20
663.7908421934464
 10
365.2447618743615
 20
791.9736923393144
 10
334.4447618743586
 20
791.9736921719019
 10
334.4447618743586
 20
791.173692171899
  0
HATCH
  5
17E
330
1F
100
AcDbEntity
  8
DILALATIEVOEG EN AFDICHTING
  6
Continuous
 62
   250
370
    25
100
AcDbHatch
 10
0.0
 20
0.0
 30
0.0
210
0.0
220
0.0
230
1.0
  2
SOLID
 70
     1
 71
     0
 91
        1
 92
        3
 72
     0
 73
     1
 93
       16
 10
488.2731889882416
 20
591.6310442188025
 10
488.2731889882416
 20
592.4310442188055
 10
468.604559838146
 20
592.4310442188055
 10
463.6045598381461
 20
597.4310442188055
 10
370.244761863476
 20
597.4310442188055
 10
370.2447618636625
 20
658.7908421934464
 10
365.244761863677
 20
663.7908421934464
 10
365.2447618743615
 20
791.9736923393144
 10
334.4447618743586
 20
791.9736921719019
 10
334.4447618743586
 20
791.173692171899
 10
364.4447618743586
 20
791.1736923393115
 10
364.4447618636741
 20
663.4594713435419
 10
369.4447618636741
 20
658.459471343542
 10
369.4447618634876
 20
596.6310442188025
 10
463.2731889882416
 20
596.6310442188025
 10
468.2731889882416
 20
591.6310442188025
 97
        0
 75
     0
 76
     1
 98
        0
450
        0
451
        0
460
0.0
461
0.0
452
        1
462
0.0
453
        0
470

  0
LWPOLYLINE
  5
17F
330
1F
100
AcDbEntity
  8
DILALATIEVOEG EN AFDICHTING
  6
VERDECKT2_S2
 62
     7
370
    25
100
AcDbPolyline
 90
        6
 70
     0
 43
0.0
 10
407.4447618672864
 20
594.6310442087679
 10
462.444761867364
 20
594.6310442132718
 10
467.4447618660679
 20
589.6310442145678
 10
597.4447618698263
 20
589.6310442196104
 10
602.4447618634876
 20
594.6310442132718
 10
657.4447618634247
 20
594.631044224413
  0
MTEXT
  5
180
330
1F
100
AcDbEntity
  8
AANHAALLIJN
  6
Continuous
 62
    30
370
    13
100
AcDbMText
 10
505.3614285301592
 20
1153.547724518049
 30
0.0
 40
12.5
 41
223.4756803297199
 46
0.0
 71
     3
 72
     5
  1
{\Lopbouw sporenkap}\Pdakpan\Ppanlat 22x38 mm\Pwaterwerende en\Pdampdoorlatende laag\P{\fArial|b1|i0|c0|p34;RockSono Base 270 mm**\P(twee laags)\P(houtpercentage 8%)}\Ponderplaat 10 mm
  7
Trebuchet MS
 73
     1
 44
0.783132530120482
  0
LWPOLYLINE
  5
181
330
1F
100
AcDbEntity
  8
AANHAALLIJN
  6
Continuous
 62
    30
370
    18
100
AcDbPolyline
 90
        5
 70
     1
 43
0.0
 10
69.99999999999636
 20
70.0
 10
193.7903829171865
 20
70.0
 10
193.7903829171865
 20
102.4243720251154
 10
69.99999999999636
 20
102.4243720251154
 10
69.99999999999636
 20
70.0
  0
HATCH
  5
182
330
1F
100
AcDbEntity
  8
AANHAALLIJN
  6
Continuous
 62
   255
370
    25
100
AcDbHatch
 10
0.0
 20
0.0
 30
0.0
210
0.0
220
0.0
230
1.0
  2
SOLID
 70
     1
 71
     0
 91
        1
 92
        3
 72
     0
 73
     1
 93
        4
 10
193.7903829171831
 20
69.99999999999793
 10
193.7903829171857
 20
102.4243720251131
 10
69.99999999999069
 20
102.4243720251171
 10
69.99999999999636
 20
70.00000000000048
 97
        0
 75
     0
 76
     1
 98
        0
450
        0
451
        0
460
0.0
461
0.0
452
        1
462
0.0
453
        0
470

  0
MTEXT
  5
183
330
1F
100
AcDbEntity
  8
AANHAALLIJN
  6
Continuous
 62
     5
370
    13
100
AcDbMText
 10
74.98415187608611
 20
97.36577832937493
 30
0.0
 40
7.0
 41
112.0736316591529
 46
0.0
 71
     1
 72
     5
  1
*λreken ≤ 0,035 W/(m.K)
  7
TAHOMA
 73
     1
 44
1.0
  0
MTEXT
  5
184
330
1F
100
AcDbEntity
  8
AANHAALLIJN
  6
Continuous
 62
     5
370
    13
100
AcDbMText
 10
74.98415187608611
 20
84.86577832937493
 30
0.0
 40
7.0
 41
117.7121212121212
 46
0.0
 71
     1
 72
     5
  1
**λreken ≤ 0,037 W/(m.K)
  7
TAHOMA
 73
     1
 44
1.0
  0
MTEXT
  5
185
330
1F
100
AcDbEntity
  8
AANHAALLIJN
  6
Continuous
 62
    30
370
    18
100
AcDbMText
 10
949.6953207981132
 20
1058.547724518049
 30
0.0
 40
12.5
 41
182.5740947758753
 46
0.0
 71
     3
 72
     5
  1
waterwerende,\Pdampdoorlatende laag\P{\fArial|b1|i0|c0|p34;RockSono Solid*}\Pluchtdicht membraan\Pdampremmende folie
  7
Trebuchet MS
 73
     1
 44
0.783132530120482
  0
MTEXT
  5
186
330
1F
100
AcDbEntity
  8
AANHAALLIJN
  6
Continuous
 62
    30
370
    18
100
AcDbMText
 10
949.6953207981132
 20
1104.801057851376
 30
0.0
 40
12.5
 41
242.1095007199119
 46
0.0
 71
     3
 72
     5
  1
indien noodzakelijk\Pstrook steenwol t.b.v. WBDBO
  7
Trebuchet MS
 73
     1
 44
0.783132530120482
  0
LWPOLYLINE
  5
187
330
1F
100
AcDbEntity
  8
AANHAALLIJN
  6
Continuous
 62
    30
370
    18
100
AcDbPolyline
 90
        3
 70
     0
 43
0.0
 10
577.4538115259929
 20
792.6310428844226
 10
577.4538115259929
 20
1071.467724518043
 10
949.6953207981132
 20
1071.467724518043
  0
ENDSEC
  0
SECTION
  2
OBJECTS
  0
DICTIONARY
  5
C
330
0
100
AcDbDictionary
281
     1
  3
ACAD_CIP_PREVIOUS_PRODUCT_INFO
350
1AA
  3
ACAD_COLOR
350
199
  3
ACAD_DETAILVIEWSTYLE
350
19E
  3
ACAD_GROUP
350
D
  3
ACAD_LAYOUT
350
1A
  3
ACAD_MATERIAL
350
3B
  3
ACAD_MLEADERSTYLE
350
18D
  3
ACAD_MLINESTYLE
350
17
  3
ACAD_PLOTSETTINGS
350
19
  3
ACAD_PLOTSTYLENAME
350
E
  3
ACAD_SCALELIST
350
77
  3
ACAD_SECTIONVIEWSTYLE
350
19C
  3
ACAD_TABLESTYLE
350
18C
  3
ACAD_VISUALSTYLE
350
2A
  3
ACDB_RECOMPOSE_DATA
350
276
  3
AcDbVariableDictionary
350
18A
  3
AcDsDecomposeData
350
27C
  0
DICTIONARY
  5
222
330
2
100
AcDbDictionary
280
     1
281
     1
  3
ACAD_LAYERSTATES
360
223
  0
DICTIONARY
  5
188
330
1F
100
AcDbDictionary
280
     1
281
     1
  3
ACAD_SORTENTS
360
189
  0
XRECORD
  5
1AA
102
{ACAD_REACTORS
330
C
102
}
330
C
100
AcDbXrecord
280
     1
300
ACDLT
300
2020
300

  0
DICTIONARY
  5
199
102
{ACAD_REACTORS
330
C
102
}
330
C
100
AcDbDictionary
281
     1
  0
DICTIONARY
  5
19E
102
{ACAD_REACTORS
330
C
102
}
330
C
100
AcDbDictionary
281
     1
  3
Metric50
350
19F
  0
DICTIONARY
  5
D
102
{ACAD_REACTORS
330
C
102
}
330
C
100
AcDbDictionary
281
     1
  0
DICTIONARY
  5
1A
102
{ACAD_REACTORS
330
C
102
}
330
C
100
AcDbDictionary
281
     1
  3
Layout1
350
1E
  3
Layout2
350
26
  3
Model
350
22
  0
DICTIONARY
  5
3B
102
{ACAD_REACTORS
330
C
102
}
330
C
100
AcDbDictionary
281
     1
  3
ByBlock
350
3D
  3
ByLayer
350
3C
  3
Global
350
3E
  0
DICTIONARY
  5
18D
102
{ACAD_REACTORS
330
C
102
}
330
C
100
AcDbDictionary
281
     1
  3
Standard
350
19B
  0
DICTIONARY
  5
17
102
{ACAD_REACTORS
330
C
102
}
330
C
100
AcDbDictionary
281
     1
  3
Standard
350
18
  0
DICTIONARY
  5
19
102
{ACAD_REACTORS
330
C
102
}
330
C
100
AcDbDictionary
281
     1
  0
ACDBDICTIONARYWDFLT
  5
E
102
{ACAD_REACTORS
330
C
102
}
330
C
100
AcDbDictionary
281
     1
  3
Normal
350
F
100
AcDbDictionaryWithDefault
340
F
  0
DICTIONARY
  5
77
102
{ACAD_REACTORS
330
C
102
}
330
C
100
AcDbDictionary
281
     1
  3
A0
350
78
  3
A1
350
79
  3
A2
350
7A
  3
A3
350
7B
  3
A4
350
7C
  3
A5
350
7D
  3
A6
350
7E
  3
A7
350
7F
  3
A8
350
80
  3
A9
350
81
  3
B0
350
82
  3
B1
350
83
  3
B2
350
84
  3
B3
350
85
  3
B4
350
86
  3
B5
350
87
  3
B6
350
88
  3
B7
350
89
  3
B8
350
8A
  3
B9
350
8B
  3
C0
350
8C
  3
C1
350
8D
  3
C2
350
8E
  3
C3
350
8F
  3
C4
350
90
  3
C5
350
91
  3
C6
350
92
  3
C7
350
93
  3
C8
350
94
  3
C9
350
95
  3
D0
350
96
  3
D1
350
97
  3
D2
350
98
  0
DICTIONARY
  5
19C
102
{ACAD_REACTORS
330
C
102
}
330
C
100
AcDbDictionary
281
     1
  3
Metric50
350
19D
  0
DICTIONARY
  5
18C
102
{ACAD_REACTORS
330
C
102
}
330
C
100
AcDbDictionary
281
     1
  3
Standard
350
19A
  0
DICTIONARY
  5
2A
102
{ACAD_REACTORS
330
C
102
}
330
C
100
AcDbDictionary
281
     1
  3
2dWireframe
350
2F
  3
3D Hidden
350
31
  3
3dWireframe
350
30
  3
Basic
350
32
  3
Brighten
350
36
  3
ColorChange
350
3A
  3
Conceptual
350
34
  3
Dim
350
35
  3
EdgeColorOff
350
198
  3
Facepattern
350
39
  3
Flat
350
2B
  3
FlatWithEdges
350
2C
  3
Gouraud
350
2D
  3
GouraudWithEdges
350
2E
  3
Hidden
350
190
  3
JitterOff
350
196
  3
Linepattern
350
38
  3
OverhangOff
350
197
  3
Realistic
350
33
  3
Shaded
350
195
  3
Shaded with edges
350
194
  3
Shades of Gray
350
191
  3
Sketchy
350
192
  3
Thicken
350
37
  3
Wireframe
350
18F
  3
X-Ray
350
193
  0
XRECORD
  5
276
102
{ACAD_REACTORS
330
C
102
}
330
C
100
AcDbXrecord
280
     1
 90
        1
330
19A
  0
DICTIONARY
  5
18A
102
{ACAD_REACTORS
330
C
102
}
330
C
100
AcDbDictionary
281
     1
  3
CANNOSCALE
350
18B
  3
CMLEADERSTYLE
350
271
  3
CTABLESTYLE
350
270
  3
CVIEWDETAILSTYLE
350
272
  3
CVIEWSECTIONSTYLE
350
273
  0
DICTIONARY
  5
27C
102
{ACAD_REACTORS
330
C
102
}
330
C
100
AcDbDictionary
281
     1
  3
AcDsRecords
350
27E
  3
AcDsSchemas
350
27D
1001
ACAD
1070
     2
  0
DICTIONARY
  5
223
102
{ACAD_REACTORS
330
222
102
}
330
222
100
AcDbDictionary
281
     1
  0
SORTENTSTABLE
  5
189
102
{ACAD_REACTORS
330
188
102
}
330
188
100
AcDbSortentsTable
330
1F
331
74
  5
E6
331
75
  5
E7
331
76
  5
E8
331
99
  5
E9
331
9A
  5
EA
331
B0
  5
EB
331
C2
  5
EC
331
C3
  5
ED
331
CF
  5
EE
331
DA
  5
EF
331
E5
  5
F0
331
E6
  5
F1
331
E7
  5
F2
331
E8
  5
F3
331
E9
  5
FB
331
EA
  5
103
331
EB
  5
10B
331
EC
  5
10C
331
ED
  5
114
331
EE
  5
11C
331
EF
  5
124
331
F0
  5
125
331
F1
  5
126
331
F2
  5
127
331
F3
  5
128
331
FB
  5
129
331
103
  5
12A
331
10B
  5
12B
331
10C
  5
12C
331
114
  5
12D
331
11C
  5
12E
331
124
  5
12F
331
125
  5
130
331
126
  5
131
331
127
  5
132
331
128
  5
133
331
129
  5
134
331
12A
  5
135
331
12B
  5
136
331
12C
  5
74
331
12D
  5
137
331
12E
  5
138
331
12F
  5
139
331
130
  5
75
331
131
  5
13A
331
132
  5
13B
331
133
  5
13C
331
134
  5
76
331
135
  5
13D
331
136
  5
13E
331
137
  5
13F
331
138
  5
140
331
139
  5
99
331
13A
  5
141
331
13B
  5
142
331
13C
  5
143
331
13D
  5
144
331
13E
  5
145
331
13F
  5
146
331
140
  5
147
331
141
  5
148
331
142
  5
149
331
143
  5
14A
331
144
  5
14B
331
145
  5
14C
331
146
  5
14D
331
147
  5
14E
331
148
  5
14F
331
149
  5
9A
331
14A
  5
150
331
14B
  5
151
331
14C
  5
152
331
14D
  5
B0
331
14E
  5
153
331
14F
  5
C2
331
150
  5
154
331
151
  5
155
331
152
  5
156
331
153
  5
157
331
154
  5
C3
331
155
  5
158
331
156
  5
159
331
157
  5
15A
331
158
  5
15B
331
159
  5
15C
331
15A
  5
15D
331
15B
  5
15E
331
15C
  5
15F
331
15D
  5
160
331
15E
  5
161
331
15F
  5
162
331
160
  5
163
331
161
  5
164
331
162
  5
165
331
163
  5
166
331
164
  5
167
331
165
  5
168
331
166
  5
169
331
167
  5
16A
331
168
  5
16B
331
169
  5
16C
331
16A
  5
16D
331
16B
  5
16E
331
16C
  5
16F
331
16D
  5
170
331
16E
  5
171
331
16F
  5
172
331
170
  5
173
331
171
  5
174
331
172
  5
175
331
173
  5
176
331
174
  5
177
331
175
  5
178
331
176
  5
179
331
177
  5
17A
331
178
  5
17B
331
179
  5
17C
331
17A
  5
17D
331
17B
  5
17E
331
17C
  5
CF
331
17D
  5
17F
331
17E
  5
DA
331
17F
  5
180
331
180
  5
181
331
181
  5
182
331
182
  5
E5
  0
ACDBDETAILVIEWSTYLE
  5
19F
102
{ACAD_XDICTIONARY
360
2B7
102
}
102
{ACAD_REACTORS
330
19E
102
}
330
19E
100
AcDbModelDocViewStyle
 70
     0
  3
Metric50
290
     0
100
AcDbDetailViewStyle
 70
     0
 71
     0
 90
        3
 71
     1
340
11
 62
   256
 40
5.0
340
0
 62
   256
 40
5.0
300

 40
0.0
280
     1
 71
     2
340
16
 90
       25
 62
   256
 71
     3
340
11
 62
   256
 40
5.0
 90
        0
 40
15.0
 90
        1
300
%<\AcVar ViewDetailId>% (%<\AcVar ViewScale \f "%sn">%)
 71
     4
340
16
 90
       25
 62
   256
340
16
 90
       25
 62
   256
280
     0
  0
LAYOUT
  5
1E
102
{ACAD_REACTORS
330
1A
102
}
330
1A
100
AcDbPlotSettings
  1

  2
none_device
  4
none_user_media
  6

 40
6.349999999999999
 41
19.05
 42
6.349974599999999
 43
19.0499873
 44
1500.0
 45
1065.0
 46
7.5
 47
7.5
 48
0.0
 49
0.0
140
0.0
141
0.0
142
1.0
143
1.0
 70
   688
 72
     1
 73
     0
 74
     5
  7

 75
    16
147
1.0
 76
     0
 77
     2
 78
   300
148
0.0
149
0.0
100
AcDbLayout
  1
Layout1
 70
     1
 71
     1
 10
0.0
 20
0.0
 11
12.0
 21
9.0
 12
0.0
 22
0.0
 32
0.0
 14
1.000000000000000E+20
 24
1.000000000000000E+20
 34
1.000000000000000E+20
 15
-1.000000000000000E+20
 25
-1.000000000000000E+20
 35
-1.000000000000000E+20
146
0.0
 13
0.0
 23
0.0
 33
0.0
 16
1.0
 26
0.0
 36
0.0
 17
0.0
 27
1.0
 37
0.0
 76
     0
330
1B
  0
LAYOUT
  5
26
102
{ACAD_REACTORS
330
1A
102
}
330
1A
100
AcDbPlotSettings
  1

  2
none_device
  4

  6

 40
0.0
 41
0.0
 42
0.0
 43
0.0
 44
0.0
 45
0.0
 46
0.0
 47
0.0
 48
0.0
 49
0.0
140
0.0
141
0.0
142
1.0
143
1.0
 70
   688
 72
     0
 73
     0
 74
     5
  7

 75
    16
147
1.0
 76
     0
 77
     2
 78
   300
148
0.0
149
0.0
100
AcDbLayout
  1
Layout2
 70
     1
 71
     2
 10
0.0
 20
0.0
 11
0.0
 21
0.0
 12
0.0
 22
0.0
 32
0.0
 14
0.0
 24
0.0
 34
0.0
 15
0.0
 25
0.0
 35
0.0
146
0.0
 13
0.0
 23
0.0
 33
0.0
 16
1.0
 26
0.0
 36
0.0
 17
0.0
 27
1.0
 37
0.0
 76
     0
330
23
  0
LAYOUT
  5
22
102
{ACAD_REACTORS
330
1A
102
}
330
1A
100
AcDbPlotSettings
  1

  2
none_device
  4

  6

 40
0.0
 41
0.0
 42
0.0
 43
0.0
 44
0.0
 45
0.0
 46
0.0
 47
0.0
 48
0.0
 49
0.0
140
0.0
141
0.0
142
1.0
143
1.0
 70
  1712
 72
     0
 73
     0
 74
     0
  7

 75
     0
147
1.0
 76
     0
 77
     2
 78
   300
148
0.0
149
0.0
100
AcDbLayout
  1
Model
 70
     1
 71
     0
 10
0.0
 20
0.0
 11
1050.0
 21
1485.0
 12
0.0
 22
0.0
 32
0.0
 14
0.0
 24
0.0
 34
0.0
 15
1050.0
 25
1485.0
 35
1050.0
146
0.0
 13
0.0
 23
0.0
 33
0.0
 16
1.0
 26
0.0
 36
0.0
 17
0.0
 27
1.0
 37
0.0
 76
     0
330
1F
331
29
  0
MATERIAL
  5
3D
102
{ACAD_REACTORS
330
3B
102
}
330
3B
100
AcDbMaterial
  1
ByBlock
 73
     1
 78
     1
172
     1
176
     1
270
     1
274
     1
  0
MATERIAL
  5
3C
102
{ACAD_REACTORS
330
3B
102
}
330
3B
100
AcDbMaterial
  1
ByLayer
 73
     1
 78
     1
172
     1
176
     1
270
     1
274
     1
  0
MATERIAL
  5
3E
102
{ACAD_REACTORS
330
3B
102
}
330
3B
100
AcDbMaterial
  1
Global
 73
     1
 78
     1
172
     1
176
     1
270
     1
274
     1
  0
MLEADERSTYLE
  5
19B
102
{ACAD_XDICTIONARY
360
2B3
102
}
102
{ACAD_REACTORS
330
18D
102
}
330
18D
100
AcDbMLeaderStyle
179
     2
170
     2
171
     1
172
     0
 90
        2
 40
0.0
 41
0.0
173
     1
 91
-1056964608
340
14
 92
       -2
290
     1
 42
2.0
291
     1
 43
0.36
  3
Standard
 44
4.0
300

342
11
174
     1
178
     6
175
     1
176
     0
 93
-1056964608
 45
4.0
292
     0
297
     0
 46
4.0
 94
-1056964608
 47
1.0
 49
1.0
140
1.0
293
     1
141
0.0
294
     1
177
     0
142
1.0
295
     0
296
     0
143
0.125
271
     0
272
     9
273
     9
  0
MLINESTYLE
  5
18
102
{ACAD_REACTORS
330
17
102
}
330
17
100
AcDbMlineStyle
  2
STANDARD
 70
     0
  3

 62
   256
 51
90.0
 52
90.0
 71
     2
 49
0.5
 62
   256
  6
BYLAYER
 49
-0.5
 62
   256
  6
BYLAYER
  0
ACDBPLACEHOLDER
  5
F
102
{ACAD_REACTORS
330
E
102
}
330
E
  0
SCALE
  5
78
102
{ACAD_REACTORS
330
77
102
}
330
77
100
AcDbScale
 70
     0
300
1:1
140
1.0
141
1.0
290
     1
  0
SCALE
  5
79
102
{ACAD_REACTORS
330
77
102
}
330
77
100
AcDbScale
 70
     0
300
1:2
140
1.0
141
2.0
290
     0
  0
SCALE
  5
7A
102
{ACAD_REACTORS
330
77
102
}
330
77
100
AcDbScale
 70
     0
300
1:4
140
1.0
141
4.0
290
     0
  0
SCALE
  5
7B
102
{ACAD_REACTORS
330
77
102
}
330
77
100
AcDbScale
 70
     0
300
1:5
140
1.0
141
5.0
290
     0
  0
SCALE
  5
7C
102
{ACAD_REACTORS
330
77
102
}
330
77
100
AcDbScale
 70
     0
300
1:8
140
1.0
141
8.0
290
     0
  0
SCALE
  5
7D
102
{ACAD_REACTORS
330
77
102
}
330
77
100
AcDbScale
 70
     0
300
1:10
140
1.0
141
10.0
290
     0
  0
SCALE
  5
7E
102
{ACAD_REACTORS
330
77
102
}
330
77
100
AcDbScale
 70
     0
300
1:16
140
1.0
141
16.0
290
     0
  0
SCALE
  5
7F
102
{ACAD_REACTORS
330
77
102
}
330
77
100
AcDbScale
 70
     0
300
1:20
140
1.0
141
20.0
290
     0
  0
SCALE
  5
80
102
{ACAD_REACTORS
330
77
102
}
330
77
100
AcDbScale
 70
     0
300
1:30
140
1.0
141
30.0
290
     0
  0
SCALE
  5
81
102
{ACAD_REACTORS
330
77
102
}
330
77
100
AcDbScale
 70
     0
300
1:40
140
1.0
141
40.0
290
     0
  0
SCALE
  5
82
102
{ACAD_REACTORS
330
77
102
}
330
77
100
AcDbScale
 70
     0
300
1:50
140
1.0
141
50.0
290
     0
  0
SCALE
  5
83
102
{ACAD_REACTORS
330
77
102
}
330
77
100
AcDbScale
 70
     0
300
1:100
140
1.0
141
100.0
290
     0
  0
SCALE
  5
84
102
{ACAD_REACTORS
330
77
102
}
330
77
100
AcDbScale
 70
     0
300
2:1
140
2.0
141
1.0
290
     0
  0
SCALE
  5
85
102
{ACAD_REACTORS
330
77
102
}
330
77
100
AcDbScale
 70
     0
300
4:1
140
4.0
141
1.0
290
     0
  0
SCALE
  5
86
102
{ACAD_REACTORS
330
77
102
}
330
77
100
AcDbScale
 70
     0
300
8:1
140
8.0
141
1.0
290
     0
  0
SCALE
  5
87
102
{ACAD_REACTORS
330
77
102
}
330
77
100
AcDbScale
 70
     0
300
10:1
140
10.0
141
1.0
290
     0
  0
SCALE
  5
88
102
{ACAD_REACTORS
330
77
102
}
330
77
100
AcDbScale
 70
     0
300
100:1
140
100.0
141
1.0
290
     0
  0
SCALE
  5
89
102
{ACAD_REACTORS
330
77
102
}
330
77
100
AcDbScale
 70
     0
300
1/128" = 1'-0"
140
0.0078125
141
12.0
290
     0
  0
SCALE
  5
8A
102
{ACAD_REACTORS
330
77
102
}
330
77
100
AcDbScale
 70
     0
300
1/64" = 1'-0"
140
0.015625
141
12.0
290
     0
  0
SCALE
  5
8B
102
{ACAD_REACTORS
330
77
102
}
330
77
100
AcDbScale
 70
     0
300
1/32" = 1'-0"
140
0.03125
141
12.0
290
     0
  0
SCALE
  5
8C
102
{ACAD_REACTORS
330
77
102
}
330
77
100
AcDbScale
 70
     0
300
1/16" = 1'-0"
140
0.0625
141
12.0
290
     0
  0
SCALE
  5
8D
102
{ACAD_REACTORS
330
77
102
}
330
77
100
AcDbScale
 70
     0
300
3/32" = 1'-0"
140
0.09375
141
12.0
290
     0
  0
SCALE
  5
8E
102
{ACAD_REACTORS
330
77
102
}
330
77
100
AcDbScale
 70
     0
300
1/8" = 1'-0"
140
0.125
141
12.0
290
     0
  0
SCALE
  5
8F
102
{ACAD_REACTORS
330
77
102
}
330
77
100
AcDbScale
 70
     0
300
3/16" = 1'-0"
140
0.1875
141
12.0
290
     0
  0
SCALE
  5
90
102
{ACAD_REACTORS
330
77
102
}
330
77
100
AcDbScale
 70
     0
300
1/4" = 1'-0"
140
0.25
141
12.0
290
     0
  0
SCALE
  5
91
102
{ACAD_REACTORS
330
77
102
}
330
77
100
AcDbScale
 70
     0
300
3/8" = 1'-0"
140
0.375
141
12.0
290
     0
  0
SCALE
  5
92
102
{ACAD_REACTORS
330
77
102
}
330
77
100
AcDbScale
 70
     0
300
1/2" = 1'-0"
140
0.5
141
12.0
290
     0
  0
SCALE
  5
93
102
{ACAD_REACTORS
330
77
102
}
330
77
100
AcDbScale
 70
     0
300
3/4" = 1'-0"
140
0.75
141
12.0
290
     0
  0
SCALE
  5
94
102
{ACAD_REACTORS
330
77
102
}
330
77
100
AcDbScale
 70
     0
300
1" = 1'-0"
140
1.0
141
12.0
290
     0
  0
SCALE
  5
95
102
{ACAD_REACTORS
330
77
102
}
330
77
100
AcDbScale
 70
     0
300
1-1/2" = 1'-0"
140
1.5
141
12.0
290
     0
  0
SCALE
  5
96
102
{ACAD_REACTORS
330
77
102
}
330
77
100
AcDbScale
 70
     0
300
3" = 1'-0"
140
3.0
141
12.0
290
     0
  0
SCALE
  5
97
102
{ACAD_REACTORS
330
77
102
}
330
77
100
AcDbScale
 70
     0
300
6" = 1'-0"
140
6.0
141
12.0
290
     0
  0
SCALE
  5
98
102
{ACAD_REACTORS
330
77
102
}
330
77
100
AcDbScale
 70
     0
300
1'-0" = 1'-0"
140
12.0
141
12.0
290
     0
  0
ACDBSECTIONVIEWSTYLE
  5
19D
102
{ACAD_XDICTIONARY
360
2B5
102
}
102
{ACAD_REACTORS
330
19C
102
}
330
19C
100
AcDbModelDocViewStyle
 70
     0
  3
Metric50
290
     0
100
AcDbSectionViewStyle
 70
     0
 71
     0
 90
      102
 71
     1
340
11
 62
   256
 40
5.0
340
0
340
0
 62
   256
 40
5.0
300
I, O, Q, S, X, Z
 40
10.0
 90
        0
 40
2.5
 90
        0
 71
     2
340
16
 90
       25
 62
   256
340
16
 90
       50
 62
   256
 40
5.0
 40
2.5
 40
5.0
 71
     3
340
11
 62
   256
 40
5.0
 90
        0
 40
15.0
 90
        1
300
%<\AcVar ViewSectionStartId>%-%<\AcVar ViewSectionEndId>% (%<\AcVar ViewScale \f "%sn">%)
 71
     4
 62
   256
 62
   257
300
ANSI31
 40
1.0
 90
        0
290
     0
290
     0
 90
        6
 40
0.0
 40
1.570796326794896
 40
0.2617993877991494
 40
1.308996938995747
 40
-0.2617993877991494
 40
1.832595714594046
  0
TABLESTYLE
  5
19A
102
{ACAD_XDICTIONARY
360
274
102
}
102
{ACAD_REACTORS
330
18C
102
}
330
18C
100
AcDbTableStyle
280
     0
  3
Standard
 70
     0
 71
     0
 40
1.5
 41
1.5
280
     0
281
     0
  7
Standard
140
4.5
170
     2
 62
     0
 63
     7
283
     0
 90
      512
 91
        0
  1

274
    -2
284
     1
 64
     0
275
    -2
285
     1
 65
     0
276
    -2
286
     1
 66
     0
277
    -2
287
     1
 67
     0
278
    -2
288
     1
 68
     0
279
    -2
289
     1
 69
     0
  7
Standard
140
6.0
170
     5
 62
     0
 63
     7
283
     0
 90
      512
 91
        0
  1

274
    -2
284
     1
 64
     0
275
    -2
285
     1
 65
     0
276
    -2
286
     1
 66
     0
277
    -2
287
     1
 67
     0
278
    -2
288
     1
 68
     0
279
    -2
289
     1
 69
     0
  7
Standard
140
4.5
170
     5
 62
     0
 63
     7
283
     0
 90
      512
 91
        0
  1

274
    -2
284
     1
 64
     0
275
    -2
285
     1
 65
     0
276
    -2
286
     1
 66
     0
277
    -2
287
     1
 67
     0
278
    -2
288
     1
 68
     0
279
    -2
289
     1
 69
     0
  0
VISUALSTYLE
  5
2F
102
{ACAD_XDICTIONARY
360
287
102
}
102
{ACAD_REACTORS
330
2A
102
}
330
2A
100
AcDbVisualStyle
  2
2dWireframe
 70
     4
177
     2
291
     0
 71
     0
176
     1
 72
     2
176
     1
 73
     0
176
     1
 90
        0
176
     1
 40
0.6
176
     1
 41
30.0
176
     1
 63
     7
421
 16777215
176
     1
 74
     1
176
     1
 91
        4
176
     1
 64
     7
176
     1
 65
   257
176
     1
 75
     1
176
     1
175
     1
176
     1
 42
1.0
176
     1
 92
        0
176
     1
 66
   257
176
     1
 43
1.0
176
     1
 76
     1
176
     1
 77
     6
176
     1
 78
     2
176
     1
 67
     7
176
     1
 79
     5
176
     1
170
     0
176
     1
171
     0
176
     1
290
     0
176
     1
 93
        1
176
     1
 44
0.0
176
     1
173
     0
176
     1
1001
ACAD
1000
AcDbSavedByObjectVersion
1070
     0
  0
VISUALSTYLE
  5
31
102
{ACAD_XDICTIONARY
360
28B
102
}
102
{ACAD_REACTORS
330
2A
102
}
330
2A
100
AcDbVisualStyle
  2
3D Hidden
 70
     6
177
     2
291
     0
 71
     1
176
     1
 72
     2
176
     1
 73
     2
176
     1
 90
        0
176
     1
 40
0.6
176
     1
 41
30.0
176
     1
 63
     7
421
 16777215
176
     1
 74
     2
176
     1
 91
        2
176
     1
 64
     7
176
     1
 65
   257
176
     1
 75
     2
176
     1
175
     1
176
     1
 42
40.0
176
     1
 92
        0
176
     1
 66
   257
176
     1
 43
1.0
176
     1
 76
     1
176
     1
 77
     6
176
     1
 78
     2
176
     1
 67
     7
176
     1
 79
     3
176
     1
170
     0
176
     1
171
     0
176
     1
290
     0
176
     1
 93
        1
176
     1
 44
0.0
176
     1
173
     0
176
     1
1001
ACAD
1000
AcDbSavedByObjectVersion
1070
     0
  0
VISUALSTYLE
  5
30
102
{ACAD_XDICTIONARY
360
289
102
}
102
{ACAD_REACTORS
330
2A
102
}
330
2A
100
AcDbVisualStyle
  2
3dWireframe
 70
     5
177
     2
291
     0
 71
     0
176
     1
 72
     2
176
     1
 73
     0
176
     1
 90
        0
176
     1
 40
0.6
176
     1
 41
30.0
176
     1
 63
     7
421
 16777215
176
     1
 74
     1
176
     1
 91
        4
176
     1
 64
     7
176
     1
 65
   257
176
     1
 75
     1
176
     1
175
     1
176
     1
 42
1.0
176
     1
 92
        0
176
     1
 66
   257
176
     1
 43
1.0
176
     1
 76
     1
176
     1
 77
     6
176
     1
 78
     2
176
     1
 67
     7
176
     1
 79
     5
176
     1
170
     0
176
     1
171
     0
176
     1
290
     0
176
     1
 93
        1
176
     1
 44
0.0
176
     1
173
     0
176
     1
1001
ACAD
1000
AcDbSavedByObjectVersion
1070
     0
  0
VISUALSTYLE
  5
32
102
{ACAD_XDICTIONARY
360
28D
102
}
102
{ACAD_REACTORS
330
2A
102
}
330
2A
100
AcDbVisualStyle
  2
Basic
 70
     7
177
     2
291
     1
 71
     1
176
     1
 72
     0
176
     1
 73
     1
176
     1
 90
        0
176
     1
 40
0.6
176
     1
 41
30.0
176
     1
 63
     7
421
 16777215
176
     1
 74
     0
176
     1
 91
        4
176
     1
 64
     7
176
     1
 65
   257
176
     1
 75
     1
176
     1
175
     1
176
     1
 42
1.0
176
     1
 92
        8
176
     1
 66
     7
176
     1
 43
1.0
176
     1
 76
     1
176
     1
 77
     6
176
     1
 78
     2
176
     1
 67
     7
176
     1
 79
     5
176
     1
170
     0
176
     1
171
     0
176
     1
290
     0
176
     1
 93
        1
176
     1
 44
0.0
176
     1
173
     0
176
     1
1001
ACAD
1000
AcDbSavedByObjectVersion
1070
     0
  0
VISUALSTYLE
  5
36
102
{ACAD_XDICTIONARY
360
295
102
}
102
{ACAD_REACTORS
330
2A
102
}
330
2A
100
AcDbVisualStyle
  2
Brighten
 70
    12
177
     2
291
     1
 71
     2
176
     1
 72
     2
176
     1
 73
     0
176
     1
 90
        0
176
     1
 40
0.6
176
     1
 41
30.0
176
     1
 63
     7
421
 16777215
176
     1
 74
     1
176
     1
 91
        4
176
     1
 64
     7
176
     1
 65
   257
176
     1
 75
     1
176
     1
175
     1
176
     1
 42
1.0
176
     1
 92
        8
176
     1
 66
     7
176
     1
 43
1.0
176
     1
 76
     1
176
     1
 77
     6
176
     1
 78
     2
176
     1
 67
     7
176
     1
 79
     5
176
     1
170
     0
176
     1
171
     0
176
     1
290
     0
176
     1
 93
        1
176
     1
 44
50.0
176
     1
173
     0
176
     1
1001
ACAD
1000
AcDbSavedByObjectVersion
1070
     0
  0
VISUALSTYLE
  5
3A
102
{ACAD_XDICTIONARY
360
29D
102
}
102
{ACAD_REACTORS
330
2A
102
}
330
2A
100
AcDbVisualStyle
  2
ColorChange
 70
    16
177
     2
291
     1
 71
     2
176
     1
 72
     2
176
     1
 73
     3
176
     1
 90
        0
176
     1
 40
0.6
176
     1
 41
30.0
176
     1
 63
     8
421
  8421504
176
     1
 74
     1
176
     1
 91
        4
176
     1
 64
     7
176
     1
 65
   257
176
     1
 75
     1
176
     1
175
     1
176
     1
 42
1.0
176
     1
 92
        8
176
     1
 66
     8
424
  8421504
176
     1
 43
1.0
176
     1
 76
     1
176
     1
 77
     6
176
     1
 78
     2
176
     1
 67
     7
176
     1
 79
     5
176
     1
170
     0
176
     1
171
     0
176
     1
290
     0
176
     1
 93
        1
176
     1
 44
0.0
176
     1
173
     0
176
     1
1001
ACAD
1000
AcDbSavedByObjectVersion
1070
     0
  0
VISUALSTYLE
  5
34
102
{ACAD_XDICTIONARY
360
291
102
}
102
{ACAD_REACTORS
330
2A
102
}
330
2A
100
AcDbVisualStyle
  2
Conceptual
 70
     9
177
     2
291
     0
 71
     3
176
     1
 72
     2
176
     1
 73
     0
176
     1
 90
        0
176
     1
 40
0.6
176
     1
 41
30.0
176
     1
 63
     7
421
 16777215
176
     1
 74
     2
176
     1
 91
        2
176
     1
 64
     7
176
     1
 65
   257
176
     1
 75
     1
176
     1
175
     1
176
     1
 42
40.0
176
     1
 92
        8
176
     1
 66
     7
176
     1
 43
1.0
176
     1
 76
     1
176
     1
 77
     6
176
     1
 78
     2
176
     1
 67
     7
176
     1
 79
     3
176
     1
170
     0
176
     1
171
     0
176
     1
290
     0
176
     1
 93
        1
176
     1
 44
0.0
176
     1
173
     0
176
     1
1001
ACAD
1000
AcDbSavedByObjectVersion
1070
     0
  0
VISUALSTYLE
  5
35
102
{ACAD_XDICTIONARY
360
293
102
}
102
{ACAD_REACTORS
330
2A
102
}
330
2A
100
AcDbVisualStyle
  2
Dim
 70
    11
177
     2
291
     1
 71
     2
176
     1
 72
     2
176
     1
 73
     0
176
     1
 90
        0
176
     1
 40
0.6
176
     1
 41
30.0
176
     1
 63
     7
421
 16777215
176
     1
 74
     1
176
     1
 91
        4
176
     1
 64
     7
176
     1
 65
   257
176
     1
 75
     1
176
     1
175
     1
176
     1
 42
1.0
176
     1
 92
        8
176
     1
 66
     7
176
     1
 43
1.0
176
     1
 76
     1
176
     1
 77
     6
176
     1
 78
     2
176
     1
 67
     7
176
     1
 79
     5
176
     1
170
     0
176
     1
171
     0
176
     1
290
     0
176
     1
 93
        1
176
     1
 44
-50.0
176
     1
173
     0
176
     1
1001
ACAD
1000
AcDbSavedByObjectVersion
1070
     0
  0
VISUALSTYLE
  5
198
102
{ACAD_XDICTIONARY
360
2B1
102
}
102
{ACAD_REACTORS
330
2A
102
}
330
2A
100
AcDbVisualStyle
  2
EdgeColorOff
 70
    22
177
     2
291
     1
 71
     2
176
     0
 72
     2
176
     0
 73
     0
176
     0
 90
        0
176
     0
 40
0.6
176
     0
 41
30.0
176
     0
 63
     7
421
 16777215
176
     0
 74
     1
176
     0
 91
        4
176
     0
 64
     7
176
     0
 65
   257
176
     0
 75
     1
176
     0
175
     1
176
     0
 42
1.0
176
     0
 92
        8
176
     2
 66
     7
176
     0
 43
1.0
176
     0
 76
     1
176
     0
 77
     6
176
     0
 78
     2
176
     0
 67
     7
176
     0
 79
     5
176
     0
170
     0
176
     0
171
     0
176
     0
290
     0
176
     0
 93
        1
176
     0
 44
0.0
176
     0
173
     0
176
     0
1001
ACAD
1000
AcDbSavedByObjectVersion
1070
     0
  0
VISUALSTYLE
  5
39
102
{ACAD_XDICTIONARY
360
29B
102
}
102
{ACAD_REACTORS
330
2A
102
}
330
2A
100
AcDbVisualStyle
  2
Facepattern
 70
    15
177
     2
291
     1
 71
     2
176
     1
 72
     2
176
     1
 73
     0
176
     1
 90
        0
176
     1
 40
0.6
176
     1
 41
30.0
176
     1
 63
     7
421
 16777215
176
     1
 74
     1
176
     1
 91
        4
176
     1
 64
     7
176
     1
 65
   257
176
     1
 75
     1
176
     1
175
     1
176
     1
 42
1.0
176
     1
 92
        8
176
     1
 66
     7
176
     1
 43
1.0
176
     1
 76
     1
176
     1
 77
     6
176
     1
 78
     2
176
     1
 67
     7
176
     1
 79
     5
176
     1
170
     0
176
     1
171
     0
176
     1
290
     0
176
     1
 93
        1
176
     1
 44
0.0
176
     1
173
     0
176
     1
1001
ACAD
1000
AcDbSavedByObjectVersion
1070
     0
  0
VISUALSTYLE
  5
2B
102
{ACAD_XDICTIONARY
360
27F
102
}
102
{ACAD_REACTORS
330
2A
102
}
330
2A
100
AcDbVisualStyle
  2
Flat
 70
     0
177
     2
291
     1
 71
     2
176
     1
 72
     1
176
     1
 73
     1
176
     1
 90
        2
176
     1
 40
0.6
176
     1
 41
30.0
176
     1
 63
     7
421
 16777215
176
     1
 74
     0
176
     1
 91
        4
176
     1
 64
     7
176
     1
 65
   257
176
     1
 75
     1
176
     1
175
     1
176
     1
 42
1.0
176
     1
 92
        8
176
     1
 66
     7
176
     1
 43
1.0
176
     1
 76
     1
176
     1
 77
     6
176
     1
 78
     2
176
     1
 67
     7
176
     1
 79
     5
176
     1
170
     0
176
     1
171
     0
176
     1
290
     0
176
     1
 93
       13
176
     1
 44
0.0
176
     1
173
     0
176
     1
1001
ACAD
1000
AcDbSavedByObjectVersion
1070
     0
  0
VISUALSTYLE
  5
2C
102
{ACAD_XDICTIONARY
360
281
102
}
102
{ACAD_REACTORS
330
2A
102
}
330
2A
100
AcDbVisualStyle
  2
FlatWithEdges
 70
     1
177
     2
291
     1
 71
     2
176
     1
 72
     1
176
     1
 73
     1
176
     1
 90
        2
176
     1
 40
0.6
176
     1
 41
30.0
176
     1
 63
     7
421
 16777215
176
     1
 74
     1
176
     1
 91
        4
176
     1
 64
     7
176
     1
 65
   257
176
     1
 75
     1
176
     1
175
     1
176
     1
 42
1.0
176
     1
 92
        0
176
     1
 66
   257
176
     1
 43
1.0
176
     1
 76
     1
176
     1
 77
     6
176
     1
 78
     2
176
     1
 67
     7
176
     1
 79
     5
176
     1
170
     0
176
     1
171
     0
176
     1
290
     0
176
     1
 93
       13
176
     1
 44
0.0
176
     1
173
     0
176
     1
1001
ACAD
1000
AcDbSavedByObjectVersion
1070
     0
  0
VISUALSTYLE
  5
2D
102
{ACAD_XDICTIONARY
360
283
102
}
102
{ACAD_REACTORS
330
2A
102
}
330
2A
100
AcDbVisualStyle
  2
Gouraud
 70
     2
177
     2
291
     1
 71
     2
176
     1
 72
     2
176
     1
 73
     1
176
     1
 90
        2
176
     1
 40
0.6
176
     1
 41
30.0
176
     1
 63
     7
421
 16777215
176
     1
 74
     0
176
     1
 91
        4
176
     1
 64
     7
176
     1
 65
   257
176
     1
 75
     1
176
     1
175
     1
176
     1
 42
1.0
176
     1
 92
        0
176
     1
 66
     7
176
     1
 43
1.0
176
     1
 76
     1
176
     1
 77
     6
176
     1
 78
     2
176
     1
 67
     7
176
     1
 79
     5
176
     1
170
     0
176
     1
171
     0
176
     1
290
     0
176
     1
 93
       13
176
     1
 44
0.0
176
     1
173
     0
176
     1
1001
ACAD
1000
AcDbSavedByObjectVersion
1070
     0
  0
VISUALSTYLE
  5
2E
102
{ACAD_XDICTIONARY
360
285
102
}
102
{ACAD_REACTORS
330
2A
102
}
330
2A
100
AcDbVisualStyle
  2
GouraudWithEdges
 70
     3
177
     2
291
     1
 71
     2
176
     1
 72
     2
176
     1
 73
     1
176
     1
 90
        2
176
     1
 40
0.6
176
     1
 41
30.0
176
     1
 63
     7
421
 16777215
176
     1
 74
     1
176
     1
 91
        4
176
     1
 64
     7
176
     1
 65
   257
176
     1
 75
     1
176
     1
175
     1
176
     1
 42
1.0
176
     1
 92
        0
176
     1
 66
   257
176
     1
 43
1.0
176
     1
 76
     1
176
     1
 77
     6
176
     1
 78
     2
176
     1
 67
     7
176
     1
 79
     5
176
     1
170
     0
176
     1
171
     0
176
     1
290
     0
176
     1
 93
       13
176
     1
 44
0.0
176
     1
173
     0
176
     1
1001
ACAD
1000
AcDbSavedByObjectVersion
1070
     0
  0
VISUALSTYLE
  5
190
102
{ACAD_XDICTIONARY
360
2A1
102
}
102
{ACAD_REACTORS
330
2A
102
}
330
2A
100
AcDbVisualStyle
  2
Hidden
 70
     6
177
     2
291
     0
 71
     1
176
     1
 72
     2
176
     1
 73
     2
176
     1
 90
        0
176
     1
 40
0.6
176
     1
 41
30.0
176
     1
 63
     7
421
 16777215
176
     1
 74
     2
176
     1
 91
        2
176
     1
 64
     7
176
     1
 65
   257
176
     1
 75
     2
176
     1
175
     1
176
     1
 42
40.0
176
     1
 92
        0
176
     1
 66
   257
176
     1
 43
1.0
176
     1
 76
     1
176
     1
 77
     6
176
     1
 78
     2
176
     1
 67
     7
176
     1
 79
     3
176
     1
170
     0
176
     1
171
     0
176
     1
290
     0
176
     1
 93
        1
176
     1
 44
0.0
176
     1
173
     0
176
     1
1001
ACAD
1000
AcDbSavedByObjectVersion
1070
     0
  0
VISUALSTYLE
  5
196
102
{ACAD_XDICTIONARY
360
2AD
102
}
102
{ACAD_REACTORS
330
2A
102
}
330
2A
100
AcDbVisualStyle
  2
JitterOff
 70
    20
177
     2
291
     1
 71
     2
176
     0
 72
     2
176
     0
 73
     0
176
     0
 90
        0
176
     0
 40
0.6
176
     0
 41
30.0
176
     0
 63
     7
421
 16777215
176
     0
 74
     1
176
     0
 91
        4
176
     0
 64
     7
176
     0
 65
   257
176
     0
 75
     1
176
     0
175
     1
176
     0
 42
1.0
176
     0
 92
       10
176
     2
 66
     7
176
     0
 43
1.0
176
     0
 76
     1
176
     0
 77
     6
176
     0
 78
     2
176
     0
 67
     7
176
     0
 79
     5
176
     0
170
     0
176
     0
171
     0
176
     0
290
     0
176
     0
 93
        1
176
     0
 44
0.0
176
     0
173
     0
176
     0
1001
ACAD
1000
AcDbSavedByObjectVersion
1070
     0
  0
VISUALSTYLE
  5
38
102
{ACAD_XDICTIONARY
360
299
102
}
102
{ACAD_REACTORS
330
2A
102
}
330
2A
100
AcDbVisualStyle
  2
Linepattern
 70
    14
177
     2
291
     1
 71
     2
176
     1
 72
     2
176
     1
 73
     0
176
     1
 90
        0
176
     1
 40
0.6
176
     1
 41
30.0
176
     1
 63
     7
421
 16777215
176
     1
 74
     1
176
     1
 91
        4
176
     1
 64
     7
176
     1
 65
   257
176
     1
 75
     7
176
     1
175
     7
176
     1
 42
1.0
176
     1
 92
        8
176
     1
 66
     7
176
     1
 43
1.0
176
     1
 76
     1
176
     1
 77
     6
176
     1
 78
     2
176
     1
 67
     7
176
     1
 79
     5
176
     1
170
     0
176
     1
171
     0
176
     1
290
     0
176
     1
 93
        1
176
     1
 44
0.0
176
     1
173
     0
176
     1
1001
ACAD
1000
AcDbSavedByObjectVersion
1070
     0
  0
VISUALSTYLE
  5
197
102
{ACAD_XDICTIONARY
360
2AF
102
}
102
{ACAD_REACTORS
330
2A
102
}
330
2A
100
AcDbVisualStyle
  2
OverhangOff
 70
    21
177
     2
291
     1
 71
     2
176
     0
 72
     2
176
     0
 73
     0
176
     0
 90
        0
176
     0
 40
0.6
176
     0
 41
30.0
176
     0
 63
     7
421
 16777215
176
     0
 74
     1
176
     0
 91
        4
176
     0
 64
     7
176
     0
 65
   257
176
     0
 75
     1
176
     0
175
     1
176
     0
 42
1.0
176
     0
 92
        9
176
     2
 66
     7
176
     0
 43
1.0
176
     0
 76
     1
176
     0
 77
     6
176
     0
 78
     2
176
     0
 67
     7
176
     0
 79
     5
176
     0
170
     0
176
     0
171
     0
176
     0
290
     0
176
     0
 93
        1
176
     0
 44
0.0
176
     0
173
     0
176
     0
1001
ACAD
1000
AcDbSavedByObjectVersion
1070
     0
  0
VISUALSTYLE
  5
33
102
{ACAD_XDICTIONARY
360
28F
102
}
102
{ACAD_REACTORS
330
2A
102
}
330
2A
100
AcDbVisualStyle
  2
Realistic
 70
     8
177
     2
291
     0
 71
     2
176
     1
 72
     2
176
     1
 73
     0
176
     1
 90
        0
176
     1
 40
0.6
176
     1
 41
30.0
176
     1
 63
     7
421
 16777215
176
     1
 74
     1
176
     1
 91
        0
176
     1
 64
     7
176
     1
 65
   257
176
     1
 75
     1
176
     1
175
     1
176
     1
 42
1.0
176
     1
 92
        8
176
     1
 66
     8
424
  7895160
176
     1
 43
1.0
176
     1
 76
     1
176
     1
 77
     6
176
     1
 78
     2
176
     1
 67
     7
176
     1
 79
     5
176
     1
170
     0
176
     1
171
     0
176
     1
290
     0
176
     1
 93
       13
176
     1
 44
0.0
176
     1
173
     0
176
     1
1001
ACAD
1000
AcDbSavedByObjectVersion
1070
     0
  0
VISUALSTYLE
  5
195
102
{ACAD_XDICTIONARY
360
2AB
102
}
102
{ACAD_REACTORS
330
2A
102
}
330
2A
100
AcDbVisualStyle
  2
Shaded
 70
    27
177
     2
291
     0
 71
     2
176
     1
 72
     2
176
     1
 73
     1
176
     1
 90
        2
176
     1
 40
0.6
176
     1
 41
30.0
176
     1
 63
     7
421
 16777215
176
     1
 74
     0
176
     1
 91
        4
176
     1
 64
     7
176
     1
 65
   257
176
     1
 75
     1
176
     1
175
     1
176
     1
 42
1.0
176
     1
 92
        8
176
     1
 66
   257
176
     1
 43
1.0
176
     1
 76
     1
176
     1
 77
     6
176
     1
 78
     2
176
     1
 67
     8
425
  7895160
176
     1
 79
     3
176
     1
170
     0
176
     1
171
     0
176
     1
290
     0
176
     1
 93
        5
176
     1
 44
0.0
176
     1
173
     0
176
     1
1001
ACAD
1000
AcDbSavedByObjectVersion
1070
     0
  0
VISUALSTYLE
  5
194
102
{ACAD_XDICTIONARY
360
2A9
102
}
102
{ACAD_REACTORS
330
2A
102
}
330
2A
100
AcDbVisualStyle
  2
Shaded with edges
 70
    26
177
     2
291
     0
 71
     2
176
     1
 72
     2
176
     1
 73
     1
176
     1
 90
        2
176
     1
 40
0.6
176
     1
 41
30.0
176
     1
 63
     7
421
 16777215
176
     1
 74
     1
176
     1
 91
        2
176
     1
 64
     7
176
     1
 65
   257
176
     1
 75
     2
176
     1
175
     1
176
     1
 42
1.0
176
     1
 92
        8
176
     1
 66
   257
176
     1
 43
1.0
176
     1
 76
     1
176
     1
 77
     6
176
     1
 78
     2
176
     1
 67
     7
176
     1
 79
     3
176
     1
170
     0
176
     1
171
     0
176
     1
290
     0
176
     1
 93
        5
176
     1
 44
0.0
176
     1
173
     0
176
     1
1001
ACAD
1000
AcDbSavedByObjectVersion
1070
     0
  0
VISUALSTYLE
  5
191
102
{ACAD_XDICTIONARY
360
2A3
102
}
102
{ACAD_REACTORS
330
2A
102
}
330
2A
100
AcDbVisualStyle
  2
Shades of Gray
 70
    23
177
     2
291
     0
 71
     2
176
     1
 72
     2
176
     1
 73
     3
176
     1
 90
        0
176
     1
 40
0.6
176
     1
 41
30.0
176
     1
 63
     7
421
 16777215
176
     1
 74
     2
176
     1
 91
        2
176
     1
 64
     7
176
     1
 65
     7
176
     1
 75
     1
176
     1
175
     1
176
     1
 42
40.0
176
     1
 92
        8
176
     1
 66
     7
176
     1
 43
1.0
176
     1
 76
     1
176
     1
 77
     6
176
     1
 78
     2
176
     1
 67
     7
176
     1
 79
     3
176
     1
170
     0
176
     1
171
     0
176
     1
290
     0
176
     1
 93
        1
176
     1
 44
0.0
176
     1
173
     0
176
     1
1001
ACAD
1000
AcDbSavedByObjectVersion
1070
     0
  0
VISUALSTYLE
  5
192
102
{ACAD_XDICTIONARY
360
2A5
102
}
102
{ACAD_REACTORS
330
2A
102
}
330
2A
100
AcDbVisualStyle
  2
Sketchy
 70
    24
177
     2
291
     0
 71
     1
176
     1
 72
     2
176
     1
 73
     2
176
     1
 90
        0
176
     1
 40
0.6
176
     1
 41
30.0
176
     1
 63
     7
421
 16777215
176
     1
 74
     2
176
     1
 91
        2
176
     1
 64
     7
176
     1
 65
     7
176
     1
 75
     1
176
     1
175
     1
176
     1
 42
40.0
176
     1
 92
       11
176
     1
 66
     7
176
     1
 43
1.0
176
     1
 76
     1
176
     1
 77
     6
176
     1
 78
     2
176
     1
 67
     7
176
     1
 79
     6
176
     1
170
     0
176
     1
171
     0
176
     1
290
     0
176
     1
 93
        1
176
     1
 44
0.0
176
     1
173
     0
176
     1
1001
ACAD
1000
AcDbSavedByObjectVersion
1070
     0
  0
VISUALSTYLE
  5
37
102
{ACAD_XDICTIONARY
360
297
102
}
102
{ACAD_REACTORS
330
2A
102
}
330
2A
100
AcDbVisualStyle
  2
Thicken
 70
    13
177
     2
291
     1
 71
     2
176
     1
 72
     2
176
     1
 73
     0
176
     1
 90
        0
176
     1
 40
0.6
176
     1
 41
30.0
176
     1
 63
     7
421
 16777215
176
     1
 74
     1
176
     1
 91
        4
176
     1
 64
     7
176
     1
 65
   257
176
     1
 75
     1
176
     1
175
     1
176
     1
 42
1.0
176
     1
 92
       12
176
     1
 66
     7
176
     1
 43
1.0
176
     1
 76
     1
176
     1
 77
     6
176
     1
 78
     2
176
     1
 67
     7
176
     1
 79
     5
176
     1
170
     0
176
     1
171
     0
176
     1
290
     0
176
     1
 93
        1
176
     1
 44
0.0
176
     1
173
     0
176
     1
1001
ACAD
1000
AcDbSavedByObjectVersion
1070
     0
  0
VISUALSTYLE
  5
18F
102
{ACAD_XDICTIONARY
360
29F
102
}
102
{ACAD_REACTORS
330
2A
102
}
330
2A
100
AcDbVisualStyle
  2
Wireframe
 70
     5
177
     2
291
     0
 71
     0
176
     1
 72
     2
176
     1
 73
     0
176
     1
 90
        0
176
     1
 40
0.6
176
     1
 41
30.0
176
     1
 63
     7
421
 16777215
176
     1
 74
     1
176
     1
 91
        4
176
     1
 64
     7
176
     1
 65
   257
176
     1
 75
     1
176
     1
175
     1
176
     1
 42
1.0
176
     1
 92
        0
176
     1
 66
   257
176
     1
 43
1.0
176
     1
 76
     1
176
     1
 77
     6
176
     1
 78
     2
176
     1
 67
     7
176
     1
 79
     3
176
     1
170
     0
176
     1
171
     0
176
     1
290
     0
176
     1
 93
        1
176
     1
 44
0.0
176
     1
173
     0
176
     1
1001
ACAD
1000
AcDbSavedByObjectVersion
1070
     0
  0
VISUALSTYLE
  5
193
102
{ACAD_XDICTIONARY
360
2A7
102
}
102
{ACAD_REACTORS
330
2A
102
}
330
2A
100
AcDbVisualStyle
  2
X-Ray
 70
    25
177
     2
291
     0
 71
     2
176
     1
 72
     2
176
     1
 73
     1
176
     1
 90
        1
176
     1
 40
0.5
176
     1
 41
30.0
176
     1
 63
     7
421
 16777215
176
     1
 74
     1
176
     1
 91
        0
176
     1
 64
     7
176
     1
 65
   257
176
     1
 75
     1
176
     1
175
     1
176
     1
 42
1.0
176
     1
 92
        8
176
     1
 66
     7
176
     1
 43
1.0
176
     1
 76
     1
176
     1
 77
     6
176
     1
 78
     2
176
     1
 67
     7
176
     1
 79
     3
176
     1
170
     0
176
     1
171
     0
176
     1
290
     0
176
     1
 93
       13
176
     1
 44
0.0
176
     1
173
     0
176
     1
1001
ACAD
1000
AcDbSavedByObjectVersion
1070
     0
  0
DICTIONARYVAR
  5
18B
102
{ACAD_REACTORS
330
18A
102
}
330
18A
100
DictionaryVariables
280
     0
  1
1:1
  0
DICTIONARYVAR
  5
271
102
{ACAD_REACTORS
330
18A
102
}
330
18A
100
DictionaryVariables
280
     0
  1
STANDARD
  0
DICTIONARYVAR
  5
270
102
{ACAD_REACTORS
330
18A
102
}
330
18A
100
DictionaryVariables
280
     0
  1
STANDARD
  0
DICTIONARYVAR
  5
272
102
{ACAD_REACTORS
330
18A
102
}
330
18A
100
DictionaryVariables
280
     0
  1
Metric50
  0
DICTIONARYVAR
  5
273
102
{ACAD_REACTORS
330
18A
102
}
330
18A
100
DictionaryVariables
280
     0
  1
Metric50
  0
DICTIONARY
  5
27E
102
{ACAD_REACTORS
330
27C
102
}
330
27C
100
AcDbDictionary
281
     1
  0
DICTIONARY
  5
27D
102
{ACAD_REACTORS
330
27C
102
}
330
27C
100
AcDbDictionary
281
     1
  3
2673773898224
350
277
  3
2673773898240
350
278
  3
2673773898256
350
279
  3
2673773898272
350
27A
  3
2673773898288
350
27B
  0
DICTIONARY
  5
2B7
330
19F
100
AcDbDictionary
280
     1
281
     1
  3
ACAD_XREC_ROUNDTRIP
360
2B8
  0
DICTIONARY
  5
2B3
330
19B
100
AcDbDictionary
280
     1
281
     1
  3
ACAD_XREC_ROUNDTRIP
360
2B4
  0
DICTIONARY
  5
2B5
330
19D
100
AcDbDictionary
280
     1
281
     1
  3
ACAD_XREC_ROUNDTRIP
360
2B6
  0
DICTIONARY
  5
274
330
19A
100
AcDbDictionary
280
     1
281
     1
  3
ACAD_ROUNDTRIP_2008_TABLESTYLE_CELLSTYLEMAP
360
275
  0
DICTIONARY
  5
287
330
2F
100
AcDbDictionary
280
     1
281
     1
  3
ACAD_XREC_ROUNDTRIP
360
288
  0
DICTIONARY
  5
28B
330
31
100
AcDbDictionary
280
     1
281
     1
  3
ACAD_XREC_ROUNDTRIP
360
28C
  0
DICTIONARY
  5
289
330
30
100
AcDbDictionary
280
     1
281
     1
  3
ACAD_XREC_ROUNDTRIP
360
28A
  0
DICTIONARY
  5
28D
330
32
100
AcDbDictionary
280
     1
281
     1
  3
ACAD_XREC_ROUNDTRIP
360
28E
  0
DICTIONARY
  5
295
330
36
100
AcDbDictionary
280
     1
281
     1
  3
ACAD_XREC_ROUNDTRIP
360
296
  0
DICTIONARY
  5
29D
330
3A
100
AcDbDictionary
280
     1
281
     1
  3
ACAD_XREC_ROUNDTRIP
360
29E
  0
DICTIONARY
  5
291
330
34
100
AcDbDictionary
280
     1
281
     1
  3
ACAD_XREC_ROUNDTRIP
360
292
  0
DICTIONARY
  5
293
330
35
100
AcDbDictionary
280
     1
281
     1
  3
ACAD_XREC_ROUNDTRIP
360
294
  0
DICTIONARY
  5
2B1
330
198
100
AcDbDictionary
280
     1
281
     1
  3
ACAD_XREC_ROUNDTRIP
360
2B2
  0
DICTIONARY
  5
29B
330
39
100
AcDbDictionary
280
     1
281
     1
  3
ACAD_XREC_ROUNDTRIP
360
29C
  0
DICTIONARY
  5
27F
330
2B
100
AcDbDictionary
280
     1
281
     1
  3
ACAD_XREC_ROUNDTRIP
360
280
  0
DICTIONARY
  5
281
330
2C
100
AcDbDictionary
280
     1
281
     1
  3
ACAD_XREC_ROUNDTRIP
360
282
  0
DICTIONARY
  5
283
330
2D
100
AcDbDictionary
280
     1
281
     1
  3
ACAD_XREC_ROUNDTRIP
360
284
  0
DICTIONARY
  5
285
330
2E
100
AcDbDictionary
280
     1
281
     1
  3
ACAD_XREC_ROUNDTRIP
360
286
  0
DICTIONARY
  5
2A1
330
190
100
AcDbDictionary
280
     1
281
     1
  3
ACAD_XREC_ROUNDTRIP
360
2A2
  0
DICTIONARY
  5
2AD
330
196
100
AcDbDictionary
280
     1
281
     1
  3
ACAD_XREC_ROUNDTRIP
360
2AE
  0
DICTIONARY
  5
299
330
38
100
AcDbDictionary
280
     1
281
     1
  3
ACAD_XREC_ROUNDTRIP
360
29A
  0
DICTIONARY
  5
2AF
330
197
100
AcDbDictionary
280
     1
281
     1
  3
ACAD_XREC_ROUNDTRIP
360
2B0
  0
DICTIONARY
  5
28F
330
33
100
AcDbDictionary
280
     1
281
     1
  3
ACAD_XREC_ROUNDTRIP
360
290
  0
DICTIONARY
  5
2AB
330
195
100
AcDbDictionary
280
     1
281
     1
  3
ACAD_XREC_ROUNDTRIP
360
2AC
  0
DICTIONARY
  5
2A9
330
194
100
AcDbDictionary
280
     1
281
     1
  3
ACAD_XREC_ROUNDTRIP
360
2AA
  0
DICTIONARY
  5
2A3
330
191
100
AcDbDictionary
280
     1
281
     1
  3
ACAD_XREC_ROUNDTRIP
360
2A4
  0
DICTIONARY
  5
2A5
330
192
100
AcDbDictionary
280
     1
281
     1
  3
ACAD_XREC_ROUNDTRIP
360
2A6
  0
DICTIONARY
  5
297
330
37
100
AcDbDictionary
280
     1
281
     1
  3
ACAD_XREC_ROUNDTRIP
360
298
  0
DICTIONARY
  5
29F
330
18F
100
AcDbDictionary
280
     1
281
     1
  3
ACAD_XREC_ROUNDTRIP
360
2A0
  0
DICTIONARY
  5
2A7
330
193
100
AcDbDictionary
280
     1
281
     1
  3
ACAD_XREC_ROUNDTRIP
360
2A8
  0
XRECORD
  5
277
102
{ACAD_REACTORS
330
27D
102
}
330
27D
100
AcDbXrecord
280
     1
  1
AcDb_Thumbnail_Schema
102
{ATTRRECORD
341
278
  2
AcDbDs::TreatedAsObjectData
280
     1
291
     1
102
ATTRRECORD}
102
{ATTRRECORD
341
279
  2
AcDbDs::Legacy
280
     1
291
     1
102
ATTRRECORD}
  2
AcDbDs::ID
280
    10
 91
        8
102
{ATTRRECORD
341
27A
  2
AcDs:Indexable
280
     1
291
     1
102
ATTRRECORD}
102
{ATTRRECORD
341
27B
  2
AcDbDs::HandleAttribute
280
     7
282
     1
102
ATTRRECORD}
  2
Thumbnail_Data
280
    15
 91
        0
  0
XRECORD
  5
278
102
{ACAD_REACTORS
330
27D
102
}
330
27D
100
AcDbXrecord
280
     1
  1
AcDbDs::TreatedAsObjectDataSchema
  2
AcDbDs::TreatedAsObjectData
280
     1
 91
        0
  0
XRECORD
  5
279
102
{ACAD_REACTORS
330
27D
102
}
330
27D
100
AcDbXrecord
280
     1
  1
AcDbDs::LegacySchema
  2
AcDbDs::Legacy
280
     1
 91
        0
  0
XRECORD
  5
27A
102
{ACAD_REACTORS
330
27D
102
}
330
27D
100
AcDbXrecord
280
     1
  1
AcDbDs::IndexedPropertySchema
  2
AcDs:Indexable
280
     1
 91
        0
  0
XRECORD
  5
27B
102
{ACAD_REACTORS
330
27D
102
}
330
27D
100
AcDbXrecord
280
     1
  1
AcDbDs::HandleAttributeSchema
  2
AcDbDs::HandleAttribute
280
     7
 91
        1
284
     1
  0
XRECORD
  5
2B8
102
{ACAD_REACTORS
330
2B7
102
}
330
2B7
100
AcDbXrecord
280
     1
102
DISPLAYNAME
  1
Metric50
102
FLAGS
 90
        0
  0
XRECORD
  5
2B4
102
{ACAD_REACTORS
330
2B3
102
}
330
2B3
100
AcDbXrecord
280
     1
102
ACAD_ROUNDTRIP_2012_MLEADER_STYLE
298
     1
  0
XRECORD
  5
2B6
102
{ACAD_REACTORS
330
2B5
102
}
330
2B5
100
AcDbXrecord
280
     1
102
DISPLAYNAME
  1
Metric50
102
FLAGS
 90
        0
  0
CELLSTYLEMAP
  5
275
102
{ACAD_REACTORS
330
274
102
}
330
274
100
AcDbCellStyleMap
 90
        3
300
CELLSTYLE
  1
TABLEFORMAT_BEGIN
 90
        5
170
     1
 91
        0
 92
    32768
 62
   257
 93
        1
300
CONTENTFORMAT
  1
CONTENTFORMAT_BEGIN
 90
        0
 91
        0
 92
      512
 93
        0
300

 40
0.0
140
1.0
 94
        5
 62
     0
340
11
144
6.0
309
CONTENTFORMAT_END
171
     1
301
MARGIN
  1
CELLMARGIN_BEGIN
 40
1.5
 40
1.5
 40
1.5
 40
1.5
 40
4.5
 40
4.5
309
CELLMARGIN_END
 94
        6
 95
        1
302
GRIDFORMAT
  1
GRIDFORMAT_BEGIN
 90
        0
 91
        1
 62
     0
 92
       -2
340
0
 93
        0
 40
1.125
309
GRIDFORMAT_END
 95
        2
302
GRIDFORMAT
  1
GRIDFORMAT_BEGIN
 90
        0
 91
        1
 62
     0
 92
       -2
340
0
 93
        0
 40
1.125
309
GRIDFORMAT_END
 95
        4
302
GRIDFORMAT
  1
GRIDFORMAT_BEGIN
 90
        0
 91
        1
 62
     0
 92
       -2
340
0
 93
        0
 40
1.125
309
GRIDFORMAT_END
 95
        8
302
GRIDFORMAT
  1
GRIDFORMAT_BEGIN
 90
        0
 91
        1
 62
     0
 92
       -2
340
0
 93
        0
 40
1.125
309
GRIDFORMAT_END
 95
       16
302
GRIDFORMAT
  1
GRIDFORMAT_BEGIN
 90
        0
 91
        1
 62
     0
 92
       -2
340
0
 93
        0
 40
1.125
309
GRIDFORMAT_END
 95
       32
302
GRIDFORMAT
  1
GRIDFORMAT_BEGIN
 90
        0
 91
        1
 62
     0
 92
       -2
340
0
 93
        0
 40
1.125
309
GRIDFORMAT_END
309
TABLEFORMAT_END
  1
CELLSTYLE_BEGIN
 90
        1
 91
        1
300
_TITLE
309
CELLSTYLE_END
300
CELLSTYLE
  1
TABLEFORMAT_BEGIN
 90
        5
170
     1
 91
        0
 92
        0
 62
   257
 93
        1
300
CONTENTFORMAT
  1
CONTENTFORMAT_BEGIN
 90
        0
 91
        0
 92
      512
 93
        0
300

 40
0.0
140
1.0
 94
        5
 62
     0
340
11
144
4.5
309
CONTENTFORMAT_END
171
     1
301
MARGIN
  1
CELLMARGIN_BEGIN
 40
1.5
 40
1.5
 40
1.5
 40
1.5
 40
4.5
 40
4.5
309
CELLMARGIN_END
 94
        6
 95
        1
302
GRIDFORMAT
  1
GRIDFORMAT_BEGIN
 90
        0
 91
        1
 62
     0
 92
       -2
340
0
 93
        0
 40
1.125
309
GRIDFORMAT_END
 95
        2
302
GRIDFORMAT
  1
GRIDFORMAT_BEGIN
 90
        0
 91
        1
 62
     0
 92
       -2
340
0
 93
        0
 40
1.125
309
GRIDFORMAT_END
 95
        4
302
GRIDFORMAT
  1
GRIDFORMAT_BEGIN
 90
        0
 91
        1
 62
     0
 92
       -2
340
0
 93
        0
 40
1.125
309
GRIDFORMAT_END
 95
        8
302
GRIDFORMAT
  1
GRIDFORMAT_BEGIN
 90
        0
 91
        1
 62
     0
 92
       -2
340
0
 93
        0
 40
1.125
309
GRIDFORMAT_END
 95
       16
302
GRIDFORMAT
  1
GRIDFORMAT_BEGIN
 90
        0
 91
        1
 62
     0
 92
       -2
340
0
 93
        0
 40
1.125
309
GRIDFORMAT_END
 95
       32
302
GRIDFORMAT
  1
GRIDFORMAT_BEGIN
 90
        0
 91
        1
 62
     0
 92
       -2
340
0
 93
        0
 40
1.125
309
GRIDFORMAT_END
309
TABLEFORMAT_END
  1
CELLSTYLE_BEGIN
 90
        2
 91
        1
300
_HEADER
309
CELLSTYLE_END
300
CELLSTYLE
  1
TABLEFORMAT_BEGIN
 90
        5
170
     1
 91
        0
 92
        0
 62
   257
 93
        1
300
CONTENTFORMAT
  1
CONTENTFORMAT_BEGIN
 90
        0
 91
        0
 92
      512
 93
        0
300

 40
0.0
140
1.0
 94
        2
 62
     0
340
11
144
4.5
309
CONTENTFORMAT_END
171
     1
301
MARGIN
  1
CELLMARGIN_BEGIN
 40
1.5
 40
1.5
 40
1.5
 40
1.5
 40
4.5
 40
4.5
309
CELLMARGIN_END
 94
        6
 95
        1
302
GRIDFORMAT
  1
GRIDFORMAT_BEGIN
 90
        0
 91
        1
 62
     0
 92
       -2
340
0
 93
        0
 40
1.125
309
GRIDFORMAT_END
 95
        2
302
GRIDFORMAT
  1
GRIDFORMAT_BEGIN
 90
        0
 91
        1
 62
     0
 92
       -2
340
0
 93
        0
 40
1.125
309
GRIDFORMAT_END
 95
        4
302
GRIDFORMAT
  1
GRIDFORMAT_BEGIN
 90
        0
 91
        1
 62
     0
 92
       -2
340
0
 93
        0
 40
1.125
309
GRIDFORMAT_END
 95
        8
302
GRIDFORMAT
  1
GRIDFORMAT_BEGIN
 90
        0
 91
        1
 62
     0
 92
       -2
340
0
 93
        0
 40
1.125
309
GRIDFORMAT_END
 95
       16
302
GRIDFORMAT
  1
GRIDFORMAT_BEGIN
 90
        0
 91
        1
 62
     0
 92
       -2
340
0
 93
        0
 40
1.125
309
GRIDFORMAT_END
 95
       32
302
GRIDFORMAT
  1
GRIDFORMAT_BEGIN
 90
        0
 91
        1
 62
     0
 92
       -2
340
0
 93
        0
 40
1.125
309
GRIDFORMAT_END
309
TABLEFORMAT_END
  1
CELLSTYLE_BEGIN
 90
        3
 91
        2
300
_DATA
309
CELLSTYLE_END
  0
XRECORD
  5
288
102
{ACAD_REACTORS
330
287
102
}
330
287
100
AcDbXrecord
280
     1
102
RTVSPost2010Prop28
280
     1
102
RTVSPost2010PropOp28
 70
     1
102
RTVSPost2010Prop29
280
     1
102
RTVSPost2010PropOp29
 70
     1
102
RTVSPost2010Prop30
280
     0
102
RTVSPost2010PropOp30
 70
     1
102
RTVSPost2010Prop31
280
     0
102
RTVSPost2010PropOp31
 70
     1
102
RTVSPost2010Prop32
280
     0
102
RTVSPost2010PropOp32
 70
     1
102
RTVSPost2010Prop33
280
     0
102
RTVSPost2010PropOp33
 70
     1
102
RTVSPost2010Prop34
280
     0
102
RTVSPost2010PropOp34
 70
     1
102
RTVSPost2010Prop35
280
     0
102
RTVSPost2010PropOp35
 70
     1
102
RTVSPost2010Prop36
280
     0
102
RTVSPost2010PropOp36
 70
     1
102
RTVSPost2010Prop37
 90
       50
102
RTVSPost2010PropOp37
 70
     1
102
RTVSPost2010Prop38
140
0.0
102
RTVSPost2010PropOp38
 70
     1
102
RTVSPost2010Prop39
140
1.0
102
RTVSPost2010PropOp39
 70
     1
102
RTVSPost2010Prop40
 90
        0
102
RTVSPost2010PropOp40
 70
     1
102
RTVSPost2010Prop41ColorIndex
 90
       18
102
RTVSPost2010Prop41ColorRGB
 90
        0
102
RTVSPost2010PropOp41
 70
     1
102
RTVSPost2010Prop42
 90
       50
102
RTVSPost2010PropOp42
 70
     1
102
RTVSPost2010Prop43
 90
        3
102
RTVSPost2010PropOp43
 70
     1
102
RTVSPost2010Prop44ColorIndex
 90
        5
102
RTVSPost2010Prop44ColorRGB
 90
      255
102
RTVSPost2010PropOp44
 70
     1
102
RTVSPost2010Prop45
280
     0
102
RTVSPost2010PropOp45
 70
     1
102
RTVSPost2010Prop46
 90
       50
102
RTVSPost2010PropOp46
 70
     1
102
RTVSPost2010Prop47
 90
       50
102
RTVSPost2010PropOp47
 70
     1
102
RTVSPost2010Prop48
 90
       50
102
RTVSPost2010PropOp48
 70
     1
102
RTVSPost2010Prop49
280
     0
102
RTVSPost2010PropOp49
 70
     1
102
RTVSPost2010Prop50
 90
       50
102
RTVSPost2010PropOp50
 70
     1
102
RTVSPost2010Prop51ColorIndex
 90
      256
102
RTVSPost2010Prop51ColorRGB
 90
-16777216
102
RTVSPost2010PropOp51
 70
     0
102
RTVSPost2010Prop52
140
1.0
102
RTVSPost2010PropOp52
 70
     0
102
RTVSPost2010Prop53
 90
        2
102
RTVSPost2010PropOp53
 70
     1
102
RTVSPost2010Prop54
  1
strokes_ogs.tif
102
RTVSPost2010PropOp54
 70
     1
102
RTVSPost2010Prop55
280
     0
102
RTVSPost2010PropOp55
 70
     1
102
RTVSPost2010Prop56
140
1.0
102
RTVSPost2010PropOp56
 70
     1
102
RTVSPost2010Prop57
140
1.0
102
RTVSPost2010PropOp57
 70
     1
  0
XRECORD
  5
28C
102
{ACAD_REACTORS
330
28B
102
}
330
28B
100
AcDbXrecord
280
     1
102
RTVSPost2010Prop28
280
     0
102
RTVSPost2010PropOp28
 70
     1
102
RTVSPost2010Prop29
280
     1
102
RTVSPost2010PropOp29
 70
     1
102
RTVSPost2010Prop30
280
     1
102
RTVSPost2010PropOp30
 70
     1
102
RTVSPost2010Prop31
280
     0
102
RTVSPost2010PropOp31
 70
     1
102
RTVSPost2010Prop32
280
     0
102
RTVSPost2010PropOp32
 70
     1
102
RTVSPost2010Prop33
280
     0
102
RTVSPost2010PropOp33
 70
     1
102
RTVSPost2010Prop34
280
     0
102
RTVSPost2010PropOp34
 70
     1
102
RTVSPost2010Prop35
280
     0
102
RTVSPost2010PropOp35
 70
     1
102
RTVSPost2010Prop36
280
     0
102
RTVSPost2010PropOp36
 70
     1
102
RTVSPost2010Prop37
 90
       50
102
RTVSPost2010PropOp37
 70
     1
102
RTVSPost2010Prop38
140
0.0
102
RTVSPost2010PropOp38
 70
     1
102
RTVSPost2010Prop39
140
1.0
102
RTVSPost2010PropOp39
 70
     1
102
RTVSPost2010Prop40
 90
        0
102
RTVSPost2010PropOp40
 70
     1
102
RTVSPost2010Prop41ColorIndex
 90
       18
102
RTVSPost2010Prop41ColorRGB
 90
        0
102
RTVSPost2010PropOp41
 70
     1
102
RTVSPost2010Prop42
 90
       50
102
RTVSPost2010PropOp42
 70
     1
102
RTVSPost2010Prop43
 90
        3
102
RTVSPost2010PropOp43
 70
     1
102
RTVSPost2010Prop44ColorIndex
 90
        5
102
RTVSPost2010Prop44ColorRGB
 90
      255
102
RTVSPost2010PropOp44
 70
     1
102
RTVSPost2010Prop45
280
     0
102
RTVSPost2010PropOp45
 70
     1
102
RTVSPost2010Prop46
 90
       50
102
RTVSPost2010PropOp46
 70
     1
102
RTVSPost2010Prop47
 90
       50
102
RTVSPost2010PropOp47
 70
     1
102
RTVSPost2010Prop48
 90
       50
102
RTVSPost2010PropOp48
 70
     1
102
RTVSPost2010Prop49
280
     0
102
RTVSPost2010PropOp49
 70
     1
102
RTVSPost2010Prop50
 90
       50
102
RTVSPost2010PropOp50
 70
     1
102
RTVSPost2010Prop51ColorIndex
 90
      256
102
RTVSPost2010Prop51ColorRGB
 90
-16777216
102
RTVSPost2010PropOp51
 70
     0
102
RTVSPost2010Prop52
140
1.0
102
RTVSPost2010PropOp52
 70
     0
102
RTVSPost2010Prop53
 90
        2
102
RTVSPost2010PropOp53
 70
     1
102
RTVSPost2010Prop54
  1
strokes_ogs.tif
102
RTVSPost2010PropOp54
 70
     1
102
RTVSPost2010Prop55
280
     0
102
RTVSPost2010PropOp55
 70
     1
102
RTVSPost2010Prop56
140
1.0
102
RTVSPost2010PropOp56
 70
     1
102
RTVSPost2010Prop57
140
1.0
102
RTVSPost2010PropOp57
 70
     1
  0
XRECORD
  5
28A
102
{ACAD_REACTORS
330
289
102
}
330
289
100
AcDbXrecord
280
     1
102
RTVSPost2010Prop28
280
     0
102
RTVSPost2010PropOp28
 70
     1
102
RTVSPost2010Prop29
280
     1
102
RTVSPost2010PropOp29
 70
     1
102
RTVSPost2010Prop30
280
     1
102
RTVSPost2010PropOp30
 70
     1
102
RTVSPost2010Prop31
280
     0
102
RTVSPost2010PropOp31
 70
     1
102
RTVSPost2010Prop32
280
     0
102
RTVSPost2010PropOp32
 70
     1
102
RTVSPost2010Prop33
280
     0
102
RTVSPost2010PropOp33
 70
     1
102
RTVSPost2010Prop34
280
     0
102
RTVSPost2010PropOp34
 70
     1
102
RTVSPost2010Prop35
280
     0
102
RTVSPost2010PropOp35
 70
     1
102
RTVSPost2010Prop36
280
     0
102
RTVSPost2010PropOp36
 70
     1
102
RTVSPost2010Prop37
 90
       50
102
RTVSPost2010PropOp37
 70
     1
102
RTVSPost2010Prop38
140
0.0
102
RTVSPost2010PropOp38
 70
     1
102
RTVSPost2010Prop39
140
1.0
102
RTVSPost2010PropOp39
 70
     1
102
RTVSPost2010Prop40
 90
        0
102
RTVSPost2010PropOp40
 70
     1
102
RTVSPost2010Prop41ColorIndex
 90
       18
102
RTVSPost2010Prop41ColorRGB
 90
        0
102
RTVSPost2010PropOp41
 70
     1
102
RTVSPost2010Prop42
 90
       50
102
RTVSPost2010PropOp42
 70
     1
102
RTVSPost2010Prop43
 90
        3
102
RTVSPost2010PropOp43
 70
     1
102
RTVSPost2010Prop44ColorIndex
 90
        5
102
RTVSPost2010Prop44ColorRGB
 90
      255
102
RTVSPost2010PropOp44
 70
     1
102
RTVSPost2010Prop45
280
     0
102
RTVSPost2010PropOp45
 70
     1
102
RTVSPost2010Prop46
 90
       50
102
RTVSPost2010PropOp46
 70
     1
102
RTVSPost2010Prop47
 90
       50
102
RTVSPost2010PropOp47
 70
     1
102
RTVSPost2010Prop48
 90
       50
102
RTVSPost2010PropOp48
 70
     1
102
RTVSPost2010Prop49
280
     0
102
RTVSPost2010PropOp49
 70
     1
102
RTVSPost2010Prop50
 90
       50
102
RTVSPost2010PropOp50
 70
     1
102
RTVSPost2010Prop51ColorIndex
 90
      256
102
RTVSPost2010Prop51ColorRGB
 90
-16777216
102
RTVSPost2010PropOp51
 70
     0
102
RTVSPost2010Prop52
140
1.0
102
RTVSPost2010PropOp52
 70
     0
102
RTVSPost2010Prop53
 90
        2
102
RTVSPost2010PropOp53
 70
     1
102
RTVSPost2010Prop54
  1
strokes_ogs.tif
102
RTVSPost2010PropOp54
 70
     1
102
RTVSPost2010Prop55
280
     0
102
RTVSPost2010PropOp55
 70
     1
102
RTVSPost2010Prop56
140
1.0
102
RTVSPost2010PropOp56
 70
     1
102
RTVSPost2010Prop57
140
1.0
102
RTVSPost2010PropOp57
 70
     1
  0
XRECORD
  5
28E
102
{ACAD_REACTORS
330
28D
102
}
330
28D
100
AcDbXrecord
280
     1
102
RTVSPost2010Prop28
280
     0
102
RTVSPost2010PropOp28
 70
     1
102
RTVSPost2010Prop29
280
     1
102
RTVSPost2010PropOp29
 70
     1
102
RTVSPost2010Prop30
280
     1
102
RTVSPost2010PropOp30
 70
     1
102
RTVSPost2010Prop31
280
     0
102
RTVSPost2010PropOp31
 70
     1
102
RTVSPost2010Prop32
280
     0
102
RTVSPost2010PropOp32
 70
     1
102
RTVSPost2010Prop33
280
     0
102
RTVSPost2010PropOp33
 70
     1
102
RTVSPost2010Prop34
280
     0
102
RTVSPost2010PropOp34
 70
     1
102
RTVSPost2010Prop35
280
     0
102
RTVSPost2010PropOp35
 70
     1
102
RTVSPost2010Prop36
280
     0
102
RTVSPost2010PropOp36
 70
     1
102
RTVSPost2010Prop37
 90
       50
102
RTVSPost2010PropOp37
 70
     1
102
RTVSPost2010Prop38
140
0.0
102
RTVSPost2010PropOp38
 70
     1
102
RTVSPost2010Prop39
140
1.0
102
RTVSPost2010PropOp39
 70
     1
102
RTVSPost2010Prop40
 90
        0
102
RTVSPost2010PropOp40
 70
     1
102
RTVSPost2010Prop41ColorIndex
 90
       18
102
RTVSPost2010Prop41ColorRGB
 90
        0
102
RTVSPost2010PropOp41
 70
     1
102
RTVSPost2010Prop42
 90
       50
102
RTVSPost2010PropOp42
 70
     1
102
RTVSPost2010Prop43
 90
        3
102
RTVSPost2010PropOp43
 70
     1
102
RTVSPost2010Prop44ColorIndex
 90
        5
102
RTVSPost2010Prop44ColorRGB
 90
      255
102
RTVSPost2010PropOp44
 70
     1
102
RTVSPost2010Prop45
280
     0
102
RTVSPost2010PropOp45
 70
     1
102
RTVSPost2010Prop46
 90
       50
102
RTVSPost2010PropOp46
 70
     1
102
RTVSPost2010Prop47
 90
       50
102
RTVSPost2010PropOp47
 70
     1
102
RTVSPost2010Prop48
 90
       50
102
RTVSPost2010PropOp48
 70
     1
102
RTVSPost2010Prop49
280
     0
102
RTVSPost2010PropOp49
 70
     1
102
RTVSPost2010Prop50
 90
       50
102
RTVSPost2010PropOp50
 70
     1
102
RTVSPost2010Prop51ColorIndex
 90
      256
102
RTVSPost2010Prop51ColorRGB
 90
-16777216
102
RTVSPost2010PropOp51
 70
     0
102
RTVSPost2010Prop52
140
1.0
102
RTVSPost2010PropOp52
 70
     0
102
RTVSPost2010Prop53
 90
        2
102
RTVSPost2010PropOp53
 70
     1
102
RTVSPost2010Prop54
  1
strokes_ogs.tif
102
RTVSPost2010PropOp54
 70
     1
102
RTVSPost2010Prop55
280
     0
102
RTVSPost2010PropOp55
 70
     1
102
RTVSPost2010Prop56
140
1.0
102
RTVSPost2010PropOp56
 70
     1
102
RTVSPost2010Prop57
140
1.0
102
RTVSPost2010PropOp57
 70
     1
  0
XRECORD
  5
296
102
{ACAD_REACTORS
330
295
102
}
330
295
100
AcDbXrecord
280
     1
102
RTVSPost2010Prop28
280
     0
102
RTVSPost2010PropOp28
 70
     1
102
RTVSPost2010Prop29
280
     1
102
RTVSPost2010PropOp29
 70
     1
102
RTVSPost2010Prop30
280
     1
102
RTVSPost2010PropOp30
 70
     1
102
RTVSPost2010Prop31
280
     0
102
RTVSPost2010PropOp31
 70
     1
102
RTVSPost2010Prop32
280
     0
102
RTVSPost2010PropOp32
 70
     1
102
RTVSPost2010Prop33
280
     0
102
RTVSPost2010PropOp33
 70
     1
102
RTVSPost2010Prop34
280
     0
102
RTVSPost2010PropOp34
 70
     1
102
RTVSPost2010Prop35
280
     0
102
RTVSPost2010PropOp35
 70
     1
102
RTVSPost2010Prop36
280
     0
102
RTVSPost2010PropOp36
 70
     1
102
RTVSPost2010Prop37
 90
       50
102
RTVSPost2010PropOp37
 70
     1
102
RTVSPost2010Prop38
140
0.0
102
RTVSPost2010PropOp38
 70
     1
102
RTVSPost2010Prop39
140
1.0
102
RTVSPost2010PropOp39
 70
     1
102
RTVSPost2010Prop40
 90
        0
102
RTVSPost2010PropOp40
 70
     1
102
RTVSPost2010Prop41ColorIndex
 90
       18
102
RTVSPost2010Prop41ColorRGB
 90
        0
102
RTVSPost2010PropOp41
 70
     1
102
RTVSPost2010Prop42
 90
       50
102
RTVSPost2010PropOp42
 70
     1
102
RTVSPost2010Prop43
 90
        3
102
RTVSPost2010PropOp43
 70
     1
102
RTVSPost2010Prop44ColorIndex
 90
        5
102
RTVSPost2010Prop44ColorRGB
 90
      255
102
RTVSPost2010PropOp44
 70
     1
102
RTVSPost2010Prop45
280
     0
102
RTVSPost2010PropOp45
 70
     1
102
RTVSPost2010Prop46
 90
       50
102
RTVSPost2010PropOp46
 70
     1
102
RTVSPost2010Prop47
 90
       50
102
RTVSPost2010PropOp47
 70
     1
102
RTVSPost2010Prop48
 90
       50
102
RTVSPost2010PropOp48
 70
     1
102
RTVSPost2010Prop49
280
     0
102
RTVSPost2010PropOp49
 70
     1
102
RTVSPost2010Prop50
 90
       50
102
RTVSPost2010PropOp50
 70
     1
102
RTVSPost2010Prop51ColorIndex
 90
      256
102
RTVSPost2010Prop51ColorRGB
 90
-16777216
102
RTVSPost2010PropOp51
 70
     0
102
RTVSPost2010Prop52
140
1.0
102
RTVSPost2010PropOp52
 70
     0
102
RTVSPost2010Prop53
 90
        2
102
RTVSPost2010PropOp53
 70
     1
102
RTVSPost2010Prop54
  1
strokes_ogs.tif
102
RTVSPost2010PropOp54
 70
     1
102
RTVSPost2010Prop55
280
     0
102
RTVSPost2010PropOp55
 70
     1
102
RTVSPost2010Prop56
140
1.0
102
RTVSPost2010PropOp56
 70
     1
102
RTVSPost2010Prop57
140
1.0
102
RTVSPost2010PropOp57
 70
     1
  0
XRECORD
  5
29E
102
{ACAD_REACTORS
330
29D
102
}
330
29D
100
AcDbXrecord
280
     1
102
RTVSPost2010Prop28
280
     0
102
RTVSPost2010PropOp28
 70
     1
102
RTVSPost2010Prop29
280
     1
102
RTVSPost2010PropOp29
 70
     1
102
RTVSPost2010Prop30
280
     1
102
RTVSPost2010PropOp30
 70
     1
102
RTVSPost2010Prop31
280
     0
102
RTVSPost2010PropOp31
 70
     1
102
RTVSPost2010Prop32
280
     0
102
RTVSPost2010PropOp32
 70
     1
102
RTVSPost2010Prop33
280
     0
102
RTVSPost2010PropOp33
 70
     1
102
RTVSPost2010Prop34
280
     0
102
RTVSPost2010PropOp34
 70
     1
102
RTVSPost2010Prop35
280
     0
102
RTVSPost2010PropOp35
 70
     1
102
RTVSPost2010Prop36
280
     0
102
RTVSPost2010PropOp36
 70
     1
102
RTVSPost2010Prop37
 90
       50
102
RTVSPost2010PropOp37
 70
     1
102
RTVSPost2010Prop38
140
0.0
102
RTVSPost2010PropOp38
 70
     1
102
RTVSPost2010Prop39
140
1.0
102
RTVSPost2010PropOp39
 70
     1
102
RTVSPost2010Prop40
 90
        0
102
RTVSPost2010PropOp40
 70
     1
102
RTVSPost2010Prop41ColorIndex
 90
       18
102
RTVSPost2010Prop41ColorRGB
 90
        0
102
RTVSPost2010PropOp41
 70
     1
102
RTVSPost2010Prop42
 90
       50
102
RTVSPost2010PropOp42
 70
     1
102
RTVSPost2010Prop43
 90
        3
102
RTVSPost2010PropOp43
 70
     1
102
RTVSPost2010Prop44ColorIndex
 90
        5
102
RTVSPost2010Prop44ColorRGB
 90
      255
102
RTVSPost2010PropOp44
 70
     1
102
RTVSPost2010Prop45
280
     0
102
RTVSPost2010PropOp45
 70
     1
102
RTVSPost2010Prop46
 90
       50
102
RTVSPost2010PropOp46
 70
     1
102
RTVSPost2010Prop47
 90
       50
102
RTVSPost2010PropOp47
 70
     1
102
RTVSPost2010Prop48
 90
       50
102
RTVSPost2010PropOp48
 70
     1
102
RTVSPost2010Prop49
280
     0
102
RTVSPost2010PropOp49
 70
     1
102
RTVSPost2010Prop50
 90
       50
102
RTVSPost2010PropOp50
 70
     1
102
RTVSPost2010Prop51ColorIndex
 90
      256
102
RTVSPost2010Prop51ColorRGB
 90
-16777216
102
RTVSPost2010PropOp51
 70
     0
102
RTVSPost2010Prop52
140
1.0
102
RTVSPost2010PropOp52
 70
     0
102
RTVSPost2010Prop53
 90
        2
102
RTVSPost2010PropOp53
 70
     1
102
RTVSPost2010Prop54
  1
strokes_ogs.tif
102
RTVSPost2010PropOp54
 70
     1
102
RTVSPost2010Prop55
280
     0
102
RTVSPost2010PropOp55
 70
     1
102
RTVSPost2010Prop56
140
1.0
102
RTVSPost2010PropOp56
 70
     1
102
RTVSPost2010Prop57
140
1.0
102
RTVSPost2010PropOp57
 70
     1
  0
XRECORD
  5
292
102
{ACAD_REACTORS
330
291
102
}
330
291
100
AcDbXrecord
280
     1
102
RTVSPost2010Prop28
280
     0
102
RTVSPost2010PropOp28
 70
     1
102
RTVSPost2010Prop29
280
     1
102
RTVSPost2010PropOp29
 70
     1
102
RTVSPost2010Prop30
280
     1
102
RTVSPost2010PropOp30
 70
     1
102
RTVSPost2010Prop31
280
     0
102
RTVSPost2010PropOp31
 70
     1
102
RTVSPost2010Prop32
280
     0
102
RTVSPost2010PropOp32
 70
     1
102
RTVSPost2010Prop33
280
     0
102
RTVSPost2010PropOp33
 70
     1
102
RTVSPost2010Prop34
280
     0
102
RTVSPost2010PropOp34
 70
     1
102
RTVSPost2010Prop35
280
     0
102
RTVSPost2010PropOp35
 70
     1
102
RTVSPost2010Prop36
280
     0
102
RTVSPost2010PropOp36
 70
     1
102
RTVSPost2010Prop37
 90
       50
102
RTVSPost2010PropOp37
 70
     1
102
RTVSPost2010Prop38
140
0.0
102
RTVSPost2010PropOp38
 70
     1
102
RTVSPost2010Prop39
140
1.0
102
RTVSPost2010PropOp39
 70
     1
102
RTVSPost2010Prop40
 90
        0
102
RTVSPost2010PropOp40
 70
     1
102
RTVSPost2010Prop41ColorIndex
 90
       18
102
RTVSPost2010Prop41ColorRGB
 90
        0
102
RTVSPost2010PropOp41
 70
     1
102
RTVSPost2010Prop42
 90
       50
102
RTVSPost2010PropOp42
 70
     1
102
RTVSPost2010Prop43
 90
        3
102
RTVSPost2010PropOp43
 70
     1
102
RTVSPost2010Prop44ColorIndex
 90
        5
102
RTVSPost2010Prop44ColorRGB
 90
      255
102
RTVSPost2010PropOp44
 70
     1
102
RTVSPost2010Prop45
280
     0
102
RTVSPost2010PropOp45
 70
     1
102
RTVSPost2010Prop46
 90
       50
102
RTVSPost2010PropOp46
 70
     1
102
RTVSPost2010Prop47
 90
       50
102
RTVSPost2010PropOp47
 70
     1
102
RTVSPost2010Prop48
 90
       50
102
RTVSPost2010PropOp48
 70
     1
102
RTVSPost2010Prop49
280
     0
102
RTVSPost2010PropOp49
 70
     1
102
RTVSPost2010Prop50
 90
       50
102
RTVSPost2010PropOp50
 70
     1
102
RTVSPost2010Prop51ColorIndex
 90
      256
102
RTVSPost2010Prop51ColorRGB
 90
-16777216
102
RTVSPost2010PropOp51
 70
     0
102
RTVSPost2010Prop52
140
1.0
102
RTVSPost2010PropOp52
 70
     0
102
RTVSPost2010Prop53
 90
        2
102
RTVSPost2010PropOp53
 70
     1
102
RTVSPost2010Prop54
  1
strokes_ogs.tif
102
RTVSPost2010PropOp54
 70
     1
102
RTVSPost2010Prop55
280
     0
102
RTVSPost2010PropOp55
 70
     1
102
RTVSPost2010Prop56
140
1.0
102
RTVSPost2010PropOp56
 70
     1
102
RTVSPost2010Prop57
140
1.0
102
RTVSPost2010PropOp57
 70
     1
  0
XRECORD
  5
294
102
{ACAD_REACTORS
330
293
102
}
330
293
100
AcDbXrecord
280
     1
102
RTVSPost2010Prop28
280
     0
102
RTVSPost2010PropOp28
 70
     1
102
RTVSPost2010Prop29
280
     1
102
RTVSPost2010PropOp29
 70
     1
102
RTVSPost2010Prop30
280
     1
102
RTVSPost2010PropOp30
 70
     1
102
RTVSPost2010Prop31
280
     0
102
RTVSPost2010PropOp31
 70
     1
102
RTVSPost2010Prop32
280
     0
102
RTVSPost2010PropOp32
 70
     1
102
RTVSPost2010Prop33
280
     0
102
RTVSPost2010PropOp33
 70
     1
102
RTVSPost2010Prop34
280
     0
102
RTVSPost2010PropOp34
 70
     1
102
RTVSPost2010Prop35
280
     0
102
RTVSPost2010PropOp35
 70
     1
102
RTVSPost2010Prop36
280
     0
102
RTVSPost2010PropOp36
 70
     1
102
RTVSPost2010Prop37
 90
       50
102
RTVSPost2010PropOp37
 70
     1
102
RTVSPost2010Prop38
140
0.0
102
RTVSPost2010PropOp38
 70
     1
102
RTVSPost2010Prop39
140
1.0
102
RTVSPost2010PropOp39
 70
     1
102
RTVSPost2010Prop40
 90
        0
102
RTVSPost2010PropOp40
 70
     1
102
RTVSPost2010Prop41ColorIndex
 90
       18
102
RTVSPost2010Prop41ColorRGB
 90
        0
102
RTVSPost2010PropOp41
 70
     1
102
RTVSPost2010Prop42
 90
       50
102
RTVSPost2010PropOp42
 70
     1
102
RTVSPost2010Prop43
 90
        3
102
RTVSPost2010PropOp43
 70
     1
102
RTVSPost2010Prop44ColorIndex
 90
        5
102
RTVSPost2010Prop44ColorRGB
 90
      255
102
RTVSPost2010PropOp44
 70
     1
102
RTVSPost2010Prop45
280
     0
102
RTVSPost2010PropOp45
 70
     1
102
RTVSPost2010Prop46
 90
       50
102
RTVSPost2010PropOp46
 70
     1
102
RTVSPost2010Prop47
 90
       50
102
RTVSPost2010PropOp47
 70
     1
102
RTVSPost2010Prop48
 90
       50
102
RTVSPost2010PropOp48
 70
     1
102
RTVSPost2010Prop49
280
     0
102
RTVSPost2010PropOp49
 70
     1
102
RTVSPost2010Prop50
 90
       50
102
RTVSPost2010PropOp50
 70
     1
102
RTVSPost2010Prop51ColorIndex
 90
      256
102
RTVSPost2010Prop51ColorRGB
 90
-16777216
102
RTVSPost2010PropOp51
 70
     0
102
RTVSPost2010Prop52
140
1.0
102
RTVSPost2010PropOp52
 70
     0
102
RTVSPost2010Prop53
 90
        2
102
RTVSPost2010PropOp53
 70
     1
102
RTVSPost2010Prop54
  1
strokes_ogs.tif
102
RTVSPost2010PropOp54
 70
     1
102
RTVSPost2010Prop55
280
     0
102
RTVSPost2010PropOp55
 70
     1
102
RTVSPost2010Prop56
140
1.0
102
RTVSPost2010PropOp56
 70
     1
102
RTVSPost2010Prop57
140
1.0
102
RTVSPost2010PropOp57
 70
     1
  0
XRECORD
  5
2B2
102
{ACAD_REACTORS
330
2B1
102
}
330
2B1
100
AcDbXrecord
280
     1
102
RTVSPost2010Prop28
280
     0
102
RTVSPost2010PropOp28
 70
     0
102
RTVSPost2010Prop29
280
     1
102
RTVSPost2010PropOp29
 70
     0
102
RTVSPost2010Prop30
280
     1
102
RTVSPost2010PropOp30
 70
     0
102
RTVSPost2010Prop31
280
     0
102
RTVSPost2010PropOp31
 70
     0
102
RTVSPost2010Prop32
280
     0
102
RTVSPost2010PropOp32
 70
     0
102
RTVSPost2010Prop33
280
     0
102
RTVSPost2010PropOp33
 70
     0
102
RTVSPost2010Prop34
280
     0
102
RTVSPost2010PropOp34
 70
     0
102
RTVSPost2010Prop35
280
     0
102
RTVSPost2010PropOp35
 70
     0
102
RTVSPost2010Prop36
280
     0
102
RTVSPost2010PropOp36
 70
     0
102
RTVSPost2010Prop37
 90
       50
102
RTVSPost2010PropOp37
 70
     0
102
RTVSPost2010Prop38
140
0.0
102
RTVSPost2010PropOp38
 70
     0
102
RTVSPost2010Prop39
140
1.0
102
RTVSPost2010PropOp39
 70
     0
102
RTVSPost2010Prop40
 90
        0
102
RTVSPost2010PropOp40
 70
     0
102
RTVSPost2010Prop41ColorIndex
 90
       18
102
RTVSPost2010Prop41ColorRGB
 90
        0
102
RTVSPost2010PropOp41
 70
     0
102
RTVSPost2010Prop42
 90
       50
102
RTVSPost2010PropOp42
 70
     0
102
RTVSPost2010Prop43
 90
        3
102
RTVSPost2010PropOp43
 70
     0
102
RTVSPost2010Prop44ColorIndex
 90
        5
102
RTVSPost2010Prop44ColorRGB
 90
      255
102
RTVSPost2010PropOp44
 70
     0
102
RTVSPost2010Prop45
280
     0
102
RTVSPost2010PropOp45
 70
     0
102
RTVSPost2010Prop46
 90
       50
102
RTVSPost2010PropOp46
 70
     0
102
RTVSPost2010Prop47
 90
       50
102
RTVSPost2010PropOp47
 70
     0
102
RTVSPost2010Prop48
 90
       50
102
RTVSPost2010PropOp48
 70
     0
102
RTVSPost2010Prop49
280
     0
102
RTVSPost2010PropOp49
 70
     0
102
RTVSPost2010Prop50
 90
       50
102
RTVSPost2010PropOp50
 70
     0
102
RTVSPost2010Prop51ColorIndex
 90
      256
102
RTVSPost2010Prop51ColorRGB
 90
-16777216
102
RTVSPost2010PropOp51
 70
     0
102
RTVSPost2010Prop52
140
1.0
102
RTVSPost2010PropOp52
 70
     0
102
RTVSPost2010Prop53
 90
        2
102
RTVSPost2010PropOp53
 70
     0
102
RTVSPost2010Prop54
  1
strokes_ogs.tif
102
RTVSPost2010PropOp54
 70
     0
102
RTVSPost2010Prop55
280
     0
102
RTVSPost2010PropOp55
 70
     0
102
RTVSPost2010Prop56
140
1.0
102
RTVSPost2010PropOp56
 70
     0
102
RTVSPost2010Prop57
140
1.0
102
RTVSPost2010PropOp57
 70
     0
  0
XRECORD
  5
29C
102
{ACAD_REACTORS
330
29B
102
}
330
29B
100
AcDbXrecord
280
     1
102
RTVSPost2010Prop28
280
     0
102
RTVSPost2010PropOp28
 70
     1
102
RTVSPost2010Prop29
280
     1
102
RTVSPost2010PropOp29
 70
     1
102
RTVSPost2010Prop30
280
     1
102
RTVSPost2010PropOp30
 70
     1
102
RTVSPost2010Prop31
280
     0
102
RTVSPost2010PropOp31
 70
     1
102
RTVSPost2010Prop32
280
     0
102
RTVSPost2010PropOp32
 70
     1
102
RTVSPost2010Prop33
280
     0
102
RTVSPost2010PropOp33
 70
     1
102
RTVSPost2010Prop34
280
     0
102
RTVSPost2010PropOp34
 70
     1
102
RTVSPost2010Prop35
280
     0
102
RTVSPost2010PropOp35
 70
     1
102
RTVSPost2010Prop36
280
     0
102
RTVSPost2010PropOp36
 70
     1
102
RTVSPost2010Prop37
 90
       50
102
RTVSPost2010PropOp37
 70
     1
102
RTVSPost2010Prop38
140
0.0
102
RTVSPost2010PropOp38
 70
     1
102
RTVSPost2010Prop39
140
1.0
102
RTVSPost2010PropOp39
 70
     1
102
RTVSPost2010Prop40
 90
        0
102
RTVSPost2010PropOp40
 70
     1
102
RTVSPost2010Prop41ColorIndex
 90
       18
102
RTVSPost2010Prop41ColorRGB
 90
        0
102
RTVSPost2010PropOp41
 70
     1
102
RTVSPost2010Prop42
 90
       50
102
RTVSPost2010PropOp42
 70
     1
102
RTVSPost2010Prop43
 90
        3
102
RTVSPost2010PropOp43
 70
     1
102
RTVSPost2010Prop44ColorIndex
 90
        5
102
RTVSPost2010Prop44ColorRGB
 90
      255
102
RTVSPost2010PropOp44
 70
     1
102
RTVSPost2010Prop45
280
     0
102
RTVSPost2010PropOp45
 70
     1
102
RTVSPost2010Prop46
 90
       50
102
RTVSPost2010PropOp46
 70
     1
102
RTVSPost2010Prop47
 90
       50
102
RTVSPost2010PropOp47
 70
     1
102
RTVSPost2010Prop48
 90
       50
102
RTVSPost2010PropOp48
 70
     1
102
RTVSPost2010Prop49
280
     0
102
RTVSPost2010PropOp49
 70
     1
102
RTVSPost2010Prop50
 90
       50
102
RTVSPost2010PropOp50
 70
     1
102
RTVSPost2010Prop51ColorIndex
 90
      256
102
RTVSPost2010Prop51ColorRGB
 90
-16777216
102
RTVSPost2010PropOp51
 70
     0
102
RTVSPost2010Prop52
140
1.0
102
RTVSPost2010PropOp52
 70
     0
102
RTVSPost2010Prop53
 90
        2
102
RTVSPost2010PropOp53
 70
     1
102
RTVSPost2010Prop54
  1
strokes_ogs.tif
102
RTVSPost2010PropOp54
 70
     1
102
RTVSPost2010Prop55
280
     0
102
RTVSPost2010PropOp55
 70
     1
102
RTVSPost2010Prop56
140
1.0
102
RTVSPost2010PropOp56
 70
     1
102
RTVSPost2010Prop57
140
1.0
102
RTVSPost2010PropOp57
 70
     1
  0
XRECORD
  5
280
102
{ACAD_REACTORS
330
27F
102
}
330
27F
100
AcDbXrecord
280
     1
102
RTVSPost2010Prop28
280
     0
102
RTVSPost2010PropOp28
 70
     1
102
RTVSPost2010Prop29
280
     1
102
RTVSPost2010PropOp29
 70
     1
102
RTVSPost2010Prop30
280
     1
102
RTVSPost2010PropOp30
 70
     1
102
RTVSPost2010Prop31
280
     0
102
RTVSPost2010PropOp31
 70
     1
102
RTVSPost2010Prop32
280
     0
102
RTVSPost2010PropOp32
 70
     1
102
RTVSPost2010Prop33
280
     0
102
RTVSPost2010PropOp33
 70
     1
102
RTVSPost2010Prop34
280
     0
102
RTVSPost2010PropOp34
 70
     1
102
RTVSPost2010Prop35
280
     0
102
RTVSPost2010PropOp35
 70
     1
102
RTVSPost2010Prop36
280
     0
102
RTVSPost2010PropOp36
 70
     1
102
RTVSPost2010Prop37
 90
       50
102
RTVSPost2010PropOp37
 70
     1
102
RTVSPost2010Prop38
140
0.0
102
RTVSPost2010PropOp38
 70
     1
102
RTVSPost2010Prop39
140
1.0
102
RTVSPost2010PropOp39
 70
     1
102
RTVSPost2010Prop40
 90
        0
102
RTVSPost2010PropOp40
 70
     1
102
RTVSPost2010Prop41ColorIndex
 90
       18
102
RTVSPost2010Prop41ColorRGB
 90
        0
102
RTVSPost2010PropOp41
 70
     1
102
RTVSPost2010Prop42
 90
       50
102
RTVSPost2010PropOp42
 70
     1
102
RTVSPost2010Prop43
 90
        3
102
RTVSPost2010PropOp43
 70
     1
102
RTVSPost2010Prop44ColorIndex
 90
        5
102
RTVSPost2010Prop44ColorRGB
 90
      255
102
RTVSPost2010PropOp44
 70
     1
102
RTVSPost2010Prop45
280
     0
102
RTVSPost2010PropOp45
 70
     1
102
RTVSPost2010Prop46
 90
       50
102
RTVSPost2010PropOp46
 70
     1
102
RTVSPost2010Prop47
 90
       50
102
RTVSPost2010PropOp47
 70
     1
102
RTVSPost2010Prop48
 90
       50
102
RTVSPost2010PropOp48
 70
     1
102
RTVSPost2010Prop49
280
     0
102
RTVSPost2010PropOp49
 70
     1
102
RTVSPost2010Prop50
 90
       50
102
RTVSPost2010PropOp50
 70
     1
102
RTVSPost2010Prop51ColorIndex
 90
      256
102
RTVSPost2010Prop51ColorRGB
 90
-16777216
102
RTVSPost2010PropOp51
 70
     0
102
RTVSPost2010Prop52
140
1.0
102
RTVSPost2010PropOp52
 70
     0
102
RTVSPost2010Prop53
 90
        2
102
RTVSPost2010PropOp53
 70
     1
102
RTVSPost2010Prop54
  1
strokes_ogs.tif
102
RTVSPost2010PropOp54
 70
     1
102
RTVSPost2010Prop55
280
     0
102
RTVSPost2010PropOp55
 70
     1
102
RTVSPost2010Prop56
140
1.0
102
RTVSPost2010PropOp56
 70
     1
102
RTVSPost2010Prop57
140
1.0
102
RTVSPost2010PropOp57
 70
     1
  0
XRECORD
  5
282
102
{ACAD_REACTORS
330
281
102
}
330
281
100
AcDbXrecord
280
     1
102
RTVSPost2010Prop28
280
     0
102
RTVSPost2010PropOp28
 70
     1
102
RTVSPost2010Prop29
280
     1
102
RTVSPost2010PropOp29
 70
     1
102
RTVSPost2010Prop30
280
     1
102
RTVSPost2010PropOp30
 70
     1
102
RTVSPost2010Prop31
280
     0
102
RTVSPost2010PropOp31
 70
     1
102
RTVSPost2010Prop32
280
     0
102
RTVSPost2010PropOp32
 70
     1
102
RTVSPost2010Prop33
280
     0
102
RTVSPost2010PropOp33
 70
     1
102
RTVSPost2010Prop34
280
     0
102
RTVSPost2010PropOp34
 70
     1
102
RTVSPost2010Prop35
280
     0
102
RTVSPost2010PropOp35
 70
     1
102
RTVSPost2010Prop36
280
     0
102
RTVSPost2010PropOp36
 70
     1
102
RTVSPost2010Prop37
 90
       50
102
RTVSPost2010PropOp37
 70
     1
102
RTVSPost2010Prop38
140
0.0
102
RTVSPost2010PropOp38
 70
     1
102
RTVSPost2010Prop39
140
1.0
102
RTVSPost2010PropOp39
 70
     1
102
RTVSPost2010Prop40
 90
        0
102
RTVSPost2010PropOp40
 70
     1
102
RTVSPost2010Prop41ColorIndex
 90
       18
102
RTVSPost2010Prop41ColorRGB
 90
        0
102
RTVSPost2010PropOp41
 70
     1
102
RTVSPost2010Prop42
 90
       50
102
RTVSPost2010PropOp42
 70
     1
102
RTVSPost2010Prop43
 90
        3
102
RTVSPost2010PropOp43
 70
     1
102
RTVSPost2010Prop44ColorIndex
 90
        5
102
RTVSPost2010Prop44ColorRGB
 90
      255
102
RTVSPost2010PropOp44
 70
     1
102
RTVSPost2010Prop45
280
     0
102
RTVSPost2010PropOp45
 70
     1
102
RTVSPost2010Prop46
 90
       50
102
RTVSPost2010PropOp46
 70
     1
102
RTVSPost2010Prop47
 90
       50
102
RTVSPost2010PropOp47
 70
     1
102
RTVSPost2010Prop48
 90
       50
102
RTVSPost2010PropOp48
 70
     1
102
RTVSPost2010Prop49
280
     0
102
RTVSPost2010PropOp49
 70
     1
102
RTVSPost2010Prop50
 90
       50
102
RTVSPost2010PropOp50
 70
     1
102
RTVSPost2010Prop51ColorIndex
 90
      256
102
RTVSPost2010Prop51ColorRGB
 90
-16777216
102
RTVSPost2010PropOp51
 70
     0
102
RTVSPost2010Prop52
140
1.0
102
RTVSPost2010PropOp52
 70
     0
102
RTVSPost2010Prop53
 90
        2
102
RTVSPost2010PropOp53
 70
     1
102
RTVSPost2010Prop54
  1
strokes_ogs.tif
102
RTVSPost2010PropOp54
 70
     1
102
RTVSPost2010Prop55
280
     0
102
RTVSPost2010PropOp55
 70
     1
102
RTVSPost2010Prop56
140
1.0
102
RTVSPost2010PropOp56
 70
     1
102
RTVSPost2010Prop57
140
1.0
102
RTVSPost2010PropOp57
 70
     1
  0
XRECORD
  5
284
102
{ACAD_REACTORS
330
283
102
}
330
283
100
AcDbXrecord
280
     1
102
RTVSPost2010Prop28
280
     0
102
RTVSPost2010PropOp28
 70
     1
102
RTVSPost2010Prop29
280
     1
102
RTVSPost2010PropOp29
 70
     1
102
RTVSPost2010Prop30
280
     1
102
RTVSPost2010PropOp30
 70
     1
102
RTVSPost2010Prop31
280
     0
102
RTVSPost2010PropOp31
 70
     1
102
RTVSPost2010Prop32
280
     0
102
RTVSPost2010PropOp32
 70
     1
102
RTVSPost2010Prop33
280
     0
102
RTVSPost2010PropOp33
 70
     1
102
RTVSPost2010Prop34
280
     0
102
RTVSPost2010PropOp34
 70
     1
102
RTVSPost2010Prop35
280
     0
102
RTVSPost2010PropOp35
 70
     1
102
RTVSPost2010Prop36
280
     0
102
RTVSPost2010PropOp36
 70
     1
102
RTVSPost2010Prop37
 90
       50
102
RTVSPost2010PropOp37
 70
     1
102
RTVSPost2010Prop38
140
0.0
102
RTVSPost2010PropOp38
 70
     1
102
RTVSPost2010Prop39
140
1.0
102
RTVSPost2010PropOp39
 70
     1
102
RTVSPost2010Prop40
 90
        0
102
RTVSPost2010PropOp40
 70
     1
102
RTVSPost2010Prop41ColorIndex
 90
       18
102
RTVSPost2010Prop41ColorRGB
 90
        0
102
RTVSPost2010PropOp41
 70
     1
102
RTVSPost2010Prop42
 90
       50
102
RTVSPost2010PropOp42
 70
     1
102
RTVSPost2010Prop43
 90
        3
102
RTVSPost2010PropOp43
 70
     1
102
RTVSPost2010Prop44ColorIndex
 90
        5
102
RTVSPost2010Prop44ColorRGB
 90
      255
102
RTVSPost2010PropOp44
 70
     1
102
RTVSPost2010Prop45
280
     0
102
RTVSPost2010PropOp45
 70
     1
102
RTVSPost2010Prop46
 90
       50
102
RTVSPost2010PropOp46
 70
     1
102
RTVSPost2010Prop47
 90
       50
102
RTVSPost2010PropOp47
 70
     1
102
RTVSPost2010Prop48
 90
       50
102
RTVSPost2010PropOp48
 70
     1
102
RTVSPost2010Prop49
280
     0
102
RTVSPost2010PropOp49
 70
     1
102
RTVSPost2010Prop50
 90
       50
102
RTVSPost2010PropOp50
 70
     1
102
RTVSPost2010Prop51ColorIndex
 90
      256
102
RTVSPost2010Prop51ColorRGB
 90
-16777216
102
RTVSPost2010PropOp51
 70
     0
102
RTVSPost2010Prop52
140
1.0
102
RTVSPost2010PropOp52
 70
     0
102
RTVSPost2010Prop53
 90
        2
102
RTVSPost2010PropOp53
 70
     1
102
RTVSPost2010Prop54
  1
strokes_ogs.tif
102
RTVSPost2010PropOp54
 70
     1
102
RTVSPost2010Prop55
280
     0
102
RTVSPost2010PropOp55
 70
     1
102
RTVSPost2010Prop56
140
1.0
102
RTVSPost2010PropOp56
 70
     1
102
RTVSPost2010Prop57
140
1.0
102
RTVSPost2010PropOp57
 70
     1
  0
XRECORD
  5
286
102
{ACAD_REACTORS
330
285
102
}
330
285
100
AcDbXrecord
280
     1
102
RTVSPost2010Prop28
280
     0
102
RTVSPost2010PropOp28
 70
     1
102
RTVSPost2010Prop29
280
     1
102
RTVSPost2010PropOp29
 70
     1
102
RTVSPost2010Prop30
280
     1
102
RTVSPost2010PropOp30
 70
     1
102
RTVSPost2010Prop31
280
     0
102
RTVSPost2010PropOp31
 70
     1
102
RTVSPost2010Prop32
280
     0
102
RTVSPost2010PropOp32
 70
     1
102
RTVSPost2010Prop33
280
     0
102
RTVSPost2010PropOp33
 70
     1
102
RTVSPost2010Prop34
280
     0
102
RTVSPost2010PropOp34
 70
     1
102
RTVSPost2010Prop35
280
     0
102
RTVSPost2010PropOp35
 70
     1
102
RTVSPost2010Prop36
280
     0
102
RTVSPost2010PropOp36
 70
     1
102
RTVSPost2010Prop37
 90
       50
102
RTVSPost2010PropOp37
 70
     1
102
RTVSPost2010Prop38
140
0.0
102
RTVSPost2010PropOp38
 70
     1
102
RTVSPost2010Prop39
140
1.0
102
RTVSPost2010PropOp39
 70
     1
102
RTVSPost2010Prop40
 90
        0
102
RTVSPost2010PropOp40
 70
     1
102
RTVSPost2010Prop41ColorIndex
 90
       18
102
RTVSPost2010Prop41ColorRGB
 90
        0
102
RTVSPost2010PropOp41
 70
     1
102
RTVSPost2010Prop42
 90
       50
102
RTVSPost2010PropOp42
 70
     1
102
RTVSPost2010Prop43
 90
        3
102
RTVSPost2010PropOp43
 70
     1
102
RTVSPost2010Prop44ColorIndex
 90
        5
102
RTVSPost2010Prop44ColorRGB
 90
      255
102
RTVSPost2010PropOp44
 70
     1
102
RTVSPost2010Prop45
280
     0
102
RTVSPost2010PropOp45
 70
     1
102
RTVSPost2010Prop46
 90
       50
102
RTVSPost2010PropOp46
 70
     1
102
RTVSPost2010Prop47
 90
       50
102
RTVSPost2010PropOp47
 70
     1
102
RTVSPost2010Prop48
 90
       50
102
RTVSPost2010PropOp48
 70
     1
102
RTVSPost2010Prop49
280
     0
102
RTVSPost2010PropOp49
 70
     1
102
RTVSPost2010Prop50
 90
       50
102
RTVSPost2010PropOp50
 70
     1
102
RTVSPost2010Prop51ColorIndex
 90
      256
102
RTVSPost2010Prop51ColorRGB
 90
-16777216
102
RTVSPost2010PropOp51
 70
     0
102
RTVSPost2010Prop52
140
1.0
102
RTVSPost2010PropOp52
 70
     0
102
RTVSPost2010Prop53
 90
        2
102
RTVSPost2010PropOp53
 70
     1
102
RTVSPost2010Prop54
  1
strokes_ogs.tif
102
RTVSPost2010PropOp54
 70
     1
102
RTVSPost2010Prop55
280
     0
102
RTVSPost2010PropOp55
 70
     1
102
RTVSPost2010Prop56
140
1.0
102
RTVSPost2010PropOp56
 70
     1
102
RTVSPost2010Prop57
140
1.0
102
RTVSPost2010PropOp57
 70
     1
  0
XRECORD
  5
2A2
102
{ACAD_REACTORS
330
2A1
102
}
330
2A1
100
AcDbXrecord
280
     1
102
RTVSPost2010Prop28
280
     0
102
RTVSPost2010PropOp28
 70
     1
102
RTVSPost2010Prop29
280
     1
102
RTVSPost2010PropOp29
 70
     1
102
RTVSPost2010Prop30
280
     1
102
RTVSPost2010PropOp30
 70
     1
102
RTVSPost2010Prop31
280
     0
102
RTVSPost2010PropOp31
 70
     1
102
RTVSPost2010Prop32
280
     0
102
RTVSPost2010PropOp32
 70
     1
102
RTVSPost2010Prop33
280
     0
102
RTVSPost2010PropOp33
 70
     1
102
RTVSPost2010Prop34
280
     0
102
RTVSPost2010PropOp34
 70
     1
102
RTVSPost2010Prop35
280
     0
102
RTVSPost2010PropOp35
 70
     1
102
RTVSPost2010Prop36
280
     0
102
RTVSPost2010PropOp36
 70
     1
102
RTVSPost2010Prop37
 90
       50
102
RTVSPost2010PropOp37
 70
     1
102
RTVSPost2010Prop38
140
0.0
102
RTVSPost2010PropOp38
 70
     1
102
RTVSPost2010Prop39
140
1.0
102
RTVSPost2010PropOp39
 70
     1
102
RTVSPost2010Prop40
 90
        0
102
RTVSPost2010PropOp40
 70
     1
102
RTVSPost2010Prop41ColorIndex
 90
       18
102
RTVSPost2010Prop41ColorRGB
 90
        0
102
RTVSPost2010PropOp41
 70
     1
102
RTVSPost2010Prop42
 90
       50
102
RTVSPost2010PropOp42
 70
     1
102
RTVSPost2010Prop43
 90
        3
102
RTVSPost2010PropOp43
 70
     1
102
RTVSPost2010Prop44ColorIndex
 90
        5
102
RTVSPost2010Prop44ColorRGB
 90
      255
102
RTVSPost2010PropOp44
 70
     1
102
RTVSPost2010Prop45
280
     0
102
RTVSPost2010PropOp45
 70
     1
102
RTVSPost2010Prop46
 90
       50
102
RTVSPost2010PropOp46
 70
     1
102
RTVSPost2010Prop47
 90
       50
102
RTVSPost2010PropOp47
 70
     1
102
RTVSPost2010Prop48
 90
       50
102
RTVSPost2010PropOp48
 70
     1
102
RTVSPost2010Prop49
280
     0
102
RTVSPost2010PropOp49
 70
     1
102
RTVSPost2010Prop50
 90
       50
102
RTVSPost2010PropOp50
 70
     1
102
RTVSPost2010Prop51ColorIndex
 90
      256
102
RTVSPost2010Prop51ColorRGB
 90
-16777216
102
RTVSPost2010PropOp51
 70
     0
102
RTVSPost2010Prop52
140
1.0
102
RTVSPost2010PropOp52
 70
     0
102
RTVSPost2010Prop53
 90
        2
102
RTVSPost2010PropOp53
 70
     1
102
RTVSPost2010Prop54
  1
strokes_ogs.tif
102
RTVSPost2010PropOp54
 70
     1
102
RTVSPost2010Prop55
280
     0
102
RTVSPost2010PropOp55
 70
     1
102
RTVSPost2010Prop56
140
1.0
102
RTVSPost2010PropOp56
 70
     1
102
RTVSPost2010Prop57
140
1.0
102
RTVSPost2010PropOp57
 70
     1
  0
XRECORD
  5
2AE
102
{ACAD_REACTORS
330
2AD
102
}
330
2AD
100
AcDbXrecord
280
     1
102
RTVSPost2010Prop28
280
     0
102
RTVSPost2010PropOp28
 70
     0
102
RTVSPost2010Prop29
280
     1
102
RTVSPost2010PropOp29
 70
     0
102
RTVSPost2010Prop30
280
     1
102
RTVSPost2010PropOp30
 70
     0
102
RTVSPost2010Prop31
280
     0
102
RTVSPost2010PropOp31
 70
     0
102
RTVSPost2010Prop32
280
     0
102
RTVSPost2010PropOp32
 70
     0
102
RTVSPost2010Prop33
280
     0
102
RTVSPost2010PropOp33
 70
     0
102
RTVSPost2010Prop34
280
     0
102
RTVSPost2010PropOp34
 70
     0
102
RTVSPost2010Prop35
280
     0
102
RTVSPost2010PropOp35
 70
     0
102
RTVSPost2010Prop36
280
     0
102
RTVSPost2010PropOp36
 70
     0
102
RTVSPost2010Prop37
 90
       50
102
RTVSPost2010PropOp37
 70
     0
102
RTVSPost2010Prop38
140
0.0
102
RTVSPost2010PropOp38
 70
     0
102
RTVSPost2010Prop39
140
1.0
102
RTVSPost2010PropOp39
 70
     0
102
RTVSPost2010Prop40
 90
        0
102
RTVSPost2010PropOp40
 70
     0
102
RTVSPost2010Prop41ColorIndex
 90
       18
102
RTVSPost2010Prop41ColorRGB
 90
        0
102
RTVSPost2010PropOp41
 70
     0
102
RTVSPost2010Prop42
 90
       50
102
RTVSPost2010PropOp42
 70
     0
102
RTVSPost2010Prop43
 90
        3
102
RTVSPost2010PropOp43
 70
     0
102
RTVSPost2010Prop44ColorIndex
 90
        5
102
RTVSPost2010Prop44ColorRGB
 90
      255
102
RTVSPost2010PropOp44
 70
     0
102
RTVSPost2010Prop45
280
     0
102
RTVSPost2010PropOp45
 70
     0
102
RTVSPost2010Prop46
 90
       50
102
RTVSPost2010PropOp46
 70
     0
102
RTVSPost2010Prop47
 90
       50
102
RTVSPost2010PropOp47
 70
     0
102
RTVSPost2010Prop48
 90
       50
102
RTVSPost2010PropOp48
 70
     0
102
RTVSPost2010Prop49
280
     0
102
RTVSPost2010PropOp49
 70
     0
102
RTVSPost2010Prop50
 90
       50
102
RTVSPost2010PropOp50
 70
     0
102
RTVSPost2010Prop51ColorIndex
 90
      256
102
RTVSPost2010Prop51ColorRGB
 90
-16777216
102
RTVSPost2010PropOp51
 70
     0
102
RTVSPost2010Prop52
140
1.0
102
RTVSPost2010PropOp52
 70
     0
102
RTVSPost2010Prop53
 90
        2
102
RTVSPost2010PropOp53
 70
     0
102
RTVSPost2010Prop54
  1
strokes_ogs.tif
102
RTVSPost2010PropOp54
 70
     0
102
RTVSPost2010Prop55
280
     0
102
RTVSPost2010PropOp55
 70
     0
102
RTVSPost2010Prop56
140
1.0
102
RTVSPost2010PropOp56
 70
     0
102
RTVSPost2010Prop57
140
1.0
102
RTVSPost2010PropOp57
 70
     0
  0
XRECORD
  5
29A
102
{ACAD_REACTORS
330
299
102
}
330
299
100
AcDbXrecord
280
     1
102
RTVSPost2010Prop28
280
     0
102
RTVSPost2010PropOp28
 70
     1
102
RTVSPost2010Prop29
280
     1
102
RTVSPost2010PropOp29
 70
     1
102
RTVSPost2010Prop30
280
     1
102
RTVSPost2010PropOp30
 70
     1
102
RTVSPost2010Prop31
280
     0
102
RTVSPost2010PropOp31
 70
     1
102
RTVSPost2010Prop32
280
     0
102
RTVSPost2010PropOp32
 70
     1
102
RTVSPost2010Prop33
280
     0
102
RTVSPost2010PropOp33
 70
     1
102
RTVSPost2010Prop34
280
     0
102
RTVSPost2010PropOp34
 70
     1
102
RTVSPost2010Prop35
280
     0
102
RTVSPost2010PropOp35
 70
     1
102
RTVSPost2010Prop36
280
     0
102
RTVSPost2010PropOp36
 70
     1
102
RTVSPost2010Prop37
 90
       50
102
RTVSPost2010PropOp37
 70
     1
102
RTVSPost2010Prop38
140
0.0
102
RTVSPost2010PropOp38
 70
     1
102
RTVSPost2010Prop39
140
1.0
102
RTVSPost2010PropOp39
 70
     1
102
RTVSPost2010Prop40
 90
        0
102
RTVSPost2010PropOp40
 70
     1
102
RTVSPost2010Prop41ColorIndex
 90
       18
102
RTVSPost2010Prop41ColorRGB
 90
        0
102
RTVSPost2010PropOp41
 70
     1
102
RTVSPost2010Prop42
 90
       50
102
RTVSPost2010PropOp42
 70
     1
102
RTVSPost2010Prop43
 90
        3
102
RTVSPost2010PropOp43
 70
     1
102
RTVSPost2010Prop44ColorIndex
 90
        5
102
RTVSPost2010Prop44ColorRGB
 90
      255
102
RTVSPost2010PropOp44
 70
     1
102
RTVSPost2010Prop45
280
     0
102
RTVSPost2010PropOp45
 70
     1
102
RTVSPost2010Prop46
 90
       50
102
RTVSPost2010PropOp46
 70
     1
102
RTVSPost2010Prop47
 90
       50
102
RTVSPost2010PropOp47
 70
     1
102
RTVSPost2010Prop48
 90
       50
102
RTVSPost2010PropOp48
 70
     1
102
RTVSPost2010Prop49
280
     0
102
RTVSPost2010PropOp49
 70
     1
102
RTVSPost2010Prop50
 90
       50
102
RTVSPost2010PropOp50
 70
     1
102
RTVSPost2010Prop51ColorIndex
 90
      256
102
RTVSPost2010Prop51ColorRGB
 90
-16777216
102
RTVSPost2010PropOp51
 70
     0
102
RTVSPost2010Prop52
140
1.0
102
RTVSPost2010PropOp52
 70
     0
102
RTVSPost2010Prop53
 90
        2
102
RTVSPost2010PropOp53
 70
     1
102
RTVSPost2010Prop54
  1
strokes_ogs.tif
102
RTVSPost2010PropOp54
 70
     1
102
RTVSPost2010Prop55
280
     0
102
RTVSPost2010PropOp55
 70
     1
102
RTVSPost2010Prop56
140
1.0
102
RTVSPost2010PropOp56
 70
     1
102
RTVSPost2010Prop57
140
1.0
102
RTVSPost2010PropOp57
 70
     1
  0
XRECORD
  5
2B0
102
{ACAD_REACTORS
330
2AF
102
}
330
2AF
100
AcDbXrecord
280
     1
102
RTVSPost2010Prop28
280
     0
102
RTVSPost2010PropOp28
 70
     0
102
RTVSPost2010Prop29
280
     1
102
RTVSPost2010PropOp29
 70
     0
102
RTVSPost2010Prop30
280
     1
102
RTVSPost2010PropOp30
 70
     0
102
RTVSPost2010Prop31
280
     0
102
RTVSPost2010PropOp31
 70
     0
102
RTVSPost2010Prop32
280
     0
102
RTVSPost2010PropOp32
 70
     0
102
RTVSPost2010Prop33
280
     0
102
RTVSPost2010PropOp33
 70
     0
102
RTVSPost2010Prop34
280
     0
102
RTVSPost2010PropOp34
 70
     0
102
RTVSPost2010Prop35
280
     0
102
RTVSPost2010PropOp35
 70
     0
102
RTVSPost2010Prop36
280
     0
102
RTVSPost2010PropOp36
 70
     0
102
RTVSPost2010Prop37
 90
       50
102
RTVSPost2010PropOp37
 70
     0
102
RTVSPost2010Prop38
140
0.0
102
RTVSPost2010PropOp38
 70
     0
102
RTVSPost2010Prop39
140
1.0
102
RTVSPost2010PropOp39
 70
     0
102
RTVSPost2010Prop40
 90
        0
102
RTVSPost2010PropOp40
 70
     0
102
RTVSPost2010Prop41ColorIndex
 90
       18
102
RTVSPost2010Prop41ColorRGB
 90
        0
102
RTVSPost2010PropOp41
 70
     0
102
RTVSPost2010Prop42
 90
       50
102
RTVSPost2010PropOp42
 70
     0
102
RTVSPost2010Prop43
 90
        3
102
RTVSPost2010PropOp43
 70
     0
102
RTVSPost2010Prop44ColorIndex
 90
        5
102
RTVSPost2010Prop44ColorRGB
 90
      255
102
RTVSPost2010PropOp44
 70
     0
102
RTVSPost2010Prop45
280
     0
102
RTVSPost2010PropOp45
 70
     0
102
RTVSPost2010Prop46
 90
       50
102
RTVSPost2010PropOp46
 70
     0
102
RTVSPost2010Prop47
 90
       50
102
RTVSPost2010PropOp47
 70
     0
102
RTVSPost2010Prop48
 90
       50
102
RTVSPost2010PropOp48
 70
     0
102
RTVSPost2010Prop49
280
     0
102
RTVSPost2010PropOp49
 70
     0
102
RTVSPost2010Prop50
 90
       50
102
RTVSPost2010PropOp50
 70
     0
102
RTVSPost2010Prop51ColorIndex
 90
      256
102
RTVSPost2010Prop51ColorRGB
 90
-16777216
102
RTVSPost2010PropOp51
 70
     0
102
RTVSPost2010Prop52
140
1.0
102
RTVSPost2010PropOp52
 70
     0
102
RTVSPost2010Prop53
 90
        2
102
RTVSPost2010PropOp53
 70
     0
102
RTVSPost2010Prop54
  1
strokes_ogs.tif
102
RTVSPost2010PropOp54
 70
     0
102
RTVSPost2010Prop55
280
     0
102
RTVSPost2010PropOp55
 70
     0
102
RTVSPost2010Prop56
140
1.0
102
RTVSPost2010PropOp56
 70
     0
102
RTVSPost2010Prop57
140
1.0
102
RTVSPost2010PropOp57
 70
     0
  0
XRECORD
  5
290
102
{ACAD_REACTORS
330
28F
102
}
330
28F
100
AcDbXrecord
280
     1
102
RTVSPost2010Prop28
280
     0
102
RTVSPost2010PropOp28
 70
     1
102
RTVSPost2010Prop29
280
     1
102
RTVSPost2010PropOp29
 70
     1
102
RTVSPost2010Prop30
280
     1
102
RTVSPost2010PropOp30
 70
     1
102
RTVSPost2010Prop31
280
     0
102
RTVSPost2010PropOp31
 70
     1
102
RTVSPost2010Prop32
280
     0
102
RTVSPost2010PropOp32
 70
     1
102
RTVSPost2010Prop33
280
     0
102
RTVSPost2010PropOp33
 70
     1
102
RTVSPost2010Prop34
280
     0
102
RTVSPost2010PropOp34
 70
     1
102
RTVSPost2010Prop35
280
     0
102
RTVSPost2010PropOp35
 70
     1
102
RTVSPost2010Prop36
280
     0
102
RTVSPost2010PropOp36
 70
     1
102
RTVSPost2010Prop37
 90
       50
102
RTVSPost2010PropOp37
 70
     1
102
RTVSPost2010Prop38
140
0.0
102
RTVSPost2010PropOp38
 70
     1
102
RTVSPost2010Prop39
140
1.0
102
RTVSPost2010PropOp39
 70
     1
102
RTVSPost2010Prop40
 90
        0
102
RTVSPost2010PropOp40
 70
     1
102
RTVSPost2010Prop41ColorIndex
 90
       18
102
RTVSPost2010Prop41ColorRGB
 90
        0
102
RTVSPost2010PropOp41
 70
     1
102
RTVSPost2010Prop42
 90
       50
102
RTVSPost2010PropOp42
 70
     1
102
RTVSPost2010Prop43
 90
        3
102
RTVSPost2010PropOp43
 70
     1
102
RTVSPost2010Prop44ColorIndex
 90
        5
102
RTVSPost2010Prop44ColorRGB
 90
      255
102
RTVSPost2010PropOp44
 70
     1
102
RTVSPost2010Prop45
280
     0
102
RTVSPost2010PropOp45
 70
     1
102
RTVSPost2010Prop46
 90
       50
102
RTVSPost2010PropOp46
 70
     1
102
RTVSPost2010Prop47
 90
       50
102
RTVSPost2010PropOp47
 70
     1
102
RTVSPost2010Prop48
 90
       50
102
RTVSPost2010PropOp48
 70
     1
102
RTVSPost2010Prop49
280
     0
102
RTVSPost2010PropOp49
 70
     1
102
RTVSPost2010Prop50
 90
       50
102
RTVSPost2010PropOp50
 70
     1
102
RTVSPost2010Prop51ColorIndex
 90
      256
102
RTVSPost2010Prop51ColorRGB
 90
-16777216
102
RTVSPost2010PropOp51
 70
     0
102
RTVSPost2010Prop52
140
1.0
102
RTVSPost2010PropOp52
 70
     0
102
RTVSPost2010Prop53
 90
        2
102
RTVSPost2010PropOp53
 70
     1
102
RTVSPost2010Prop54
  1
strokes_ogs.tif
102
RTVSPost2010PropOp54
 70
     1
102
RTVSPost2010Prop55
280
     0
102
RTVSPost2010PropOp55
 70
     1
102
RTVSPost2010Prop56
140
1.0
102
RTVSPost2010PropOp56
 70
     1
102
RTVSPost2010Prop57
140
1.0
102
RTVSPost2010PropOp57
 70
     1
  0
XRECORD
  5
2AC
102
{ACAD_REACTORS
330
2AB
102
}
330
2AB
100
AcDbXrecord
280
     1
102
RTVSPost2010Prop28
280
     0
102
RTVSPost2010PropOp28
 70
     1
102
RTVSPost2010Prop29
280
     1
102
RTVSPost2010PropOp29
 70
     1
102
RTVSPost2010Prop30
280
     1
102
RTVSPost2010PropOp30
 70
     1
102
RTVSPost2010Prop31
280
     0
102
RTVSPost2010PropOp31
 70
     1
102
RTVSPost2010Prop32
280
     0
102
RTVSPost2010PropOp32
 70
     1
102
RTVSPost2010Prop33
280
     0
102
RTVSPost2010PropOp33
 70
     1
102
RTVSPost2010Prop34
280
     0
102
RTVSPost2010PropOp34
 70
     1
102
RTVSPost2010Prop35
280
     0
102
RTVSPost2010PropOp35
 70
     1
102
RTVSPost2010Prop36
280
     0
102
RTVSPost2010PropOp36
 70
     1
102
RTVSPost2010Prop37
 90
       50
102
RTVSPost2010PropOp37
 70
     1
102
RTVSPost2010Prop38
140
0.0
102
RTVSPost2010PropOp38
 70
     1
102
RTVSPost2010Prop39
140
1.0
102
RTVSPost2010PropOp39
 70
     1
102
RTVSPost2010Prop40
 90
        0
102
RTVSPost2010PropOp40
 70
     1
102
RTVSPost2010Prop41ColorIndex
 90
       18
102
RTVSPost2010Prop41ColorRGB
 90
        0
102
RTVSPost2010PropOp41
 70
     1
102
RTVSPost2010Prop42
 90
       50
102
RTVSPost2010PropOp42
 70
     1
102
RTVSPost2010Prop43
 90
        3
102
RTVSPost2010PropOp43
 70
     1
102
RTVSPost2010Prop44ColorIndex
 90
        5
102
RTVSPost2010Prop44ColorRGB
 90
      255
102
RTVSPost2010PropOp44
 70
     1
102
RTVSPost2010Prop45
280
     0
102
RTVSPost2010PropOp45
 70
     1
102
RTVSPost2010Prop46
 90
       50
102
RTVSPost2010PropOp46
 70
     1
102
RTVSPost2010Prop47
 90
       50
102
RTVSPost2010PropOp47
 70
     1
102
RTVSPost2010Prop48
 90
       50
102
RTVSPost2010PropOp48
 70
     1
102
RTVSPost2010Prop49
280
     0
102
RTVSPost2010PropOp49
 70
     1
102
RTVSPost2010Prop50
 90
       50
102
RTVSPost2010PropOp50
 70
     1
102
RTVSPost2010Prop51ColorIndex
 90
      256
102
RTVSPost2010Prop51ColorRGB
 90
-16777216
102
RTVSPost2010PropOp51
 70
     0
102
RTVSPost2010Prop52
140
1.0
102
RTVSPost2010PropOp52
 70
     0
102
RTVSPost2010Prop53
 90
        2
102
RTVSPost2010PropOp53
 70
     1
102
RTVSPost2010Prop54
  1
strokes_ogs.tif
102
RTVSPost2010PropOp54
 70
     1
102
RTVSPost2010Prop55
280
     0
102
RTVSPost2010PropOp55
 70
     1
102
RTVSPost2010Prop56
140
1.0
102
RTVSPost2010PropOp56
 70
     1
102
RTVSPost2010Prop57
140
1.0
102
RTVSPost2010PropOp57
 70
     1
  0
XRECORD
  5
2AA
102
{ACAD_REACTORS
330
2A9
102
}
330
2A9
100
AcDbXrecord
280
     1
102
RTVSPost2010Prop28
280
     0
102
RTVSPost2010PropOp28
 70
     1
102
RTVSPost2010Prop29
280
     1
102
RTVSPost2010PropOp29
 70
     1
102
RTVSPost2010Prop30
280
     1
102
RTVSPost2010PropOp30
 70
     1
102
RTVSPost2010Prop31
280
     0
102
RTVSPost2010PropOp31
 70
     1
102
RTVSPost2010Prop32
280
     0
102
RTVSPost2010PropOp32
 70
     1
102
RTVSPost2010Prop33
280
     0
102
RTVSPost2010PropOp33
 70
     1
102
RTVSPost2010Prop34
280
     0
102
RTVSPost2010PropOp34
 70
     1
102
RTVSPost2010Prop35
280
     0
102
RTVSPost2010PropOp35
 70
     1
102
RTVSPost2010Prop36
280
     0
102
RTVSPost2010PropOp36
 70
     1
102
RTVSPost2010Prop37
 90
       50
102
RTVSPost2010PropOp37
 70
     1
102
RTVSPost2010Prop38
140
0.0
102
RTVSPost2010PropOp38
 70
     1
102
RTVSPost2010Prop39
140
1.0
102
RTVSPost2010PropOp39
 70
     1
102
RTVSPost2010Prop40
 90
        0
102
RTVSPost2010PropOp40
 70
     1
102
RTVSPost2010Prop41ColorIndex
 90
       18
102
RTVSPost2010Prop41ColorRGB
 90
        0
102
RTVSPost2010PropOp41
 70
     1
102
RTVSPost2010Prop42
 90
       50
102
RTVSPost2010PropOp42
 70
     1
102
RTVSPost2010Prop43
 90
        3
102
RTVSPost2010PropOp43
 70
     1
102
RTVSPost2010Prop44ColorIndex
 90
        5
102
RTVSPost2010Prop44ColorRGB
 90
      255
102
RTVSPost2010PropOp44
 70
     1
102
RTVSPost2010Prop45
280
     0
102
RTVSPost2010PropOp45
 70
     1
102
RTVSPost2010Prop46
 90
       50
102
RTVSPost2010PropOp46
 70
     1
102
RTVSPost2010Prop47
 90
       50
102
RTVSPost2010PropOp47
 70
     1
102
RTVSPost2010Prop48
 90
       50
102
RTVSPost2010PropOp48
 70
     1
102
RTVSPost2010Prop49
280
     0
102
RTVSPost2010PropOp49
 70
     1
102
RTVSPost2010Prop50
 90
       50
102
RTVSPost2010PropOp50
 70
     1
102
RTVSPost2010Prop51ColorIndex
 90
      256
102
RTVSPost2010Prop51ColorRGB
 90
-16777216
102
RTVSPost2010PropOp51
 70
     0
102
RTVSPost2010Prop52
140
1.0
102
RTVSPost2010PropOp52
 70
     0
102
RTVSPost2010Prop53
 90
        2
102
RTVSPost2010PropOp53
 70
     1
102
RTVSPost2010Prop54
  1
strokes_ogs.tif
102
RTVSPost2010PropOp54
 70
     1
102
RTVSPost2010Prop55
280
     0
102
RTVSPost2010PropOp55
 70
     1
102
RTVSPost2010Prop56
140
1.0
102
RTVSPost2010PropOp56
 70
     1
102
RTVSPost2010Prop57
140
1.0
102
RTVSPost2010PropOp57
 70
     1
  0
XRECORD
  5
2A4
102
{ACAD_REACTORS
330
2A3
102
}
330
2A3
100
AcDbXrecord
280
     1
102
RTVSPost2010Prop28
280
     0
102
RTVSPost2010PropOp28
 70
     1
102
RTVSPost2010Prop29
280
     1
102
RTVSPost2010PropOp29
 70
     1
102
RTVSPost2010Prop30
280
     1
102
RTVSPost2010PropOp30
 70
     1
102
RTVSPost2010Prop31
280
     0
102
RTVSPost2010PropOp31
 70
     1
102
RTVSPost2010Prop32
280
     0
102
RTVSPost2010PropOp32
 70
     1
102
RTVSPost2010Prop33
280
     0
102
RTVSPost2010PropOp33
 70
     1
102
RTVSPost2010Prop34
280
     0
102
RTVSPost2010PropOp34
 70
     1
102
RTVSPost2010Prop35
280
     0
102
RTVSPost2010PropOp35
 70
     1
102
RTVSPost2010Prop36
280
     0
102
RTVSPost2010PropOp36
 70
     1
102
RTVSPost2010Prop37
 90
       50
102
RTVSPost2010PropOp37
 70
     1
102
RTVSPost2010Prop38
140
0.0
102
RTVSPost2010PropOp38
 70
     1
102
RTVSPost2010Prop39
140
1.0
102
RTVSPost2010PropOp39
 70
     1
102
RTVSPost2010Prop40
 90
        0
102
RTVSPost2010PropOp40
 70
     1
102
RTVSPost2010Prop41ColorIndex
 90
       18
102
RTVSPost2010Prop41ColorRGB
 90
        0
102
RTVSPost2010PropOp41
 70
     1
102
RTVSPost2010Prop42
 90
       50
102
RTVSPost2010PropOp42
 70
     1
102
RTVSPost2010Prop43
 90
        3
102
RTVSPost2010PropOp43
 70
     1
102
RTVSPost2010Prop44ColorIndex
 90
        5
102
RTVSPost2010Prop44ColorRGB
 90
      255
102
RTVSPost2010PropOp44
 70
     1
102
RTVSPost2010Prop45
280
     0
102
RTVSPost2010PropOp45
 70
     1
102
RTVSPost2010Prop46
 90
       50
102
RTVSPost2010PropOp46
 70
     1
102
RTVSPost2010Prop47
 90
       50
102
RTVSPost2010PropOp47
 70
     1
102
RTVSPost2010Prop48
 90
       50
102
RTVSPost2010PropOp48
 70
     1
102
RTVSPost2010Prop49
280
     0
102
RTVSPost2010PropOp49
 70
     1
102
RTVSPost2010Prop50
 90
       50
102
RTVSPost2010PropOp50
 70
     1
102
RTVSPost2010Prop51ColorIndex
 90
      256
102
RTVSPost2010Prop51ColorRGB
 90
-16777216
102
RTVSPost2010PropOp51
 70
     0
102
RTVSPost2010Prop52
140
1.0
102
RTVSPost2010PropOp52
 70
     0
102
RTVSPost2010Prop53
 90
        2
102
RTVSPost2010PropOp53
 70
     1
102
RTVSPost2010Prop54
  1
strokes_ogs.tif
102
RTVSPost2010PropOp54
 70
     1
102
RTVSPost2010Prop55
280
     0
102
RTVSPost2010PropOp55
 70
     1
102
RTVSPost2010Prop56
140
1.0
102
RTVSPost2010PropOp56
 70
     1
102
RTVSPost2010Prop57
140
1.0
102
RTVSPost2010PropOp57
 70
     1
  0
XRECORD
  5
2A6
102
{ACAD_REACTORS
330
2A5
102
}
330
2A5
100
AcDbXrecord
280
     1
102
RTVSPost2010Prop28
280
     0
102
RTVSPost2010PropOp28
 70
     1
102
RTVSPost2010Prop29
280
     1
102
RTVSPost2010PropOp29
 70
     1
102
RTVSPost2010Prop30
280
     1
102
RTVSPost2010PropOp30
 70
     1
102
RTVSPost2010Prop31
280
     0
102
RTVSPost2010PropOp31
 70
     1
102
RTVSPost2010Prop32
280
     0
102
RTVSPost2010PropOp32
 70
     1
102
RTVSPost2010Prop33
280
     0
102
RTVSPost2010PropOp33
 70
     1
102
RTVSPost2010Prop34
280
     0
102
RTVSPost2010PropOp34
 70
     1
102
RTVSPost2010Prop35
280
     0
102
RTVSPost2010PropOp35
 70
     1
102
RTVSPost2010Prop36
280
     0
102
RTVSPost2010PropOp36
 70
     1
102
RTVSPost2010Prop37
 90
       50
102
RTVSPost2010PropOp37
 70
     1
102
RTVSPost2010Prop38
140
0.0
102
RTVSPost2010PropOp38
 70
     1
102
RTVSPost2010Prop39
140
1.0
102
RTVSPost2010PropOp39
 70
     1
102
RTVSPost2010Prop40
 90
        0
102
RTVSPost2010PropOp40
 70
     1
102
RTVSPost2010Prop41ColorIndex
 90
       18
102
RTVSPost2010Prop41ColorRGB
 90
        0
102
RTVSPost2010PropOp41
 70
     1
102
RTVSPost2010Prop42
 90
       50
102
RTVSPost2010PropOp42
 70
     1
102
RTVSPost2010Prop43
 90
        3
102
RTVSPost2010PropOp43
 70
     1
102
RTVSPost2010Prop44ColorIndex
 90
        5
102
RTVSPost2010Prop44ColorRGB
 90
      255
102
RTVSPost2010PropOp44
 70
     1
102
RTVSPost2010Prop45
280
     0
102
RTVSPost2010PropOp45
 70
     1
102
RTVSPost2010Prop46
 90
       50
102
RTVSPost2010PropOp46
 70
     1
102
RTVSPost2010Prop47
 90
       50
102
RTVSPost2010PropOp47
 70
     1
102
RTVSPost2010Prop48
 90
       50
102
RTVSPost2010PropOp48
 70
     1
102
RTVSPost2010Prop49
280
     0
102
RTVSPost2010PropOp49
 70
     1
102
RTVSPost2010Prop50
 90
       50
102
RTVSPost2010PropOp50
 70
     1
102
RTVSPost2010Prop51ColorIndex
 90
      256
102
RTVSPost2010Prop51ColorRGB
 90
-16777216
102
RTVSPost2010PropOp51
 70
     0
102
RTVSPost2010Prop52
140
1.0
102
RTVSPost2010PropOp52
 70
     0
102
RTVSPost2010Prop53
 90
        2
102
RTVSPost2010PropOp53
 70
     1
102
RTVSPost2010Prop54
  1
strokes_ogs.tif
102
RTVSPost2010PropOp54
 70
     1
102
RTVSPost2010Prop55
280
     0
102
RTVSPost2010PropOp55
 70
     1
102
RTVSPost2010Prop56
140
1.0
102
RTVSPost2010PropOp56
 70
     1
102
RTVSPost2010Prop57
140
1.0
102
RTVSPost2010PropOp57
 70
     1
  0
XRECORD
  5
298
102
{ACAD_REACTORS
330
297
102
}
330
297
100
AcDbXrecord
280
     1
102
RTVSPost2010Prop28
280
     0
102
RTVSPost2010PropOp28
 70
     1
102
RTVSPost2010Prop29
280
     1
102
RTVSPost2010PropOp29
 70
     1
102
RTVSPost2010Prop30
280
     1
102
RTVSPost2010PropOp30
 70
     1
102
RTVSPost2010Prop31
280
     0
102
RTVSPost2010PropOp31
 70
     1
102
RTVSPost2010Prop32
280
     0
102
RTVSPost2010PropOp32
 70
     1
102
RTVSPost2010Prop33
280
     0
102
RTVSPost2010PropOp33
 70
     1
102
RTVSPost2010Prop34
280
     0
102
RTVSPost2010PropOp34
 70
     1
102
RTVSPost2010Prop35
280
     0
102
RTVSPost2010PropOp35
 70
     1
102
RTVSPost2010Prop36
280
     0
102
RTVSPost2010PropOp36
 70
     1
102
RTVSPost2010Prop37
 90
       50
102
RTVSPost2010PropOp37
 70
     1
102
RTVSPost2010Prop38
140
0.0
102
RTVSPost2010PropOp38
 70
     1
102
RTVSPost2010Prop39
140
1.0
102
RTVSPost2010PropOp39
 70
     1
102
RTVSPost2010Prop40
 90
        0
102
RTVSPost2010PropOp40
 70
     1
102
RTVSPost2010Prop41ColorIndex
 90
       18
102
RTVSPost2010Prop41ColorRGB
 90
        0
102
RTVSPost2010PropOp41
 70
     1
102
RTVSPost2010Prop42
 90
       50
102
RTVSPost2010PropOp42
 70
     1
102
RTVSPost2010Prop43
 90
        3
102
RTVSPost2010PropOp43
 70
     1
102
RTVSPost2010Prop44ColorIndex
 90
        5
102
RTVSPost2010Prop44ColorRGB
 90
      255
102
RTVSPost2010PropOp44
 70
     1
102
RTVSPost2010Prop45
280
     0
102
RTVSPost2010PropOp45
 70
     1
102
RTVSPost2010Prop46
 90
       50
102
RTVSPost2010PropOp46
 70
     1
102
RTVSPost2010Prop47
 90
       50
102
RTVSPost2010PropOp47
 70
     1
102
RTVSPost2010Prop48
 90
       50
102
RTVSPost2010PropOp48
 70
     1
102
RTVSPost2010Prop49
280
     0
102
RTVSPost2010PropOp49
 70
     1
102
RTVSPost2010Prop50
 90
       50
102
RTVSPost2010PropOp50
 70
     1
102
RTVSPost2010Prop51ColorIndex
 90
      256
102
RTVSPost2010Prop51ColorRGB
 90
-16777216
102
RTVSPost2010PropOp51
 70
     0
102
RTVSPost2010Prop52
140
1.0
102
RTVSPost2010PropOp52
 70
     0
102
RTVSPost2010Prop53
 90
        2
102
RTVSPost2010PropOp53
 70
     1
102
RTVSPost2010Prop54
  1
strokes_ogs.tif
102
RTVSPost2010PropOp54
 70
     1
102
RTVSPost2010Prop55
280
     0
102
RTVSPost2010PropOp55
 70
     1
102
RTVSPost2010Prop56
140
1.0
102
RTVSPost2010PropOp56
 70
     1
102
RTVSPost2010Prop57
140
1.0
102
RTVSPost2010PropOp57
 70
     1
  0
XRECORD
  5
2A0
102
{ACAD_REACTORS
330
29F
102
}
330
29F
100
AcDbXrecord
280
     1
102
RTVSPost2010Prop28
280
     0
102
RTVSPost2010PropOp28
 70
     1
102
RTVSPost2010Prop29
280
     1
102
RTVSPost2010PropOp29
 70
     1
102
RTVSPost2010Prop30
280
     1
102
RTVSPost2010PropOp30
 70
     1
102
RTVSPost2010Prop31
280
     0
102
RTVSPost2010PropOp31
 70
     1
102
RTVSPost2010Prop32
280
     0
102
RTVSPost2010PropOp32
 70
     1
102
RTVSPost2010Prop33
280
     0
102
RTVSPost2010PropOp33
 70
     1
102
RTVSPost2010Prop34
280
     0
102
RTVSPost2010PropOp34
 70
     1
102
RTVSPost2010Prop35
280
     0
102
RTVSPost2010PropOp35
 70
     1
102
RTVSPost2010Prop36
280
     0
102
RTVSPost2010PropOp36
 70
     1
102
RTVSPost2010Prop37
 90
       50
102
RTVSPost2010PropOp37
 70
     1
102
RTVSPost2010Prop38
140
0.0
102
RTVSPost2010PropOp38
 70
     1
102
RTVSPost2010Prop39
140
1.0
102
RTVSPost2010PropOp39
 70
     1
102
RTVSPost2010Prop40
 90
        0
102
RTVSPost2010PropOp40
 70
     1
102
RTVSPost2010Prop41ColorIndex
 90
       18
102
RTVSPost2010Prop41ColorRGB
 90
        0
102
RTVSPost2010PropOp41
 70
     1
102
RTVSPost2010Prop42
 90
       50
102
RTVSPost2010PropOp42
 70
     1
102
RTVSPost2010Prop43
 90
        3
102
RTVSPost2010PropOp43
 70
     1
102
RTVSPost2010Prop44ColorIndex
 90
        5
102
RTVSPost2010Prop44ColorRGB
 90
      255
102
RTVSPost2010PropOp44
 70
     1
102
RTVSPost2010Prop45
280
     0
102
RTVSPost2010PropOp45
 70
     1
102
RTVSPost2010Prop46
 90
       50
102
RTVSPost2010PropOp46
 70
     1
102
RTVSPost2010Prop47
 90
       50
102
RTVSPost2010PropOp47
 70
     1
102
RTVSPost2010Prop48
 90
       50
102
RTVSPost2010PropOp48
 70
     1
102
RTVSPost2010Prop49
280
     0
102
RTVSPost2010PropOp49
 70
     1
102
RTVSPost2010Prop50
 90
       50
102
RTVSPost2010PropOp50
 70
     1
102
RTVSPost2010Prop51ColorIndex
 90
      256
102
RTVSPost2010Prop51ColorRGB
 90
-16777216
102
RTVSPost2010PropOp51
 70
     0
102
RTVSPost2010Prop52
140
1.0
102
RTVSPost2010PropOp52
 70
     0
102
RTVSPost2010Prop53
 90
        2
102
RTVSPost2010PropOp53
 70
     1
102
RTVSPost2010Prop54
  1
strokes_ogs.tif
102
RTVSPost2010PropOp54
 70
     1
102
RTVSPost2010Prop55
280
     0
102
RTVSPost2010PropOp55
 70
     1
102
RTVSPost2010Prop56
140
1.0
102
RTVSPost2010PropOp56
 70
     1
102
RTVSPost2010Prop57
140
1.0
102
RTVSPost2010PropOp57
 70
     1
  0
XRECORD
  5
2A8
102
{ACAD_REACTORS
330
2A7
102
}
330
2A7
100
AcDbXrecord
280
     1
102
RTVSPost2010Prop28
280
     0
102
RTVSPost2010PropOp28
 70
     1
102
RTVSPost2010Prop29
280
     1
102
RTVSPost2010PropOp29
 70
     1
102
RTVSPost2010Prop30
280
     1
102
RTVSPost2010PropOp30
 70
     1
102
RTVSPost2010Prop31
280
     0
102
RTVSPost2010PropOp31
 70
     1
102
RTVSPost2010Prop32
280
     0
102
RTVSPost2010PropOp32
 70
     1
102
RTVSPost2010Prop33
280
     0
102
RTVSPost2010PropOp33
 70
     1
102
RTVSPost2010Prop34
280
     0
102
RTVSPost2010PropOp34
 70
     1
102
RTVSPost2010Prop35
280
     0
102
RTVSPost2010PropOp35
 70
     1
102
RTVSPost2010Prop36
280
     0
102
RTVSPost2010PropOp36
 70
     1
102
RTVSPost2010Prop37
 90
       50
102
RTVSPost2010PropOp37
 70
     1
102
RTVSPost2010Prop38
140
0.0
102
RTVSPost2010PropOp38
 70
     1
102
RTVSPost2010Prop39
140
1.0
102
RTVSPost2010PropOp39
 70
     1
102
RTVSPost2010Prop40
 90
        0
102
RTVSPost2010PropOp40
 70
     1
102
RTVSPost2010Prop41ColorIndex
 90
       18
102
RTVSPost2010Prop41ColorRGB
 90
        0
102
RTVSPost2010PropOp41
 70
     1
102
RTVSPost2010Prop42
 90
       50
102
RTVSPost2010PropOp42
 70
     1
102
RTVSPost2010Prop43
 90
        3
102
RTVSPost2010PropOp43
 70
     1
102
RTVSPost2010Prop44ColorIndex
 90
        5
102
RTVSPost2010Prop44ColorRGB
 90
      255
102
RTVSPost2010PropOp44
 70
     1
102
RTVSPost2010Prop45
280
     0
102
RTVSPost2010PropOp45
 70
     1
102
RTVSPost2010Prop46
 90
       50
102
RTVSPost2010PropOp46
 70
     1
102
RTVSPost2010Prop47
 90
       50
102
RTVSPost2010PropOp47
 70
     1
102
RTVSPost2010Prop48
 90
       50
102
RTVSPost2010PropOp48
 70
     1
102
RTVSPost2010Prop49
280
     0
102
RTVSPost2010PropOp49
 70
     1
102
RTVSPost2010Prop50
 90
       50
102
RTVSPost2010PropOp50
 70
     1
102
RTVSPost2010Prop51ColorIndex
 90
      256
102
RTVSPost2010Prop51ColorRGB
 90
-16777216
102
RTVSPost2010PropOp51
 70
     0
102
RTVSPost2010Prop52
140
1.0
102
RTVSPost2010PropOp52
 70
     0
102
RTVSPost2010Prop53
 90
        2
102
RTVSPost2010PropOp53
 70
     1
102
RTVSPost2010Prop54
  1
strokes_ogs.tif
102
RTVSPost2010PropOp54
 70
     1
102
RTVSPost2010Prop55
280
     0
102
RTVSPost2010PropOp55
 70
     1
102
RTVSPost2010Prop56
140
1.0
102
RTVSPost2010PropOp56
 70
     1
102
RTVSPost2010Prop57
140
1.0
102
RTVSPost2010PropOp57
 70
     1
  0
ENDSEC
  0
EOF
