  0
SECTION
  2
HEADER
  9
$ACADVER
  1
AC1024
  9
$ACADMAINTVER
 70
   226
  9
$DWGCODEPAGE
  3
ANSI_1252
  9
$LASTSAVEDBY
  1
RubenvandenEijkel
  9
$INSBASE
 10
0.0
 20
0.0
 30
0.0
  9
$EXTMIN
 10
-0.0320410123467809
 20
-0.0453151460337722
 30
-0.0320410123467809
  9
$EXTMAX
 10
1050.03204590179
 20
1485.045322061103
 30
0.0480664079636881
  9
$LIMMIN
 10
0.0
 20
0.0
  9
$LIMMAX
 10
1050.0
 20
1485.0
  9
$ORTHOMODE
 70
     0
  9
$REGENMODE
 70
     1
  9
$FILLMODE
 70
     1
  9
$QTEXTMODE
 70
     0
  9
$MIRRTEXT
 70
     1
  9
$LTSCALE
 40
1.0
  9
$ATTMODE
 70
     1
  9
$TEXTSIZE
 40
0.2
  9
$TRACEWID
 40
0.05
  9
$TEXTSTYLE
  7
Standard
  9
$CLAYER
  8
0
  9
$CELTYPE
  6
ByLayer
  9
$CECOLOR
 62
   256
  9
$CELTSCALE
 40
1.0
  9
$DISPSILH
 70
     0
  9
$DIMSCALE
 40
1.0
  9
$DIMASZ
 40
0.18
  9
$DIMEXO
 40
0.0625
  9
$DIMDLI
 40
0.38
  9
$DIMRND
 40
0.0
  9
$DIMDLE
 40
0.0
  9
$DIMEXE
 40
0.18
  9
$DIMTP
 40
0.0
  9
$DIMTM
 40
0.0
  9
$DIMTXT
 40
0.18
  9
$DIMCEN
 40
0.09
  9
$DIMTSZ
 40
0.0
  9
$DIMTOL
 70
     0
  9
$DIMLIM
 70
     0
  9
$DIMTIH
 70
     1
  9
$DIMTOH
 70
     1
  9
$DIMSE1
 70
     0
  9
$DIMSE2
 70
     0
  9
$DIMTAD
 70
     0
  9
$DIMZIN
 70
     0
  9
$DIMBLK
  1

  9
$DIMASO
 70
     1
  9
$DIMSHO
 70
     1
  9
$DIMPOST
  1

  9
$DIMAPOST
  1

  9
$DIMALT
 70
     0
  9
$DIMALTD
 70
     2
  9
$DIMALTF
 40
25.4
  9
$DIMLFAC
 40
1.0
  9
$DIMTOFL
 70
     0
  9
$DIMTVP
 40
0.0
  9
$DIMTIX
 70
     0
  9
$DIMSOXD
 70
     0
  9
$DIMSAH
 70
     0
  9
$DIMBLK1
  1

  9
$DIMBLK2
  1

  9
$DIMSTYLE
  2
Standard
  9
$DIMCLRD
 70
     0
  9
$DIMCLRE
 70
     0
  9
$DIMCLRT
 70
     0
  9
$DIMTFAC
 40
1.0
  9
$DIMGAP
 40
0.09
  9
$DIMJUST
 70
     0
  9
$DIMSD1
 70
     0
  9
$DIMSD2
 70
     0
  9
$DIMTOLJ
 70
     1
  9
$DIMTZIN
 70
     0
  9
$DIMALTZ
 70
     0
  9
$DIMALTTZ
 70
     0
  9
$DIMUPT
 70
     0
  9
$DIMDEC
 70
     4
  9
$DIMTDEC
 70
     4
  9
$DIMALTU
 70
     2
  9
$DIMALTTD
 70
     2
  9
$DIMTXSTY
  7
Standard
  9
$DIMAUNIT
 70
     0
  9
$DIMADEC
 70
     0
  9
$DIMALTRND
 40
0.0
  9
$DIMAZIN
 70
     0
  9
$DIMDSEP
 70
    46
  9
$DIMATFIT
 70
     3
  9
$DIMFRAC
 70
     0
  9
$DIMLDRBLK
  1

  9
$DIMLUNIT
 70
     2
  9
$DIMLWD
 70
    -2
  9
$DIMLWE
 70
    -2
  9
$DIMTMOVE
 70
     0
  9
$DIMFXL
 40
1.0
  9
$DIMFXLON
 70
     0
  9
$DIMJOGANG
 40
0.7853981633974483
  9
$DIMTFILL
 70
     0
  9
$DIMTFILLCLR
 70
     0
  9
$DIMARCSYM
 70
     0
  9
$DIMLTYPE
  6

  9
$DIMLTEX1
  6

  9
$DIMLTEX2
  6

  9
$DIMTXTDIRECTION
 70
     0
  9
$LUNITS
 70
     2
  9
$LUPREC
 70
     4
  9
$SKETCHINC
 40
0.1
  9
$FILLETRAD
 40
0.5
  9
$AUNITS
 70
     0
  9
$AUPREC
 70
     0
  9
$MENU
  1
.
  9
$ELEVATION
 40
0.0
  9
$PELEVATION
 40
0.0
  9
$THICKNESS
 40
0.0
  9
$LIMCHECK
 70
     0
  9
$CHAMFERA
 40
0.5
  9
$CHAMFERB
 40
0.5
  9
$CHAMFERC
 40
1.0
  9
$CHAMFERD
 40
0.0
  9
$SKPOLY
 70
     0
  9
$TDCREATE
 40
2459314.714074074
  9
$TDUCREATE
 40
2459314.630744317
  9
$TDUPDATE
 40
2459314.723854167
  9
$TDUUPDATE
 40
2459314.640520834
  9
$TDINDWG
 40
0.0091088079
  9
$TDUSRTIMER
 40
0.0091088079
  9
$USRTIMER
 70
     1
  9
$ANGBASE
 50
0.0
  9
$ANGDIR
 70
     0
  9
$PDMODE
 70
    65
  9
$PDSIZE
 40
0.0
  9
$PLINEWID
 40
0.0
  9
$SPLFRAME
 70
     0
  9
$SPLINETYPE
 70
     6
  9
$SPLINESEGS
 70
     8
  9
$HANDSEED
  5
265
  9
$SURFTAB1
 70
     6
  9
$SURFTAB2
 70
     6
  9
$SURFTYPE
 70
     6
  9
$SURFU
 70
     6
  9
$SURFV
 70
     6
  9
$UCSBASE
  2

  9
$UCSNAME
  2

  9
$UCSORG
 10
0.0
 20
0.0
 30
0.0
  9
$UCSXDIR
 10
1.0
 20
0.0
 30
0.0
  9
$UCSYDIR
 10
0.0
 20
1.0
 30
0.0
  9
$UCSORTHOREF
  2

  9
$UCSORTHOVIEW
 70
     0
  9
$UCSORGTOP
 10
0.0
 20
0.0
 30
0.0
  9
$UCSORGBOTTOM
 10
0.0
 20
0.0
 30
0.0
  9
$UCSORGLEFT
 10
0.0
 20
0.0
 30
0.0
  9
$UCSORGRIGHT
 10
0.0
 20
0.0
 30
0.0
  9
$UCSORGFRONT
 10
0.0
 20
0.0
 30
0.0
  9
$UCSORGBACK
 10
0.0
 20
0.0
 30
0.0
  9
$PUCSBASE
  2

  9
$PUCSNAME
  2

  9
$PUCSORG
 10
0.0
 20
0.0
 30
0.0
  9
$PUCSXDIR
 10
1.0
 20
0.0
 30
0.0
  9
$PUCSYDIR
 10
0.0
 20
1.0
 30
0.0
  9
$PUCSORTHOREF
  2

  9
$PUCSORTHOVIEW
 70
     0
  9
$PUCSORGTOP
 10
0.0
 20
0.0
 30
0.0
  9
$PUCSORGBOTTOM
 10
0.0
 20
0.0
 30
0.0
  9
$PUCSORGLEFT
 10
0.0
 20
0.0
 30
0.0
  9
$PUCSORGRIGHT
 10
0.0
 20
0.0
 30
0.0
  9
$PUCSORGFRONT
 10
0.0
 20
0.0
 30
0.0
  9
$PUCSORGBACK
 10
0.0
 20
0.0
 30
0.0
  9
$USERI1
 70
     0
  9
$USERI2
 70
     0
  9
$USERI3
 70
     0
  9
$USERI4
 70
     0
  9
$USERI5
 70
     0
  9
$USERR1
 40
0.0
  9
$USERR2
 40
0.0
  9
$USERR3
 40
0.0
  9
$USERR4
 40
0.0
  9
$USERR5
 40
0.0
  9
$WORLDVIEW
 70
     1
  9
$SHADEDGE
 70
     3
  9
$SHADEDIF
 70
    70
  9
$TILEMODE
 70
     1
  9
$MAXACTVP
 70
    64
  9
$PINSBASE
 10
0.0
 20
0.0
 30
0.0
  9
$PLIMCHECK
 70
     0
  9
$PEXTMIN
 10
1.000000000000000E+20
 20
1.000000000000000E+20
 30
1.000000000000000E+20
  9
$PEXTMAX
 10
-1.000000000000000E+20
 20
-1.000000000000000E+20
 30
-1.000000000000000E+20
  9
$PLIMMIN
 10
0.0
 20
0.0
  9
$PLIMMAX
 10
12.0
 20
9.0
  9
$UNITMODE
 70
     0
  9
$VISRETAIN
 70
     1
  9
$PLINEGEN
 70
     0
  9
$PSLTSCALE
 70
     1
  9
$TREEDEPTH
 70
  3020
  9
$CMLSTYLE
  2
Standard
  9
$CMLJUST
 70
     0
  9
$CMLSCALE
 40
1.0
  9
$PROXYGRAPHICS
 70
     1
  9
$MEASUREMENT
 70
     1
  9
$CELWEIGHT
370
    -1
  9
$ENDCAPS
280
     0
  9
$JOINSTYLE
280
     0
  9
$LWDISPLAY
290
     0
  9
$INSUNITS
 70
     4
  9
$HYPERLINKBASE
  1

  9
$STYLESHEET
  1

  9
$XEDIT
290
     1
  9
$CEPSNTYPE
380
     0
  9
$PSTYLEMODE
290
     1
  9
$FINGERPRINTGUID
  2
{22978057-CAF9-4AB5-9F4B-0CCD1FCFC78F}
  9
$VERSIONGUID
  2
{A4FAC629-2E7C-304C-B839-0FEAAE7683B6}
  9
$EXTNAMES
290
     1
  9
$PSVPSCALE
 40
0.0
  9
$OLESTARTUP
290
     0
  9
$SORTENTS
280
   127
  9
$INDEXCTL
280
     0
  9
$HIDETEXT
280
     1
  9
$XCLIPFRAME
280
     2
  9
$HALOGAP
280
     0
  9
$OBSCOLOR
 70
   257
  9
$OBSLTYPE
280
     0
  9
$INTERSECTIONDISPLAY
280
     0
  9
$INTERSECTIONCOLOR
 70
   257
  9
$DIMASSOC
280
     2
  9
$PROJECTNAME
  1

  9
$CAMERADISPLAY
290
     0
  9
$LENSLENGTH
 40
50.0
  9
$CAMERAHEIGHT
 40
0.0
  9
$STEPSPERSEC
 40
2.0
  9
$STEPSIZE
 40
6.0
  9
$3DDWFPREC
 40
2.0
  9
$PSOLWIDTH
 40
0.25
  9
$PSOLHEIGHT
 40
4.0
  9
$LOFTANG1
 40
1.570796326794896
  9
$LOFTANG2
 40
1.570796326794896
  9
$LOFTMAG1
 40
0.0
  9
$LOFTMAG2
 40
0.0
  9
$LOFTPARAM
 70
     7
  9
$LOFTNORMALS
280
     1
  9
$LATITUDE
 40
37.795
  9
$LONGITUDE
 40
-122.394
  9
$NORTHDIRECTION
 40
0.0
  9
$TIMEZONE
 70
 -8000
  9
$LIGHTGLYPHDISPLAY
280
     1
  9
$TILEMODELIGHTSYNCH
280
     1
  9
$CMATERIAL
347
3C
  9
$SOLIDHIST
280
     1
  9
$SHOWHIST
280
     1
  9
$DWFFRAME
280
     2
  9
$DGNFRAME
280
     2
  9
$REALWORLDSCALE
290
     1
  9
$INTERFERECOLOR
 62
   256
  9
$INTERFEREOBJVS
345
33
  9
$INTERFEREVPVS
346
15F
  9
$CSHADOW
280
     0
  9
$SHADOWPLANELOCATION
 40
0.0
  0
ENDSEC
  0
SECTION
  2
CLASSES
  0
CLASS
  1
ACDBDICTIONARYWDFLT
  2
AcDbDictionaryWithDefault
  3
ObjectDBX Classes
 90
        0
 91
        1
280
     0
281
     0
  0
CLASS
  1
VISUALSTYLE
  2
AcDbVisualStyle
  3
ObjectDBX Classes
 90
     4095
 91
       26
280
     0
281
     0
  0
CLASS
  1
MATERIAL
  2
AcDbMaterial
  3
ObjectDBX Classes
 90
     1153
 91
        3
280
     0
281
     0
  0
CLASS
  1
SCALE
  2
AcDbScale
  3
ObjectDBX Classes
 90
     1153
 91
       33
280
     0
281
     0
  0
CLASS
  1
SORTENTSTABLE
  2
AcDbSortentsTable
  3
ObjectDBX Classes
 90
        0
 91
        1
280
     0
281
     0
  0
CLASS
  1
DICTIONARYVAR
  2
AcDbDictionaryVar
  3
ObjectDBX Classes
 90
        0
 91
        9
280
     0
281
     0
  0
CLASS
  1
TABLESTYLE
  2
AcDbTableStyle
  3
ObjectDBX Classes
 90
     4095
 91
        1
280
     0
281
     0
  0
CLASS
  1
MLEADERSTYLE
  2
AcDbMLeaderStyle
  3
ACDB_MLEADERSTYLE_CLASS
 90
     4095
 91
        1
280
     0
281
     0
  0
CLASS
  1
ACDBSECTIONVIEWSTYLE
  2
AcDbSectionViewStyle
  3
ObjectDBX Classes
 90
     1025
 91
        1
280
     0
281
     0
  0
CLASS
  1
ACDBDETAILVIEWSTYLE
  2
AcDbDetailViewStyle
  3
ObjectDBX Classes
 90
     1025
 91
        1
280
     0
281
     0
  0
CLASS
  1
CELLSTYLEMAP
  2
AcDbCellStyleMap
  3
ObjectDBX Classes
 90
     1152
 91
        1
280
     0
281
     0
  0
ENDSEC
  0
SECTION
  2
TABLES
  0
TABLE
  2
VPORT
  5
8
330
0
100
AcDbSymbolTable
 70
     1
  0
VPORT
  5
29
330
8
100
AcDbSymbolTableRecord
100
AcDbViewportTableRecord
  2
*Active
 70
     0
 10
0.0
 20
0.0
 11
1.0
 21
1.0
 12
525.0000024447217
 22
742.5000034575348
 13
0.0
 23
0.0
 14
0.5
 24
0.5
 15
0.5
 25
0.5
 16
0.0
 26
0.0
 36
1.0
 17
0.0
 27
0.0
 37
0.0
 40
1495.723744394778
 41
1.806451612903225
 42
50.0
 43
0.0
 44
0.0
 50
0.0
 51
0.0
 71
     0
 72
   100
 73
     1
 74
     3
 75
     0
 76
     0
 77
     0
 78
     0
281
     0
 65
     1
110
0.0
120
0.0
130
0.0
111
1.0
121
0.0
131
0.0
112
0.0
122
1.0
132
0.0
 79
     0
146
0.0
348
2F
 60
     3
 61
     5
292
     1
282
     1
141
0.0
142
0.0
 63
   250
1001
ACAD_NAV_VCDISPLAY
1070
     3
  0
ENDTAB
  0
TABLE
  2
LTYPE
  5
5
330
0
100
AcDbSymbolTable
 70
     5
  0
LTYPE
  5
14
330
5
100
AcDbSymbolTableRecord
100
AcDbLinetypeTableRecord
  2
ByBlock
 70
     0
  3

 72
    65
 73
     0
 40
0.0
  0
LTYPE
  5
15
330
5
100
AcDbSymbolTableRecord
100
AcDbLinetypeTableRecord
  2
ByLayer
 70
     0
  3

 72
    65
 73
     0
 40
0.0
  0
LTYPE
  5
16
330
5
100
AcDbSymbolTableRecord
100
AcDbLinetypeTableRecord
  2
Continuous
 70
     0
  3
Solid line
 72
    65
 73
     0
 40
0.0
  0
LTYPE
  5
41
330
5
100
AcDbSymbolTableRecord
100
AcDbLinetypeTableRecord
  2
PUNKT2_S9
 70
     0
  3
Eng Punktiert
 72
    65
 73
     2
 40
5.0
 49
0.0
 74
     0
 49
-5.0
 74
     0
  0
LTYPE
  5
42
330
5
100
AcDbSymbolTableRecord
100
AcDbLinetypeTableRecord
  2
STRICHPUNKT2_S5
 70
     0
  3
Lang eng gestrichelt bzw. punktiert
 72
    65
 73
     4
 40
55.0
 49
40.0
 74
     0
 49
-5.0
 74
     0
 49
5.0
 74
     0
 49
-5.0
 74
     0
  0
LTYPE
  5
43
330
5
100
AcDbSymbolTableRecord
100
AcDbLinetypeTableRecord
  2
VERDECKT2_S2
 70
     0
  3
Kurzgestrichelt
 72
    65
 73
     2
 40
13.5
 49
10.0
 74
     0
 49
-3.5
 74
     0
  0
ENDTAB
  0
TABLE
  2
LAYER
  5
2
102
{ACAD_XDICTIONARY
360
1CD
102
}
330
0
100
AcDbSymbolTable
 70
    15
  0
LAYER
  5
10
330
2
100
AcDbSymbolTableRecord
100
AcDbLayerTableRecord
  2
0
 70
     0
 62
     7
  6
Continuous
370
    -3
390
F
347
3E
  0
LAYER
  5
44
330
2
100
AcDbSymbolTableRecord
100
AcDbLayerTableRecord
  2
AANHAALLIJN
 70
     0
 62
     7
  6
Continuous
370
    18
390
F
347
3E
1001
AcAecLayerStandard
1000

1000
000101, on
  0
LAYER
  5
46
330
2
100
AcDbSymbolTableRecord
100
AcDbLayerTableRecord
  2
AFBREEKLIJNEN
 70
     0
 62
     7
  6
Continuous
370
    35
390
F
347
3E
1001
AcAecLayerStandard
1000

1000
000201, on
  0
LAYER
  5
47
330
2
100
AcDbSymbolTableRecord
100
AcDbLayerTableRecord
  2
ANKER
 70
     0
 62
     7
  6
Continuous
370
    25
390
F
347
3E
1001
AcAecLayerStandard
1000

1000
282213, on
  0
LAYER
  5
48
330
2
100
AcDbSymbolTableRecord
100
AcDbLayerTableRecord
  2
BAKSTEEN
 70
     0
 62
    30
  6
Continuous
370
    70
390
F
347
3E
1001
AcAecLayerStandard
1000

1000
21121, on
  0
LAYER
  5
49
330
2
100
AcDbSymbolTableRecord
100
AcDbLayerTableRecord
  2
BETONNEN DAKPANNEN
 70
     0
 62
     5
  6
Continuous
370
    35
390
F
347
3E
1001
AcAecLayerStandard
1000

1000
47125, on
  0
LAYER
  5
4A
330
2
100
AcDbSymbolTableRecord
100
AcDbLayerTableRecord
  2
DILALATIEVOEG EN AFDICHTING
 70
     0
 62
     5
  6
Continuous
370
    35
390
F
347
3E
1001
AcAecLayerStandard
1000

1000
211031, on
  0
LAYER
  5
4B
330
2
100
AcDbSymbolTableRecord
100
AcDbLayerTableRecord
  2
GLASWOL
 70
     0
 62
     5
  6
Continuous
370
    35
390
F
347
3E
1001
AcAecLayerStandard
1000

1000
223112, on
  0
LAYER
  5
4C
330
2
100
AcDbSymbolTableRecord
100
AcDbLayerTableRecord
  2
GOTEN
 70
     0
 62
     7
  6
Continuous
370
    25
390
F
347
3E
1001
AcAecLayerStandard
1000

1000
52122, on
  0
LAYER
  5
4D
330
2
100
AcDbSymbolTableRecord
100
AcDbLayerTableRecord
  2
KALKZANDSTEEN
 70
     0
 62
     2
  6
Continuous
370
   100
390
F
347
3E
1001
AcAecLayerStandard
1000

1000
22223, on
  0
LAYER
  5
4E
330
2
100
AcDbSymbolTableRecord
100
AcDbLayerTableRecord
  2
Maatlijnen 1_5
 70
     0
 62
     7
  6
Continuous
370
    18
390
F
347
3E
1001
AcAecLayerStandard
1000

1000
ML_5, on
  0
LAYER
  5
4F
330
2
100
AcDbSymbolTableRecord
100
AcDbLayerTableRecord
  2
POLYISOCYANURAAT (PIR)
 70
     0
 62
     5
  6
Continuous
370
    35
390
F
347
3E
1001
AcAecLayerStandard
1000

1000
223116, on
  0
LAYER
  5
50
330
2
100
AcDbSymbolTableRecord
100
AcDbLayerTableRecord
  2
SANDWICH DAKELEMENTEN
 70
     0
 62
    30
  6
Continuous
370
    70
390
F
347
3E
1001
AcAecLayerStandard
1000

1000
272215, on
  0
LAYER
  5
51
330
2
100
AcDbSymbolTableRecord
100
AcDbLayerTableRecord
  2
STEENWOL
 70
     0
 62
     5
  6
Continuous
370
    35
390
F
347
3E
1001
AcAecLayerStandard
1000

1000
223111, on
  0
LAYER
  5
E9
330
2
100
AcDbSymbolTableRecord
100
AcDbLayerTableRecord
  2
DEFPOINTS
 70
     0
 62
     7
  6
Continuous
290
     0
370
    -3
390
F
347
3E
  0
ENDTAB
  0
TABLE
  2
STYLE
  5
3
330
0
100
AcDbSymbolTable
 70
     4
  0
STYLE
  5
11
330
3
100
AcDbSymbolTableRecord
100
AcDbTextStyleTableRecord
  2
Standard
 70
     0
 40
0.0
 41
1.0
 50
0.0
 71
     0
 42
0.2
  3
txt
  4

  0
STYLE
  5
3F
330
3
100
AcDbSymbolTableRecord
100
AcDbTextStyleTableRecord
  2
ARIAL
 70
     0
 40
0.0
 41
1.0
 50
0.0
 71
     0
 42
0.0
  3
ARIAL.TTF
  4

1001
ACAD
1000
Arial
1071
       34
  0
STYLE
  5
40
330
3
100
AcDbSymbolTableRecord
100
AcDbTextStyleTableRecord
  2
TAHOMA
 70
     0
 40
0.0
 41
1.0
 50
0.0
 71
     0
 42
0.0
  3
TAHOMA.TTF
  4

1001
ACAD
1000
Tahoma
1071
       34
  0
STYLE
  5
52
330
3
100
AcDbSymbolTableRecord
100
AcDbTextStyleTableRecord
  2
Trebuchet MS
 70
     0
 40
0.0
 41
1.0
 50
0.0
 71
     0
 42
0.0
  3
Trebuchet MS
  4

1001
ACAD
1000
Trebuchet MS
1071
        0
  0
ENDTAB
  0
TABLE
  2
VIEW
  5
6
330
0
100
AcDbSymbolTable
 70
     1
  0
ENDTAB
  0
TABLE
  2
UCS
  5
7
330
0
100
AcDbSymbolTable
 70
     0
  0
ENDTAB
  0
TABLE
  2
APPID
  5
9
330
0
100
AcDbSymbolTable
 70
     5
  0
APPID
  5
12
330
9
100
AcDbSymbolTableRecord
100
AcDbRegAppTableRecord
  2
ACAD
 70
     0
  0
APPID
  5
45
330
9
100
AcDbSymbolTableRecord
100
AcDbRegAppTableRecord
  2
AcAecLayerStandard
 70
     0
  0
APPID
  5
95
330
9
100
AcDbSymbolTableRecord
100
AcDbRegAppTableRecord
  2
NEM_ODX
 70
     0
  0
APPID
  5
1C7
330
9
100
AcDbSymbolTableRecord
100
AcDbRegAppTableRecord
  2
ACAD_EXEMPT_FROM_CAD_STANDARDS
 70
     0
  0
APPID
  5
1D3
330
9
100
AcDbSymbolTableRecord
100
AcDbRegAppTableRecord
  2
ACAD_NAV_VCDISPLAY
 70
     0
  0
ENDTAB
  0
TABLE
  2
DIMSTYLE
  5
A
330
0
100
AcDbSymbolTable
 70
     3
100
AcDbDimStyleTable
 71
     1
340
FA
  0
DIMSTYLE
105
27
330
A
100
AcDbSymbolTableRecord
100
AcDbDimStyleTableRecord
  2
Standard
 70
     0
340
11
  0
DIMSTYLE
105
FA
102
{ACAD_REACTORS
330
128
330
11D
330
112
330
107
330
FB
102
}
330
A
100
AcDbSymbolTableRecord
100
AcDbDimStyleTableRecord
  2
_DIMSTYLE_2
 70
     0
  3
<>
 41
15.0
 42
0.001
 43
0.0
 44
0.0
 45
0.1
 73
     0
 74
     0
 75
     1
 76
     1
 77
     2
 78
    12
140
10.0
141
0.0
147
5.0
172
     1
173
     1
174
     1
176
    30
177
    30
178
    30
271
     0
272
     0
274
     0
278
     0
279
     2
283
     0
340
52
343
EA
344
EA
371
     0
372
    18
  0
DIMSTYLE
105
106
330
A
100
AcDbSymbolTableRecord
100
AcDbDimStyleTableRecord
  2
_DIMSTYLE_3
 70
     0
  3
<>
 41
15.0
 42
0.001
 43
0.0
 44
0.0
 45
0.1
 73
     0
 74
     0
 75
     1
 76
     1
 77
     2
 78
    12
140
10.0
141
0.0
147
5.0
172
     1
173
     1
174
     1
176
    30
177
    30
178
    30
271
     0
272
     0
274
     0
278
     0
279
     2
283
     0
340
52
343
EA
344
EA
371
     0
372
    18
  0
ENDTAB
  0
TABLE
  2
BLOCK_RECORD
  5
1
330
0
100
AcDbSymbolTable
 70
    12
  0
BLOCK_RECORD
  5
1F
102
{ACAD_XDICTIONARY
360
158
102
}
330
1
100
AcDbSymbolTableRecord
100
AcDbBlockTableRecord
  2
*Model_Space
340
22
 70
     0
280
     1
281
     0
  0
BLOCK_RECORD
  5
1B
330
1
100
AcDbSymbolTableRecord
100
AcDbBlockTableRecord
  2
*Paper_Space
340
1E
 70
     0
280
     1
281
     0
  0
BLOCK_RECORD
  5
23
330
1
100
AcDbSymbolTableRecord
100
AcDbBlockTableRecord
  2
*Paper_Space0
340
26
 70
     0
280
     1
281
     0
  0
BLOCK_RECORD
  5
53
330
1
100
AcDbSymbolTableRecord
100
AcDbBlockTableRecord
  2
NSY140
340
0
 70
     4
280
     1
281
     0
  0
BLOCK_RECORD
  5
59
330
1
100
AcDbSymbolTableRecord
100
AcDbBlockTableRecord
  2
NSY154
340
0
102
{BLKREFS
331
97
331
E4
331
129
331
12A
331
12B
331
12C
331
12D
331
12E
331
12F
331
131
331
13C
331
13D
331
143
102
}
 70
     4
280
     1
281
     0
  0
BLOCK_RECORD
  5
AD
330
1
100
AcDbSymbolTableRecord
100
AcDbBlockTableRecord
  2
COMPLEXOBJECT_0
340
0
102
{BLKREFS
331
B4
102
}
 70
     4
280
     1
281
     0
  0
BLOCK_RECORD
  5
B5
330
1
100
AcDbSymbolTableRecord
100
AcDbBlockTableRecord
  2
COMPLEXOBJECT_1
340
0
102
{BLKREFS
331
BC
102
}
 70
     4
280
     1
281
     0
  0
BLOCK_RECORD
  5
DC
330
1
100
AcDbSymbolTableRecord
100
AcDbBlockTableRecord
  2
COMPLEXOBJECT_2
340
0
102
{BLKREFS
331
E3
102
}
 70
     4
280
     1
281
     0
  0
BLOCK_RECORD
  5
EA
330
1
100
AcDbSymbolTableRecord
100
AcDbBlockTableRecord
  2
ALL_ML_STRICH
340
0
102
{BLKREFS
331
1A4
331
1A5
331
1AD
331
1AE
331
1B4
331
1B5
331
1BB
331
1BC
331
1C2
331
1C3
102
}
 70
     4
280
     1
281
     0
  0
BLOCK_RECORD
  5
F0
330
1
100
AcDbSymbolTableRecord
100
AcDbBlockTableRecord
  2
*D7
340
0
 70
     4
280
     1
281
     0
  0
BLOCK_RECORD
  5
FC
330
1
100
AcDbSymbolTableRecord
100
AcDbBlockTableRecord
  2
*D8
340
0
 70
     4
280
     1
281
     0
  0
BLOCK_RECORD
  5
108
330
1
100
AcDbSymbolTableRecord
100
AcDbBlockTableRecord
  2
*D9
340
0
 70
     4
280
     1
281
     0
  0
BLOCK_RECORD
  5
113
330
1
100
AcDbSymbolTableRecord
100
AcDbBlockTableRecord
  2
*D10
340
0
 70
     4
280
     1
281
     0
  0
BLOCK_RECORD
  5
11E
330
1
100
AcDbSymbolTableRecord
100
AcDbBlockTableRecord
  2
*D11
340
0
 70
     4
280
     1
281
     0
  0
ENDTAB
  0
ENDSEC
  0
SECTION
  2
BLOCKS
  0
BLOCK
  5
20
330
1F
100
AcDbEntity
  8
0
100
AcDbBlockBegin
  2
*Model_Space
 70
     0
 10
0.0
 20
0.0
 30
0.0
  3
*Model_Space
  1

  0
ENDBLK
  5
21
330
1F
100
AcDbEntity
  8
0
100
AcDbBlockEnd
  0
BLOCK
  5
1C
330
1B
100
AcDbEntity
 67
     1
  8
0
100
AcDbBlockBegin
  2
*Paper_Space
 70
     0
 10
0.0
 20
0.0
 30
0.0
  3
*Paper_Space
  1

  0
ENDBLK
  5
1D
330
1B
100
AcDbEntity
 67
     1
  8
0
100
AcDbBlockEnd
  0
BLOCK
  5
24
330
23
100
AcDbEntity
 67
     1
  8
0
100
AcDbBlockBegin
  2
*Paper_Space0
 70
     0
 10
0.0
 20
0.0
 30
0.0
  3
*Paper_Space0
  1

  0
ENDBLK
  5
25
330
23
100
AcDbEntity
 67
     1
  8
0
100
AcDbBlockEnd
  0
BLOCK
  5
54
330
53
100
AcDbEntity
  8
0
100
AcDbBlockBegin
  2
NSY140
 70
     0
 10
0.0
 20
0.0
 30
0.0
  3
NSY140
  1

  0
LINE
  5
56
330
53
100
AcDbEntity
  8
0
  6
ByBlock
 62
     0
370
    -2
100
AcDbLine
 10
0.0
 20
-2.5
 30
0.0
 11
0.0
 21
2.5
 31
0.0
  0
LINE
  5
57
330
53
100
AcDbEntity
  8
0
  6
ByBlock
 62
     0
370
    -2
100
AcDbLine
 10
-2.5
 20
0.0
 30
0.0
 11
2.5
 21
0.0
 31
0.0
  0
LINE
  5
58
330
53
100
AcDbEntity
  8
0
  6
ByBlock
 62
     0
370
    -2
100
AcDbLine
 10
-1.499999999999999
 20
-1.499999999999999
 30
0.0
 11
1.499999999999999
 21
1.499999999999999
 31
0.0
  0
ENDBLK
  5
55
330
53
100
AcDbEntity
  8
0
100
AcDbBlockEnd
  0
BLOCK
  5
5A
330
59
100
AcDbEntity
  8
0
100
AcDbBlockBegin
  2
NSY154
 70
     0
 10
0.0
 20
0.0
 30
0.0
  3
NSY154
  1

  0
LINE
  5
5C
330
59
100
AcDbEntity
  8
0
  6
ByBlock
 62
     0
370
    -2
100
AcDbLine
 10
-0.0000000000000002
 20
-2.625
 30
0.0
 11
0.0000000000000002
 21
2.625
 31
0.0
  0
CIRCLE
  5
5D
330
59
100
AcDbEntity
  8
0
  6
ByBlock
 62
     0
370
    -2
100
AcDbCircle
 10
0.0
 20
0.0
 30
0.0
 40
2.625
  0
LINE
  5
5E
330
59
100
AcDbEntity
  8
0
  6
ByBlock
 62
     0
370
    -2
100
AcDbLine
 10
-2.621249999999999
 20
0.0000000000000002
 30
0.0
 11
2.625
 21
-0.0000000000000002
 31
0.0
  0
ARC
  5
5F
330
59
100
AcDbEntity
  8
0
  6
ByBlock
 62
     0
370
    -2
100
AcDbCircle
 10
0.0
 20
0.0
 30
0.0
 40
0.375
100
AcDbArc
 50
0.0
 51
90.0
  0
ARC
  5
60
330
59
100
AcDbEntity
  8
0
  6
ByBlock
 62
     0
370
    -2
100
AcDbCircle
 10
0.0
 20
0.0
 30
0.0
 40
0.75
100
AcDbArc
 50
0.0
 51
90.0
  0
ARC
  5
61
330
59
100
AcDbEntity
  8
0
  6
ByBlock
 62
     0
370
    -2
100
AcDbCircle
 10
0.0
 20
0.0
 30
0.0
 40
1.125
100
AcDbArc
 50
0.0
 51
90.0
  0
ARC
  5
62
330
59
100
AcDbEntity
  8
0
  6
ByBlock
 62
     0
370
    -2
100
AcDbCircle
 10
0.0
 20
0.0
 30
0.0
 40
1.875
100
AcDbArc
 50
0.0
 51
90.0
  0
ARC
  5
63
330
59
100
AcDbEntity
  8
0
  6
ByBlock
 62
     0
370
    -2
100
AcDbCircle
 10
0.0
 20
0.0
 30
0.0
 40
1.5
100
AcDbArc
 50
0.0
 51
90.0
  0
ARC
  5
64
330
59
100
AcDbEntity
  8
0
  6
ByBlock
 62
     0
370
    -2
100
AcDbCircle
 10
0.0
 20
0.0
 30
0.0
 40
2.25
100
AcDbArc
 50
0.0
 51
90.0
  0
ARC
  5
65
330
59
100
AcDbEntity
  8
0
  6
ByBlock
 62
     0
370
    -2
100
AcDbCircle
 10
0.0
 20
0.0
 30
0.0
 40
0.375
100
AcDbArc
 50
180.0
 51
270.0
  0
ARC
  5
66
330
59
100
AcDbEntity
  8
0
  6
ByBlock
 62
     0
370
    -2
100
AcDbCircle
 10
0.0
 20
0.0
 30
0.0
 40
0.75
100
AcDbArc
 50
180.0
 51
270.0
  0
ARC
  5
67
330
59
100
AcDbEntity
  8
0
  6
ByBlock
 62
     0
370
    -2
100
AcDbCircle
 10
0.0
 20
0.0
 30
0.0
 40
1.125
100
AcDbArc
 50
180.0
 51
270.0
  0
ARC
  5
68
330
59
100
AcDbEntity
  8
0
  6
ByBlock
 62
     0
370
    -2
100
AcDbCircle
 10
0.0
 20
0.0
 30
0.0
 40
1.875
100
AcDbArc
 50
180.0
 51
270.0
  0
ARC
  5
69
330
59
100
AcDbEntity
  8
0
  6
ByBlock
 62
     0
370
    -2
100
AcDbCircle
 10
0.0
 20
0.0
 30
0.0
 40
1.5
100
AcDbArc
 50
180.0
 51
270.0
  0
ARC
  5
6A
330
59
100
AcDbEntity
  8
0
  6
ByBlock
 62
     0
370
    -2
100
AcDbCircle
 10
0.0
 20
0.0
 30
0.0
 40
2.25
100
AcDbArc
 50
180.0
 51
270.0
  0
LINE
  5
6B
330
59
100
AcDbEntity
  8
0
  6
ByBlock
 62
     0
370
    -2
100
AcDbLine
 10
-0.0000000000000002
 20
-3.75
 30
0.0
 11
0.0000000000000002
 21
3.75
 31
0.0
  0
LINE
  5
6C
330
59
100
AcDbEntity
  8
0
  6
ByBlock
 62
     0
370
    -2
100
AcDbLine
 10
-3.75
 20
0.0000000000000002
 30
0.0
 11
3.75
 21
-0.0000000000000002
 31
0.0
  0
ENDBLK
  5
5B
330
59
100
AcDbEntity
  8
0
100
AcDbBlockEnd
  0
BLOCK
  5
AE
330
AD
100
AcDbEntity
  8
0
100
AcDbBlockBegin
  2
COMPLEXOBJECT_0
 70
     0
 10
0.0
 20
0.0
 30
0.0
  3
COMPLEXOBJECT_0
  1

  0
LINE
  5
B0
330
AD
100
AcDbEntity
  8
ANKER
  6
VERDECKT2_S2
 62
     5
370
    13
100
AcDbLine
 10
674.7732698998333
 20
869.2965505634601
 30
0.0
 11
674.7732698998224
 21
839.2965505634602
 31
0.0
  0
LINE
  5
B1
330
AD
100
AcDbEntity
  8
ANKER
  6
VERDECKT2_S2
 62
     5
370
    13
100
AcDbLine
 10
676.2732698998334
 20
869.2965505634601
 30
0.0
 11
676.2732698998334
 21
849.2965505634602
 31
0.0
  0
LINE
  5
B2
330
AD
100
AcDbEntity
  8
ANKER
  6
VERDECKT2_S2
 62
     5
370
    13
100
AcDbLine
 10
673.2732698998334
 20
869.2965505634601
 30
0.0
 11
673.2732698998334
 21
849.2965505634602
 31
0.0
  0
LINE
  5
B3
330
AD
100
AcDbEntity
  8
ANKER
  6
VERDECKT2_S2
 62
     5
370
    13
100
AcDbLine
 10
677.2732698998334
 20
869.2965505634601
 30
0.0
 11
672.2732698998334
 21
869.2965505634601
 31
0.0
  0
ENDBLK
  5
AF
330
AD
100
AcDbEntity
  8
0
100
AcDbBlockEnd
  0
BLOCK
  5
B6
330
B5
100
AcDbEntity
  8
0
100
AcDbBlockBegin
  2
COMPLEXOBJECT_1
 70
     0
 10
0.0
 20
0.0
 30
0.0
  3
COMPLEXOBJECT_1
  1

  0
LINE
  5
B8
330
B5
100
AcDbEntity
  8
ANKER
  6
VERDECKT2_S2
 62
     5
370
    13
100
AcDbLine
 10
823.0552557943193
 20
869.3123003355976
 30
0.0
 11
823.0552557943083
 21
839.3123003355977
 31
0.0
  0
LINE
  5
B9
330
B5
100
AcDbEntity
  8
ANKER
  6
VERDECKT2_S2
 62
     5
370
    13
100
AcDbLine
 10
824.5552557943192
 20
869.3123003355976
 30
0.0
 11
824.5552557943192
 21
849.3123003355977
 31
0.0
  0
LINE
  5
BA
330
B5
100
AcDbEntity
  8
ANKER
  6
VERDECKT2_S2
 62
     5
370
    13
100
AcDbLine
 10
821.5552557943192
 20
869.3123003355976
 30
0.0
 11
821.5552557943192
 21
849.3123003355977
 31
0.0
  0
LINE
  5
BB
330
B5
100
AcDbEntity
  8
ANKER
  6
VERDECKT2_S2
 62
     5
370
    13
100
AcDbLine
 10
825.5552557943191
 20
869.3123003355976
 30
0.0
 11
820.5552557943192
 21
869.3123003355976
 31
0.0
  0
ENDBLK
  5
B7
330
B5
100
AcDbEntity
  8
0
100
AcDbBlockEnd
  0
BLOCK
  5
DD
330
DC
100
AcDbEntity
  8
0
100
AcDbBlockBegin
  2
COMPLEXOBJECT_2
 70
     0
 10
0.0
 20
0.0
 30
0.0
  3
COMPLEXOBJECT_2
  1

  0
LINE
  5
DF
330
DC
100
AcDbEntity
  8
ANKER
  6
VERDECKT2_S2
 62
     5
370
    13
100
AcDbLine
 10
640.8794974351367
 20
857.1629332416597
 30
0.0
 11
640.8794974351367
 21
807.1629332416597
 31
0.0
  0
LINE
  5
E0
330
DC
100
AcDbEntity
  8
ANKER
  6
VERDECKT2_S2
 62
     5
370
    13
100
AcDbLine
 10
642.8794974351367
 20
857.1629332416597
 30
0.0
 11
642.8794974351367
 21
832.1629332416597
 31
0.0
  0
LINE
  5
E1
330
DC
100
AcDbEntity
  8
ANKER
  6
VERDECKT2_S2
 62
     5
370
    13
100
AcDbLine
 10
638.8794974351367
 20
857.1629332416597
 30
0.0
 11
638.8794974351367
 21
832.1629332416597
 31
0.0
  0
LINE
  5
E2
330
DC
100
AcDbEntity
  8
ANKER
  6
VERDECKT2_S2
 62
     5
370
    13
100
AcDbLine
 10
643.8794974351367
 20
857.1629332416597
 30
0.0
 11
637.8794974351367
 21
857.1629332416597
 31
0.0
  0
ENDBLK
  5
DE
330
DC
100
AcDbEntity
  8
0
100
AcDbBlockEnd
  0
BLOCK
  5
EB
330
EA
100
AcDbEntity
  8
0
100
AcDbBlockBegin
  2
ALL_ML_STRICH
 70
     0
 10
0.0
 20
0.0
 30
0.0
  3
ALL_ML_STRICH
  1

  0
LINE
  5
ED
330
EA
100
AcDbEntity
  8
0
  6
ByBlock
 62
     0
370
    -2
100
AcDbLine
 10
-1.0
 20
0.0
 30
0.0
 11
0.5
 21
0.0
 31
0.0
  0
LINE
  5
EE
330
EA
100
AcDbEntity
  8
0
  6
ByBlock
 62
     0
370
    -2
100
AcDbLine
 10
0.0
 20
-0.5
 30
0.0
 11
0.0
 21
0.5
 31
0.0
  0
LINE
  5
EF
330
EA
100
AcDbEntity
  8
0
  6
ByBlock
 62
     0
370
    -2
100
AcDbLine
 10
-0.3
 20
-0.3
 30
0.0
 11
0.3
 21
0.3
 31
0.0
  0
ENDBLK
  5
EC
330
EA
100
AcDbEntity
  8
0
100
AcDbBlockEnd
  0
BLOCK
  5
F1
330
F0
100
AcDbEntity
  8
0
100
AcDbBlockBegin
  2
*D7
 70
     1
 10
0.0
 20
0.0
 30
0.0
  3
*D7
  1

  0
LINE
  5
1C0
330
F0
100
AcDbEntity
  8
Maatlijnen 1_5
  6
Continuous
 62
    30
440
 16777216
370
     0
100
AcDbLine
 10
471.8794974351258
 20
180.1629332416596
 30
0.0
 11
836.8794974351294
 21
180.1629332416596
 31
0.0
  0
MTEXT
  5
1C1
330
F0
100
AcDbEntity
  8
Maatlijnen 1_5
  6
Continuous
 62
    30
440
 16777216
370
    18
100
AcDbMText
 10
654.2685759334212
 20
190.3335817058234
 30
0.0
 40
10.0
 41
21.0
 46
0.0
 71
     5
 72
     1
  1
395
  7
Trebuchet MS
 73
     1
 44
1.0
  0
INSERT
  5
1C2
330
F0
100
AcDbEntity
  8
Maatlijnen 1_5
  6
Continuous
 62
    30
440
 16777216
370
     0
100
AcDbBlockReference
  2
ALL_ML_STRICH
 10
456.8794974351257
 20
180.1629332416596
 30
0.0
 41
15.0
 42
15.0
 43
15.0
 50
180.0
  0
INSERT
  5
1C3
330
F0
100
AcDbEntity
  8
Maatlijnen 1_5
  6
Continuous
 62
    30
440
 16777216
370
     0
100
AcDbBlockReference
  2
ALL_ML_STRICH
 10
851.8794974351294
 20
180.1629332416596
 30
0.0
 41
15.0
 42
15.0
 43
15.0
  0
POINT
  5
1C4
330
F0
100
AcDbEntity
  8
DEFPOINTS
  6
Continuous
 62
     0
440
 16777216
100
AcDbPoint
 10
456.8794974351257
 20
240.161933241656
 30
0.0
  0
POINT
  5
1C5
330
F0
100
AcDbEntity
  8
DEFPOINTS
  6
Continuous
 62
     0
440
 16777216
100
AcDbPoint
 10
851.8794974351294
 20
240.1619332416596
 30
0.0
  0
POINT
  5
1C6
330
F0
100
AcDbEntity
  8
DEFPOINTS
  6
Continuous
 62
     0
440
 16777216
100
AcDbPoint
 10
851.8794974351294
 20
180.1629332416596
 30
0.0
  0
ENDBLK
  5
F2
330
F0
100
AcDbEntity
  8
0
100
AcDbBlockEnd
  0
BLOCK
  5
FD
330
FC
100
AcDbEntity
  8
0
100
AcDbBlockBegin
  2
*D8
 70
     1
 10
0.0
 20
0.0
 30
0.0
  3
*D8
  1

  0
LINE
  5
1B9
330
FC
100
AcDbEntity
  8
Maatlijnen 1_5
  6
Continuous
 62
    30
440
 16777216
370
     0
100
AcDbLine
 10
471.8794974351258
 20
210.1629332416596
 30
0.0
 11
561.8794974351403
 21
210.1629332416596
 31
0.0
  0
MTEXT
  5
1BA
330
FC
100
AcDbEntity
  8
Maatlijnen 1_5
  6
Continuous
 62
    30
440
 16777216
370
    18
100
AcDbMText
 10
516.5911015306963
 20
220.2994520129907
 30
0.0
 40
10.0
 41
21.0
 46
0.0
 71
     5
 72
     1
  1
120
  7
Trebuchet MS
 73
     1
 44
1.0
  0
INSERT
  5
1BB
330
FC
100
AcDbEntity
  8
Maatlijnen 1_5
  6
Continuous
 62
    30
440
 16777216
370
     0
100
AcDbBlockReference
  2
ALL_ML_STRICH
 10
456.8794974351257
 20
210.1629332416596
 30
0.0
 41
15.0
 42
15.0
 43
15.0
 50
180.0
  0
INSERT
  5
1BC
330
FC
100
AcDbEntity
  8
Maatlijnen 1_5
  6
Continuous
 62
    30
440
 16777216
370
     0
100
AcDbBlockReference
  2
ALL_ML_STRICH
 10
576.8794974351403
 20
210.1629332416596
 30
0.0
 41
15.0
 42
15.0
 43
15.0
  0
POINT
  5
1BD
330
FC
100
AcDbEntity
  8
DEFPOINTS
  6
Continuous
 62
     0
440
 16777216
100
AcDbPoint
 10
456.8794974351257
 20
240.161933241656
 30
0.0
  0
POINT
  5
1BE
330
FC
100
AcDbEntity
  8
DEFPOINTS
  6
Continuous
 62
     0
440
 16777216
100
AcDbPoint
 10
576.8794974351403
 20
240.1619332416633
 30
0.0
  0
POINT
  5
1BF
330
FC
100
AcDbEntity
  8
DEFPOINTS
  6
Continuous
 62
     0
440
 16777216
100
AcDbPoint
 10
576.8794974351403
 20
210.1629332416596
 30
0.0
  0
ENDBLK
  5
FE
330
FC
100
AcDbEntity
  8
0
100
AcDbBlockEnd
  0
BLOCK
  5
109
330
108
100
AcDbEntity
  8
0
100
AcDbBlockBegin
  2
*D9
 70
     1
 10
0.0
 20
0.0
 30
0.0
  3
*D9
  1

  0
LINE
  5
1B2
330
108
100
AcDbEntity
  8
Maatlijnen 1_5
  6
Continuous
 62
    30
440
 16777216
370
     0
100
AcDbLine
 10
591.8794974351404
 20
210.1629332416596
 30
0.0
 11
696.8794974351367
 21
210.1629332416596
 31
0.0
  0
MTEXT
  5
1B3
330
108
100
AcDbEntity
  8
Maatlijnen 1_5
  6
Continuous
 62
    30
440
 16777216
370
    18
100
AcDbMText
 10
644.268575933432
 20
220.2994520129907
 30
0.0
 40
10.0
 41
21.0
 46
0.0
 71
     5
 72
     1
  1
135
  7
Trebuchet MS
 73
     1
 44
1.0
  0
INSERT
  5
1B4
330
108
100
AcDbEntity
  8
Maatlijnen 1_5
  6
Continuous
 62
    30
440
 16777216
370
     0
100
AcDbBlockReference
  2
ALL_ML_STRICH
 10
576.8794974351403
 20
210.1629332416596
 30
0.0
 41
15.0
 42
15.0
 43
15.0
 50
180.0
  0
INSERT
  5
1B5
330
108
100
AcDbEntity
  8
Maatlijnen 1_5
  6
Continuous
 62
    30
440
 16777216
370
     0
100
AcDbBlockReference
  2
ALL_ML_STRICH
 10
711.8794974351366
 20
210.1629332416596
 30
0.0
 41
15.0
 42
15.0
 43
15.0
  0
POINT
  5
1B6
330
108
100
AcDbEntity
  8
DEFPOINTS
  6
Continuous
 62
     0
440
 16777216
100
AcDbPoint
 10
576.8794974351403
 20
240.1619332416633
 30
0.0
  0
POINT
  5
1B7
330
108
100
AcDbEntity
  8
DEFPOINTS
  6
Continuous
 62
     0
440
 16777216
100
AcDbPoint
 10
711.8794974351366
 20
240.1619332416614
 30
0.0
  0
POINT
  5
1B8
330
108
100
AcDbEntity
  8
DEFPOINTS
  6
Continuous
 62
     0
440
 16777216
100
AcDbPoint
 10
711.8794974351366
 20
210.1629332416596
 30
0.0
  0
ENDBLK
  5
10A
330
108
100
AcDbEntity
  8
0
100
AcDbBlockEnd
  0
BLOCK
  5
114
330
113
100
AcDbEntity
  8
0
100
AcDbBlockBegin
  2
*D10
 70
     1
 10
0.0
 20
0.0
 30
0.0
  3
*D10
  1

  0
LINE
  5
1A9
330
113
100
AcDbEntity
  8
Maatlijnen 1_5
  6
Continuous
 62
    30
440
 16777216
370
     0
100
AcDbLine
 10
696.8794974351367
 20
210.1629332416596
 30
0.0
 11
681.8794974351367
 21
210.1629332416596
 31
0.0
  0
LINE
  5
1AA
330
113
100
AcDbEntity
  8
Maatlijnen 1_5
  6
Continuous
 62
    30
440
 16777216
370
     0
100
AcDbLine
 10
766.8794974351294
 20
210.1629332416596
 30
0.0
 11
781.8794974351294
 21
210.1629332416596
 31
0.0
  0
MTEXT
  5
1AB
330
113
100
AcDbEntity
  8
Maatlijnen 1_5
  6
Continuous
 62
    30
440
 16777216
370
    18
100
AcDbMText
 10
731.7566305409351
 20
220.2994520129907
 30
0.0
 40
10.0
 41
14.0
 46
0.0
 71
     5
 72
     1
  1
40
  7
Trebuchet MS
 73
     1
 44
1.0
  0
LINE
  5
1AC
330
113
100
AcDbEntity
  8
Maatlijnen 1_5
  6
Continuous
 62
    30
440
 16777216
370
     0
100
AcDbLine
 10
711.8794974351366
 20
210.1629332416596
 30
0.0
 11
751.8794974351294
 21
210.1629332416596
 31
0.0
  0
INSERT
  5
1AD
330
113
100
AcDbEntity
  8
Maatlijnen 1_5
  6
Continuous
 62
    30
440
 16777216
370
     0
100
AcDbBlockReference
  2
ALL_ML_STRICH
 10
711.8794974351366
 20
210.1629332416596
 30
0.0
 41
15.0
 42
15.0
 43
15.0
  0
INSERT
  5
1AE
330
113
100
AcDbEntity
  8
Maatlijnen 1_5
  6
Continuous
 62
    30
440
 16777216
370
     0
100
AcDbBlockReference
  2
ALL_ML_STRICH
 10
751.8794974351294
 20
210.1629332416596
 30
0.0
 41
15.0
 42
15.0
 43
15.0
 50
180.0
  0
POINT
  5
1AF
330
113
100
AcDbEntity
  8
DEFPOINTS
  6
Continuous
 62
     0
440
 16777216
100
AcDbPoint
 10
711.8794974351366
 20
240.1619332416614
 30
0.0
  0
POINT
  5
1B0
330
113
100
AcDbEntity
  8
DEFPOINTS
  6
Continuous
 62
     0
440
 16777216
100
AcDbPoint
 10
751.8794974351294
 20
240.1619332416596
 30
0.0
  0
POINT
  5
1B1
330
113
100
AcDbEntity
  8
DEFPOINTS
  6
Continuous
 62
     0
440
 16777216
100
AcDbPoint
 10
751.8794974351294
 20
210.1629332416596
 30
0.0
  0
ENDBLK
  5
115
330
113
100
AcDbEntity
  8
0
100
AcDbBlockEnd
  0
BLOCK
  5
11F
330
11E
100
AcDbEntity
  8
0
100
AcDbBlockBegin
  2
*D11
 70
     1
 10
0.0
 20
0.0
 30
0.0
  3
*D11
  1

  0
LINE
  5
1A2
330
11E
100
AcDbEntity
  8
Maatlijnen 1_5
  6
Continuous
 62
    30
440
 16777216
370
     0
100
AcDbLine
 10
766.8794974351294
 20
210.1629332416596
 30
0.0
 11
836.8794974351294
 21
210.1629332416596
 31
0.0
  0
MTEXT
  5
1A3
330
11E
100
AcDbEntity
  8
Maatlijnen 1_5
  6
Continuous
 62
    30
440
 16777216
370
    18
100
AcDbMText
 10
801.5911015306926
 20
220.2994520129907
 30
0.0
 40
10.0
 41
21.0
 46
0.0
 71
     5
 72
     1
  1
100
  7
Trebuchet MS
 73
     1
 44
1.0
  0
INSERT
  5
1A4
330
11E
100
AcDbEntity
  8
Maatlijnen 1_5
  6
Continuous
 62
    30
440
 16777216
370
     0
100
AcDbBlockReference
  2
ALL_ML_STRICH
 10
751.8794974351294
 20
210.1629332416596
 30
0.0
 41
15.0
 42
15.0
 43
15.0
 50
180.0
  0
INSERT
  5
1A5
330
11E
100
AcDbEntity
  8
Maatlijnen 1_5
  6
Continuous
 62
    30
440
 16777216
370
     0
100
AcDbBlockReference
  2
ALL_ML_STRICH
 10
851.8794974351294
 20
210.1629332416596
 30
0.0
 41
15.0
 42
15.0
 43
15.0
  0
POINT
  5
1A6
330
11E
100
AcDbEntity
  8
DEFPOINTS
  6
Continuous
 62
     0
440
 16777216
100
AcDbPoint
 10
751.8794974351294
 20
240.1619332416596
 30
0.0
  0
POINT
  5
1A7
330
11E
100
AcDbEntity
  8
DEFPOINTS
  6
Continuous
 62
     0
440
 16777216
100
AcDbPoint
 10
851.8794974351294
 20
240.1619332416596
 30
0.0
  0
POINT
  5
1A8
330
11E
100
AcDbEntity
  8
DEFPOINTS
  6
Continuous
 62
     0
440
 16777216
100
AcDbPoint
 10
851.8794974351294
 20
210.1629332416596
 30
0.0
  0
ENDBLK
  5
120
330
11E
100
AcDbEntity
  8
0
100
AcDbBlockEnd
  0
ENDSEC
  0
SECTION
  2
ENTITIES
  0
LWPOLYLINE
  5
6D
330
1F
100
AcDbEntity
  8
AANHAALLIJN
  6
Continuous
 62
     7
370
    25
100
AcDbPolyline
 90
        5
 70
     1
 43
0.0
 10
1050.0
 20
0.0
 10
0.0
 20
0.0
 10
0.0
 20
1485.0
 10
1050.0
 20
1485.0
 10
1050.0
 20
0.0
  0
LWPOLYLINE
  5
6E
330
1F
100
AcDbEntity
  8
AANHAALLIJN
  6
PUNKT2_S9
 62
     7
370
    13
100
AcDbPolyline
 90
        5
 70
     1
 43
0.0
 10
990.0
 20
60.0
 10
60.0
 20
60.0
 10
60.0
 20
1260.0
 10
990.0
 20
1260.0
 10
990.0
 20
60.0
  0
MTEXT
  5
91
330
1F
100
AcDbEntity
  8
AANHAALLIJN
  6
Continuous
 62
     5
370
    13
100
AcDbMText
 10
70.00000000000001
 20
43.0
 30
0.0
 40
7.5
 41
440.1289571934895
 46
0.0
 71
     1
 72
     5
  1
\W1.00;ROCKWOOL\~bouwdetails\~ontwikkeld\~door\~Archidat\~Bouwformatie\~-\~bouwdetails.bouwformatie.nl
  7
TAHOMA
 73
     1
 44
1.0
  0
MTEXT
  5
92
330
1F
100
AcDbEntity
  8
AANHAALLIJN
  6
Continuous
 62
    30
370
    25
100
AcDbMText
 10
51.50000000000363
 20
1431.749999999996
 30
0.0
 40
17.5
 41
448.0656992908549
 46
0.0
 71
     1
 72
     5
  1
{\fArial|i0|b1;\H17.500000;\W1.000000;\C30;ROCKWOOL - bouwdetail 028}\P{\fArial|i0|b0;\H17.500000;\W1.000000;\C30;Hellend dak met buitenwand (eindgevel)}\P
  7
ARIAL
 73
     1
 44
0.9036144578313253
  0
LWPOLYLINE
  5
93
330
1F
100
AcDbEntity
  8
AANHAALLIJN
  6
Continuous
 62
    30
370
    18
100
AcDbPolyline
 90
        3
 70
     0
 43
0.0
 10
199.7749723129055
 20
545.1629332416596
 10
199.7749723129054
 20
1000.982945215957
 10
519.7749723128908
 20
1000.982945215957
  0
LWPOLYLINE
  5
94
330
1F
100
AcDbEntity
  8
SANDWICH DAKELEMENTEN
  6
Continuous
 62
     7
370
    25
100
AcDbPolyline
 90
        8
 70
     1
 43
0.0
 10
436.8794974238809
 20
545.1629332416596
 10
414.8794974238809
 20
545.1629332416596
 10
414.8794974238771
 20
815.1629332416597
 10
436.8794974130469
 20
815.1629332416597
 10
436.8794974130469
 20
810.1629332416596
 10
436.8794974238771
 20
631.1629332416596
 10
436.8794974238809
 20
562.1629332416596
 10
436.8794974238809
 20
545.1629332416596
  0
HATCH
  5
96
330
1F
100
AcDbEntity
  8
SANDWICH DAKELEMENTEN
  6
Continuous
 62
     7
370
    25
100
AcDbHatch
 10
0.0
 20
0.0
 30
0.0
210
0.0
220
0.0
230
1.0
  2
HATCHING_301
 70
     0
 71
     0
 91
        1
 92
        0
 93
        6
 72
     1
 10
436.8794974130469
 20
815.1629332416597
 11
414.8794974238771
 21
815.1629332416597
 72
     1
 10
414.8794974238771
 20
815.1629332416597
 11
414.8794974238809
 21
545.1629332416596
 72
     1
 10
414.8794974238809
 20
545.1629332416596
 11
436.8794974238809
 21
545.1629332416596
 72
     1
 10
436.8794974238809
 20
545.1629332416596
 11
436.8794974227894
 21
631.1629332416596
 72
     1
 10
436.8794974227894
 20
631.1629332416596
 11
436.8794974130469
 21
810.1629332416596
 72
     1
 10
436.8794974130469
 20
810.1629332416596
 11
436.8794974130469
 21
815.1629332416597
 97
        0
 75
     0
 76
     2
 52
0.0
 41
5.0
 77
     0
 78
     2
 53
45.0
 43
0.0
 44
0.0
 45
-10.60660171779821
 46
10.60660171779821
 79
     0
 53
45.0
 43
-5.303300858899105
 44
5.303300858899106
 45
-10.60660171779821
 46
10.60660171779821
 79
     0
 98
        0
1001
ACAD
1010
0.0
1020
0.0
1030
0.0
1001
NEM_ODX
1002
{
1000
BZM_DEPEND
1070
     1
1000
BZM_SCALE
1040
5.0
1000
HATCHING_301
1002
}
  0
INSERT
  5
97
330
1F
100
AcDbEntity
  8
AANHAALLIJN
  6
Continuous
 62
    30
370
    18
100
AcDbBlockReference
  2
NSY154
 10
199.7749723129055
 20
680.1629332416596
 30
0.0
 41
1.962533333333333
 42
1.962533333333333
 43
1.962533333333333
  0
LINE
  5
98
330
1F
100
AcDbEntity
  8
GLASWOL
  6
VERDECKT2_S2
 62
     7
370
    25
100
AcDbLine
 10
96.87949741304887
 20
545.1629332416593
 30
0.0
 11
96.87949741304889
 21
715.1629332416591
 31
0.0
  0
LINE
  5
99
330
1F
100
AcDbEntity
  8
GLASWOL
  6
VERDECKT2_S2
 62
     7
370
    25
100
AcDbLine
 10
96.68153794306201
 20
680.1563570802328
 30
0.0
 11
414.8794974238789
 21
680.1563570802328
 31
0.0
  0
LWPOLYLINE
  5
9A
330
1F
100
AcDbEntity
  8
DILALATIEVOEG EN AFDICHTING
  6
Continuous
 62
     5
370
    13
100
AcDbPolyline
 90
       10
 70
     1
 43
0.0
 10
456.8794974238809
 20
535.1629332416596
 10
456.8794974238809
 20
520.1629332416596
 10
456.07057617584
 20
520.991429567799
 10
455.2324114360382
 20
521.4943284000001
 10
454.3794974277918
 20
521.662933237294
 10
453.5265834626954
 20
521.4943283545253
 10
452.6884186800454
 20
520.9914296439055
 10
451.8794974773264
 20
520.1629337205486
 10
451.8794974238809
 20
535.1629332416596
 10
456.8794974238809
 20
535.1629332416596
  0
HATCH
  5
9B
330
1F
100
AcDbEntity
  8
DILALATIEVOEG EN AFDICHTING
  6
Continuous
 62
     8
370
    25
100
AcDbHatch
 10
0.0
 20
0.0
 30
0.0
210
0.0
220
0.0
230
1.0
  2
SOLID
 70
     1
 71
     0
 91
        1
 92
        3
 72
     0
 73
     1
 93
        9
 10
456.8794974238809
 20
520.1629332416596
 10
456.8794974238809
 20
535.1629332416596
 10
451.8794974238809
 20
535.1629332416596
 10
451.8794974773264
 20
520.1629337205486
 10
452.6884186800454
 20
520.9914296439055
 10
453.5265834626954
 20
521.4943283545253
 10
454.3794974277918
 20
521.662933237294
 10
455.2324114360382
 20
521.4943284000001
 10
456.07057617584
 20
520.991429567799
 97
        0
 75
     0
 76
     1
 98
        0
450
        0
451
        0
460
0.0
461
0.0
452
        1
462
0.0
453
        0
470

  0
HATCH
  5
9C
330
1F
100
AcDbEntity
  8
SANDWICH DAKELEMENTEN
  6
Continuous
 62
    30
370
    18
100
AcDbHatch
 10
0.0
 20
0.0
 30
0.0
210
0.0
220
0.0
230
1.0
  2
HATCHING_301
 70
     0
 71
     0
 91
        1
 92
        0
 93
        4
 72
     1
 10
391.8794974130507
 20
520.1629332416451
 11
451.8794974238809
 21
520.1629332416451
 72
     1
 10
451.8794974238809
 20
520.1629332416451
 11
451.8794974238809
 21
535.162933241645
 72
     1
 10
451.8794974238809
 20
535.162933241645
 11
391.8794974130507
 21
535.162933241645
 72
     1
 10
391.8794974130507
 20
535.162933241645
 11
391.8794974130507
 21
520.1629332416451
 97
        0
 75
     0
 76
     2
 52
0.0
 41
5.0
 77
     0
 78
     2
 53
45.0
 43
0.0
 44
0.0
 45
-10.60660171779821
 46
10.60660171779821
 79
     0
 53
45.0
 43
-5.303300858899105
 44
5.303300858899106
 45
-10.60660171779821
 46
10.60660171779821
 79
     0
 98
        0
1001
ACAD
1010
0.0
1020
0.0
1030
0.0
1001
NEM_ODX
1002
{
1000
BZM_DEPEND
1070
     1
1000
BZM_SCALE
1040
5.0
1000
HATCHING_301
1002
}
  0
LWPOLYLINE
  5
9D
330
1F
100
AcDbEntity
  8
SANDWICH DAKELEMENTEN
  6
Continuous
 62
    30
370
    18
100
AcDbPolyline
 90
        5
 70
     1
 43
0.0
 10
451.8794974238809
 20
535.162933241645
 10
391.8794974130507
 20
535.162933241645
 10
391.8794974130507
 20
520.1629332416451
 10
451.8794974238809
 20
520.1629332416451
 10
451.8794974238809
 20
535.162933241645
  0
LWPOLYLINE
  5
9E
330
1F
100
AcDbEntity
  8
DILALATIEVOEG EN AFDICHTING
  6
Continuous
 62
    30
370
    18
100
AcDbPolyline
 90
        5
 70
     0
 43
0.0
 10
96.87949741305068
 20
545.16293324165
 10
436.8794974238809
 20
545.1629332416596
 10
436.8794974240082
 20
540.0882301579222
 10
436.8794974240846
 20
535.162933241645
 10
96.87949741305068
 20
535.1629332416588
  0
HATCH
  5
9F
330
1F
100
AcDbEntity
  8
SANDWICH DAKELEMENTEN
  6
Continuous
 62
    30
370
    18
100
AcDbHatch
 10
0.0
 20
0.0
 30
0.0
210
0.0
220
0.0
230
1.0
  2
HATCHING_301
 70
     0
 71
     0
 91
        1
 92
        0
 93
        4
 72
     1
 10
861.8794974130432
 20
835.1629332416596
 11
861.8794974130432
 21
814.1629332416595
 72
     1
 10
861.8794974130432
 20
814.1629332416595
 11
911.8794974130432
 21
814.1629332416595
 72
     1
 10
911.8794974130432
 20
814.1629332416595
 11
911.8794974130432
 21
835.1629332416596
 72
     1
 10
911.8794974130432
 20
835.1629332416596
 11
861.8794974130432
 21
835.1629332416596
 97
        0
 75
     0
 76
     2
 52
90.00000000000001
 41
5.0
 77
     0
 78
     2
 53
135.0
 43
0.0
 44
0.0
 45
-10.60660171779821
 46
-10.60660171779821
 79
     0
 53
135.0
 43
-5.303300858899105
 44
-5.303300858899106
 45
-10.60660171779821
 46
-10.60660171779821
 79
     0
 98
        0
1001
ACAD
1010
0.0
1020
0.0
1030
0.0
1001
NEM_ODX
1002
{
1000
BZM_DEPEND
1070
     1
1000
BZM_SCALE
1040
5.0
1000
HATCHING_301
1002
}
  0
LWPOLYLINE
  5
A0
330
1F
100
AcDbEntity
  8
SANDWICH DAKELEMENTEN
  6
Continuous
 62
    30
370
    18
100
AcDbPolyline
 90
        5
 70
     1
 43
0.0
 10
911.8794974130432
 20
814.1629332416595
 10
861.8794974130432
 20
814.1629332416595
 10
861.8794974130432
 20
835.1629332416596
 10
911.8794974130432
 20
835.1629332416596
 10
911.8794974130432
 20
814.1629332416595
  0
LWPOLYLINE
  5
A1
330
1F
100
AcDbEntity
  8
BETONNEN DAKPANNEN
  6
Continuous
 62
    30
370
    18
100
AcDbPolyline
 90
       39
 70
     0
 43
0.0
 10
933.8794974130433
 20
816.8300754246702
 10
921.8794974130432
 20
816.8300754246702
 10
917.359683469931
 20
873.6505935666173
 10
915.5904770924534
 20
875.0985479048358
 10
913.4577783467902
 20
875.3978740445855
 10
910.5954721355228
 20
875.2295030909699
 10
907.0672405039513
 20
873.841506424662
 10
882.1982585039513
 20
858.8927004246615
 10
864.072293247762
 20
850.0255409483907
 10
850.7978434216528
 20
845.7276048229214
 10
837.1153551975112
 20
842.9939644137594
 10
823.2085085039507
 20
841.8613174246674
 10
816.6219158373023
 20
843.0679393005812
 10
810.5765297123108
 20
845.9476002086848
 10
805.4892207703524
 20
850.3017278289153
 10
801.7107935039529
 20
855.8300754246701
 10
798.618219503951
 20
862.1421624246686
 10
794.0890415738831
 20
868.7739935254176
 10
787.8636998115434
 20
873.8474298330075
 10
780.4543135430103
 20
876.9451118090183
 10
772.4704062337405
 20
877.8122122613385
 10
768.444342877181
 20
877.666076856458
 10
764.4809254799402
 20
876.9436736442113
 10
760.6622060215231
 20
875.6599582642339
 10
757.0672405034311
 20
873.8415064556575
 10
726.7198505049637
 20
855.8300754090705
 10
714.0440239293821
 20
850.0206911601672
 10
700.7798781417404
 20
845.7209283896482
 10
687.1065016905813
 20
842.9888411716346
 10
673.2085085039507
 20
841.8613174246674
 10
666.6219158373023
 20
843.0679393005812
 10
660.5765297123107
 20
845.9476002086848
 10
655.4892207703524
 20
850.3017278289153
 10
651.710793503953
 20
855.8300754246701
 10
650.7948355039516
 20
857.8581524246656
 10
649.0059423435631
 20
861.4747737753459
 10
646.8226190991408
 20
864.8678827221266
 10
644.2724298083922
 20
867.9946419463485
 10
641.387570113613
 20
870.8155766744422
  0
LWPOLYLINE
  5
A2
330
1F
100
AcDbEntity
  8
BETONNEN DAKPANNEN
  6
Continuous
 62
     7
370
    25
100
AcDbPolyline
 90
       78
 70
     1
 43
0.0
 10
928.4704065039514
 20
885.8300754246702
 10
935.4704065039513
 20
797.8300754246702
 10
947.4704065039514
 20
797.8300754246702
 10
947.4704065039514
 20
887.8300754246701
 10
947.4704065039514
 20
889.8300754246703
 10
943.7462802285518
 20
895.2200007453466
 10
938.7063878672016
 20
899.4056782623339
 10
932.7243087185415
 20
902.0768467991402
 10
926.2434613454534
 20
903.035507153163
 10
919.7442355794811
 20
902.2105993171244
 10
913.7083827355418
 20
899.6632695754197
 10
897.4863944544232
 20
891.4140047335495
 10
880.7649002487705
 20
884.2310460560366
 10
863.6139010071129
 20
878.1444633397587
 10
846.1051958844219
 20
873.1797368619409
 10
828.3120815039509
 20
869.3576504246703
 10
820.9802482665327
 20
869.2669502465395
 10
813.9110811099525
 20
871.2139698988721
 10
807.6596182320608
 20
875.045839082184
 10
802.716695065963
 20
880.4616971372997
 10
799.4704065039513
 20
887.0363164246628
 10
794.9713305017903
 20
894.2799330289235
 10
788.3259417550034
 20
899.6231973775683
 10
780.2853131435913
 20
902.4622043129747
 10
771.7582109842806
 20
902.4760844549273
 10
763.7083828943832
 20
899.6632696375417
 10
747.4799108270126
 20
891.4291087289711
 10
730.7561550873215
 20
884.2541042745251
 10
713.6061544983822
 20
878.1678759629103
 10
696.100707902482
 20
873.1955490762594
 10
678.312081503951
 20
869.3576504246703
 10
671.2344582957121
 20
869.23545070225
 10
664.3830369387033
 20
871.0146952798496
 10
658.2591743975426
 20
874.5651872766867
 10
653.310987832152
 20
879.6271171908555
 10
649.9005635039502
 20
885.8300754246702
 10
644.4704065039513
 20
885.8300754246702
 10
642.4704065039513
 20
882.8300754246702
 10
636.4704065039513
 20
882.8300754246702
 10
634.4704065039514
 20
887.8300754246701
 10
631.4704065039514
 20
887.8300754246701
 10
629.4704065039513
 20
883.8300754246702
 10
623.4704065039514
 20
883.8300754246702
 10
621.4704065039513
 20
887.8300754246701
 10
615.4704065039513
 20
887.8300754246701
 10
615.4704065039513
 20
875.8300754246702
 10
626.8725758088731
 20
875.8300754246702
 10
632.5368325443414
 20
875.2010391755575
 10
637.9786524237024
 20
873.5080869726916
 10
643.0000970358305
 20
870.8127976362701
 10
647.4185185039532
 20
867.2132084246658
 10
653.1978082281711
 20
863.1498417538205
 10
659.5625030068913
 20
860.0836064858995
 10
666.3421117111101
 20
858.0966378766278
 10
673.3550288035622
 20
857.2421607644027
 10
680.4133995039519
 20
857.5430644246626
 10
699.0277231601103
 20
861.3551383568374
 10
717.3323880148127
 20
866.4506459241783
 10
735.2390160041031
 20
872.8049851385257
 10
752.6611508465612
 20
880.3874761605511
 10
769.5146757613401
 20
889.1615095607667
 10
774.8837201910537
 20
890.844033447367
 10
780.4659582983404
 20
890.1396493780593
 10
785.2487515667526
 20
887.1761339708573
 10
788.3644855039529
 20
882.4910794246644
 10
793.1201820881833
 20
872.989081642936
 10
800.3605307460711
 20
865.2120666354131
 10
809.4988205586524
 20
859.7902335090294
 10
819.7945434249122
 20
857.1629332416597
 10
830.4133995039519
 20
857.5430644246626
 10
846.2943249721719
 20
860.6483160320895
 10
861.9480813828413
 20
864.7478637505811
 10
877.3124814503026
 20
869.8254214191365
 10
892.3264874110209
 20
875.860817521996
 10
906.9304535039519
 20
882.8300754246702
 10
912.9663063478911
 20
886.1837655001982
 10
919.4940330056816
 20
886.8917838303568
 10
928.4704065039514
 20
885.8300754246702
  0
HATCH
  5
A3
330
1F
100
AcDbEntity
  8
BETONNEN DAKPANNEN
  6
Continuous
 62
   254
370
    13
100
AcDbHatch
 10
0.0
 20
0.0
 30
0.0
210
0.0
220
0.0
230
1.0
  2
SOLID
 70
     1
 71
     0
 91
        1
 92
        0
 93
       76
 72
     1
 10
730.7561550873215
 20
884.2541042745251
 11
713.6061544983822
 21
878.1678759629103
 72
     1
 10
713.6061544983822
 20
878.1678759629103
 11
696.100707902482
 21
873.1955490762594
 72
     1
 10
696.100707902482
 20
873.1955490762594
 11
678.312081503951
 21
869.3576504246703
 72
     1
 10
678.312081503951
 20
869.3576504246703
 11
671.2344582957121
 21
869.23545070225
 72
     1
 10
671.2344582957121
 20
869.23545070225
 11
664.3830369387033
 21
871.0146952798496
 72
     1
 10
664.3830369387033
 20
871.0146952798496
 11
658.2591743975426
 21
874.5651872766867
 72
     1
 10
658.2591743975426
 20
874.5651872766867
 11
653.310987832152
 21
879.6271171908555
 72
     1
 10
653.310987832152
 20
879.6271171908555
 11
649.9005635039502
 21
885.8300754246702
 72
     1
 10
649.9005635039502
 20
885.8300754246702
 11
644.4704065039513
 21
885.8300754246702
 72
     1
 10
644.4704065039513
 20
885.8300754246702
 11
642.4704065039513
 21
882.8300754246702
 72
     1
 10
642.4704065039513
 20
882.8300754246702
 11
636.4704065039513
 21
882.8300754246702
 72
     1
 10
636.4704065039513
 20
882.8300754246702
 11
634.4704065039514
 21
887.8300754246701
 72
     1
 10
634.4704065039514
 20
887.8300754246701
 11
631.4704065039514
 21
887.8300754246701
 72
     1
 10
631.4704065039514
 20
887.8300754246701
 11
629.4704065039513
 21
883.8300754246702
 72
     1
 10
629.4704065039513
 20
883.8300754246702
 11
623.4704065039514
 21
883.8300754246702
 72
     1
 10
623.4704065039514
 20
883.8300754246702
 11
621.4704065039513
 21
887.8300754246701
 72
     1
 10
621.4704065039513
 20
887.8300754246701
 11
615.4704065039513
 21
887.8300754246701
 72
     1
 10
615.4704065039513
 20
887.8300754246701
 11
615.4704065039513
 21
875.8300754246702
 72
     1
 10
615.4704065039513
 20
875.8300754246702
 11
626.8725758088731
 21
875.8300754246702
 72
     1
 10
626.8725758088731
 20
875.8300754246702
 11
632.5368325443414
 21
875.2010391755575
 72
     1
 10
632.5368325443414
 20
875.2010391755575
 11
637.9786524237024
 21
873.5080869726916
 72
     1
 10
637.9786524237024
 20
873.5080869726916
 11
643.0000970358305
 21
870.8127976362701
 72
     1
 10
643.0000970358305
 20
870.8127976362701
 11
647.4185185039532
 21
867.2132084246658
 72
     1
 10
647.4185185039532
 20
867.2132084246658
 11
653.1978082281711
 21
863.1498417538205
 72
     1
 10
653.1978082281711
 20
863.1498417538205
 11
659.5625030068913
 21
860.0836064858995
 72
     1
 10
659.5625030068913
 20
860.0836064858995
 11
666.3421117111101
 21
858.0966378766278
 72
     1
 10
666.3421117111101
 20
858.0966378766278
 11
673.3550288035622
 21
857.2421607644027
 72
     1
 10
673.3550288035622
 20
857.2421607644027
 11
680.4133995039519
 21
857.5430644246626
 72
     1
 10
680.4133995039519
 20
857.5430644246626
 11
699.0277231601103
 21
861.3551383568374
 72
     1
 10
699.0277231601103
 20
861.3551383568374
 11
717.3323880148127
 21
866.4506459241783
 72
     1
 10
717.3323880148127
 20
866.4506459241783
 11
735.2390160041031
 21
872.8049851385257
 72
     1
 10
735.2390160041031
 20
872.8049851385257
 11
752.6611508465612
 21
880.3874761605511
 72
     1
 10
752.6611508465612
 20
880.3874761605511
 11
769.5146757613401
 21
889.1615095607667
 72
     1
 10
769.5146757613401
 20
889.1615095607667
 11
774.8837201910537
 21
890.844033447367
 72
     1
 10
774.8837201910537
 20
890.844033447367
 11
780.4659582983404
 21
890.1396493780593
 72
     1
 10
780.4659582983404
 20
890.1396493780593
 11
785.2487515667526
 21
887.1761339708573
 72
     1
 10
785.2487515667526
 20
887.1761339708573
 11
788.3644855039529
 21
882.4910794246644
 72
     1
 10
788.3644855039529
 20
882.4910794246644
 11
793.1201820881833
 21
872.989081642936
 72
     1
 10
793.1201820881833
 20
872.989081642936
 11
800.3605307460711
 21
865.2120666354131
 72
     1
 10
800.3605307460711
 20
865.2120666354131
 11
809.4988205586524
 21
859.7902335090294
 72
     1
 10
809.4988205586524
 20
859.7902335090294
 11
819.7945434249122
 21
857.1629332416597
 72
     1
 10
819.7945434249122
 20
857.1629332416597
 11
830.4133995039519
 21
857.5430644246626
 72
     1
 10
830.4133995039519
 20
857.5430644246626
 11
846.2943249721719
 21
860.6483160320895
 72
     1
 10
846.2943249721719
 20
860.6483160320895
 11
861.9480813828413
 21
864.7478637505811
 72
     1
 10
861.9480813828413
 20
864.7478637505811
 11
877.3124814503026
 21
869.8254214191365
 72
     1
 10
877.3124814503026
 20
869.8254214191365
 11
892.3264874110209
 21
875.860817521996
 72
     1
 10
892.3264874110209
 20
875.860817521996
 11
906.9304535039519
 21
882.8300754246702
 72
     1
 10
906.9304535039519
 20
882.8300754246702
 11
912.9663063478911
 21
886.1837655001982
 72
     1
 10
912.9663063478911
 20
886.1837655001982
 11
919.4940330056816
 21
886.8917838303568
 72
     1
 10
919.4940330056816
 20
886.8917838303568
 11
928.4704065039514
 21
885.8300754246702
 72
     1
 10
928.4704065039514
 20
885.8300754246702
 11
935.4704065039513
 21
797.8300754246702
 72
     1
 10
935.4704065039513
 20
797.8300754246702
 11
947.4704065039514
 21
797.8300754246702
 72
     1
 10
947.4704065039514
 20
797.8300754246702
 11
947.4704065039514
 21
889.8300754246703
 72
     1
 10
947.4704065039514
 20
889.8300754246703
 11
943.7462802285518
 21
895.2200007453466
 72
     1
 10
943.7462802285518
 20
895.2200007453466
 11
938.7063878672016
 21
899.4056782623339
 72
     1
 10
938.7063878672016
 20
899.4056782623339
 11
932.7243087185415
 21
902.0768467991402
 72
     1
 10
932.7243087185415
 20
902.0768467991402
 11
926.2434613454534
 21
903.035507153163
 72
     1
 10
926.2434613454534
 20
903.035507153163
 11
919.7442355794811
 21
902.2105993171244
 72
     1
 10
919.7442355794811
 20
902.2105993171244
 11
913.7083827355418
 21
899.6632695754197
 72
     1
 10
913.7083827355418
 20
899.6632695754197
 11
897.4863944544232
 21
891.4140047335495
 72
     1
 10
897.4863944544232
 20
891.4140047335495
 11
880.7649002487705
 21
884.2310460560366
 72
     1
 10
880.7649002487705
 20
884.2310460560366
 11
863.6139010071129
 21
878.1444633397587
 72
     1
 10
863.6139010071129
 20
878.1444633397587
 11
846.1051958844219
 21
873.1797368619409
 72
     1
 10
846.1051958844219
 20
873.1797368619409
 11
828.3120815039509
 21
869.3576504246703
 72
     1
 10
828.3120815039509
 20
869.3576504246703
 11
820.9802482665327
 21
869.2669502465395
 72
     1
 10
820.9802482665327
 20
869.2669502465395
 11
813.9110811099525
 21
871.2139698988721
 72
     1
 10
813.9110811099525
 20
871.2139698988721
 11
807.6596182320608
 21
875.045839082184
 72
     1
 10
807.6596182320608
 20
875.045839082184
 11
802.716695065963
 21
880.4616971372997
 72
     1
 10
802.716695065963
 20
880.4616971372997
 11
799.4704065039513
 21
887.0363164246628
 72
     1
 10
799.4704065039513
 20
887.0363164246628
 11
794.9713305017903
 21
894.2799330289235
 72
     1
 10
794.9713305017903
 20
894.2799330289235
 11
788.3259417550034
 21
899.6231973775683
 72
     1
 10
788.3259417550034
 20
899.6231973775683
 11
780.2853131435913
 21
902.4622043129747
 72
     1
 10
780.2853131435913
 20
902.4622043129747
 11
771.7582109842806
 21
902.4760844549273
 72
     1
 10
771.7582109842806
 20
902.4760844549273
 11
763.7083828943832
 21
899.6632696375417
 72
     1
 10
763.7083828943832
 20
899.6632696375417
 11
747.4799108270126
 21
891.4291087289711
 72
     1
 10
747.4799108270126
 20
891.4291087289711
 11
730.7561550873215
 21
884.2541042745251
 97
        0
 75
     0
 76
     1
 98
        0
450
        0
451
        0
460
0.0
461
0.0
452
        1
462
0.0
453
        0
470

1001
ACAD
1010
0.0
1020
0.0
1030
0.0
1001
NEM_ODX
1002
{
1000
BZM_DEPEND
1070
     1
1000
BZM_SCALE
1040
5.0
1000
HATCHING_314
1002
}
  0
HATCH
  5
A4
330
1F
100
AcDbEntity
  8
BETONNEN DAKPANNEN
  6
Continuous
 62
     7
370
    13
100
AcDbHatch
 10
0.0
 20
0.0
 30
0.0
210
0.0
220
0.0
230
1.0
  2
HATCHING_314
 70
     0
 71
     0
 91
        1
 92
        0
 93
       76
 72
     1
 10
730.7561550873215
 20
884.2541042745251
 11
713.6061544983822
 21
878.1678759629103
 72
     1
 10
713.6061544983822
 20
878.1678759629103
 11
696.100707902482
 21
873.1955490762594
 72
     1
 10
696.100707902482
 20
873.1955490762594
 11
678.312081503951
 21
869.3576504246703
 72
     1
 10
678.312081503951
 20
869.3576504246703
 11
671.2344582957121
 21
869.23545070225
 72
     1
 10
671.2344582957121
 20
869.23545070225
 11
664.3830369387033
 21
871.0146952798496
 72
     1
 10
664.3830369387033
 20
871.0146952798496
 11
658.2591743975426
 21
874.5651872766867
 72
     1
 10
658.2591743975426
 20
874.5651872766867
 11
653.310987832152
 21
879.6271171908555
 72
     1
 10
653.310987832152
 20
879.6271171908555
 11
649.9005635039502
 21
885.8300754246702
 72
     1
 10
649.9005635039502
 20
885.8300754246702
 11
644.4704065039513
 21
885.8300754246702
 72
     1
 10
644.4704065039513
 20
885.8300754246702
 11
642.4704065039513
 21
882.8300754246702
 72
     1
 10
642.4704065039513
 20
882.8300754246702
 11
636.4704065039513
 21
882.8300754246702
 72
     1
 10
636.4704065039513
 20
882.8300754246702
 11
634.4704065039514
 21
887.8300754246701
 72
     1
 10
634.4704065039514
 20
887.8300754246701
 11
631.4704065039514
 21
887.8300754246701
 72
     1
 10
631.4704065039514
 20
887.8300754246701
 11
629.4704065039513
 21
883.8300754246702
 72
     1
 10
629.4704065039513
 20
883.8300754246702
 11
623.4704065039514
 21
883.8300754246702
 72
     1
 10
623.4704065039514
 20
883.8300754246702
 11
621.4704065039513
 21
887.8300754246701
 72
     1
 10
621.4704065039513
 20
887.8300754246701
 11
615.4704065039513
 21
887.8300754246701
 72
     1
 10
615.4704065039513
 20
887.8300754246701
 11
615.4704065039513
 21
875.8300754246702
 72
     1
 10
615.4704065039513
 20
875.8300754246702
 11
626.8725758088731
 21
875.8300754246702
 72
     1
 10
626.8725758088731
 20
875.8300754246702
 11
632.5368325443414
 21
875.2010391755575
 72
     1
 10
632.5368325443414
 20
875.2010391755575
 11
637.9786524237024
 21
873.5080869726916
 72
     1
 10
637.9786524237024
 20
873.5080869726916
 11
643.0000970358305
 21
870.8127976362701
 72
     1
 10
643.0000970358305
 20
870.8127976362701
 11
647.4185185039532
 21
867.2132084246658
 72
     1
 10
647.4185185039532
 20
867.2132084246658
 11
653.1978082281711
 21
863.1498417538205
 72
     1
 10
653.1978082281711
 20
863.1498417538205
 11
659.5625030068913
 21
860.0836064858995
 72
     1
 10
659.5625030068913
 20
860.0836064858995
 11
666.3421117111101
 21
858.0966378766278
 72
     1
 10
666.3421117111101
 20
858.0966378766278
 11
673.3550288035622
 21
857.2421607644027
 72
     1
 10
673.3550288035622
 20
857.2421607644027
 11
680.4133995039519
 21
857.5430644246626
 72
     1
 10
680.4133995039519
 20
857.5430644246626
 11
699.0277231601103
 21
861.3551383568374
 72
     1
 10
699.0277231601103
 20
861.3551383568374
 11
717.3323880148127
 21
866.4506459241783
 72
     1
 10
717.3323880148127
 20
866.4506459241783
 11
735.2390160041031
 21
872.8049851385257
 72
     1
 10
735.2390160041031
 20
872.8049851385257
 11
752.6611508465612
 21
880.3874761605511
 72
     1
 10
752.6611508465612
 20
880.3874761605511
 11
769.5146757613401
 21
889.1615095607667
 72
     1
 10
769.5146757613401
 20
889.1615095607667
 11
774.8837201910537
 21
890.844033447367
 72
     1
 10
774.8837201910537
 20
890.844033447367
 11
780.4659582983404
 21
890.1396493780593
 72
     1
 10
780.4659582983404
 20
890.1396493780593
 11
785.2487515667526
 21
887.1761339708573
 72
     1
 10
785.2487515667526
 20
887.1761339708573
 11
788.3644855039529
 21
882.4910794246644
 72
     1
 10
788.3644855039529
 20
882.4910794246644
 11
793.1201820881833
 21
872.989081642936
 72
     1
 10
793.1201820881833
 20
872.989081642936
 11
800.3605307460711
 21
865.2120666354131
 72
     1
 10
800.3605307460711
 20
865.2120666354131
 11
809.4988205586524
 21
859.7902335090294
 72
     1
 10
809.4988205586524
 20
859.7902335090294
 11
819.7945434249122
 21
857.1629332416597
 72
     1
 10
819.7945434249122
 20
857.1629332416597
 11
830.4133995039519
 21
857.5430644246626
 72
     1
 10
830.4133995039519
 20
857.5430644246626
 11
846.2943249721719
 21
860.6483160320895
 72
     1
 10
846.2943249721719
 20
860.6483160320895
 11
861.9480813828413
 21
864.7478637505811
 72
     1
 10
861.9480813828413
 20
864.7478637505811
 11
877.3124814503026
 21
869.8254214191365
 72
     1
 10
877.3124814503026
 20
869.8254214191365
 11
892.3264874110209
 21
875.860817521996
 72
     1
 10
892.3264874110209
 20
875.860817521996
 11
906.9304535039519
 21
882.8300754246702
 72
     1
 10
906.9304535039519
 20
882.8300754246702
 11
912.9663063478911
 21
886.1837655001982
 72
     1
 10
912.9663063478911
 20
886.1837655001982
 11
919.4940330056816
 21
886.8917838303568
 72
     1
 10
919.4940330056816
 20
886.8917838303568
 11
928.4704065039514
 21
885.8300754246702
 72
     1
 10
928.4704065039514
 20
885.8300754246702
 11
935.4704065039513
 21
797.8300754246702
 72
     1
 10
935.4704065039513
 20
797.8300754246702
 11
947.4704065039514
 21
797.8300754246702
 72
     1
 10
947.4704065039514
 20
797.8300754246702
 11
947.4704065039514
 21
889.8300754246703
 72
     1
 10
947.4704065039514
 20
889.8300754246703
 11
943.7462802285518
 21
895.2200007453466
 72
     1
 10
943.7462802285518
 20
895.2200007453466
 11
938.7063878672016
 21
899.4056782623339
 72
     1
 10
938.7063878672016
 20
899.4056782623339
 11
932.7243087185415
 21
902.0768467991402
 72
     1
 10
932.7243087185415
 20
902.0768467991402
 11
926.2434613454534
 21
903.035507153163
 72
     1
 10
926.2434613454534
 20
903.035507153163
 11
919.7442355794811
 21
902.2105993171244
 72
     1
 10
919.7442355794811
 20
902.2105993171244
 11
913.7083827355418
 21
899.6632695754197
 72
     1
 10
913.7083827355418
 20
899.6632695754197
 11
897.4863944544232
 21
891.4140047335495
 72
     1
 10
897.4863944544232
 20
891.4140047335495
 11
880.7649002487705
 21
884.2310460560366
 72
     1
 10
880.7649002487705
 20
884.2310460560366
 11
863.6139010071129
 21
878.1444633397587
 72
     1
 10
863.6139010071129
 20
878.1444633397587
 11
846.1051958844219
 21
873.1797368619409
 72
     1
 10
846.1051958844219
 20
873.1797368619409
 11
828.3120815039509
 21
869.3576504246703
 72
     1
 10
828.3120815039509
 20
869.3576504246703
 11
820.9802482665327
 21
869.2669502465395
 72
     1
 10
820.9802482665327
 20
869.2669502465395
 11
813.9110811099525
 21
871.2139698988721
 72
     1
 10
813.9110811099525
 20
871.2139698988721
 11
807.6596182320608
 21
875.045839082184
 72
     1
 10
807.6596182320608
 20
875.045839082184
 11
802.716695065963
 21
880.4616971372997
 72
     1
 10
802.716695065963
 20
880.4616971372997
 11
799.4704065039513
 21
887.0363164246628
 72
     1
 10
799.4704065039513
 20
887.0363164246628
 11
794.9713305017903
 21
894.2799330289235
 72
     1
 10
794.9713305017903
 20
894.2799330289235
 11
788.3259417550034
 21
899.6231973775683
 72
     1
 10
788.3259417550034
 20
899.6231973775683
 11
780.2853131435913
 21
902.4622043129747
 72
     1
 10
780.2853131435913
 20
902.4622043129747
 11
771.7582109842806
 21
902.4760844549273
 72
     1
 10
771.7582109842806
 20
902.4760844549273
 11
763.7083828943832
 21
899.6632696375417
 72
     1
 10
763.7083828943832
 20
899.6632696375417
 11
747.4799108270126
 21
891.4291087289711
 72
     1
 10
747.4799108270126
 20
891.4291087289711
 11
730.7561550873215
 21
884.2541042745251
 97
        0
 75
     0
 76
     2
 52
0.0
 41
5.0
 77
     0
 78
     2
 53
45.0
 43
0.0
 44
0.0
 45
-5.303300858899105
 46
5.303300858899106
 79
     0
 53
135.0
 43
0.0
 44
0.0
 45
-5.303300858899106
 46
-5.303300858899105
 79
     0
 98
        0
1001
ACAD
1010
0.0
1020
0.0
1030
0.0
1001
NEM_ODX
1002
{
1000
BZM_DEPEND
1070
     1
1000
BZM_SCALE
1040
5.0
1000
HATCHING_314
1002
}
  0
LWPOLYLINE
  5
A5
330
1F
100
AcDbEntity
  8
BETONNEN DAKPANNEN
  6
Continuous
 62
     7
370
    25
100
AcDbPolyline
 90
       89
 70
     0
 43
0.0
 10
326.8725758088731
 20
875.8300754246702
 10
315.4704065039514
 20
875.8300754246702
 10
315.4704065039514
 20
887.8300754246701
 10
321.4704065039514
 20
887.8300754246701
 10
323.4704065039514
 20
883.8300754246702
 10
329.4704065039514
 20
883.8300754246702
 10
331.4704065039514
 20
887.8300754246701
 10
334.4704065039514
 20
887.8300754246701
 10
336.4704065039514
 20
882.8300754246702
 10
342.4704065039514
 20
882.8300754246702
 10
344.4704065039514
 20
885.8300754246702
 10
349.9005635039503
 20
885.8300754246702
 10
353.310987832152
 20
879.6271171908555
 10
358.2591743975427
 20
874.5651872766867
 10
364.3830369387033
 20
871.0146952798496
 10
371.2344582957121
 20
869.23545070225
 10
378.312081503951
 20
869.3576504246703
 10
396.1007079024821
 20
873.1955490762594
 10
413.6061544983822
 20
878.1678759629103
 10
430.7561550873215
 20
884.2541042745251
 10
447.4799108270126
 20
891.4291087289711
 10
463.7083828943832
 20
899.6632696375417
 10
471.7582109842806
 20
902.4760844549273
 10
480.2853131435913
 20
902.4622043129747
 10
488.3259417550034
 20
899.6231973775683
 10
494.9713305017903
 20
894.2799330289235
 10
499.4704065039513
 20
887.0363164246628
 10
502.716695065963
 20
880.4616971372997
 10
507.6596182320608
 20
875.045839082184
 10
513.9110811099526
 20
871.2139698988721
 10
520.9802482665327
 20
869.2669502465395
 10
528.312081503951
 20
869.3576504246703
 10
546.1051958844218
 20
873.1797368619409
 10
563.6139010071128
 20
878.1444633397587
 10
580.7649002487705
 20
884.2310460560366
 10
597.4863944544231
 20
891.4140047335495
 10
613.7083827355418
 20
899.6632695754197
 10
619.744235579481
 20
902.2105993171244
 10
626.2434613454534
 20
903.035507153163
 10
632.7243087185415
 20
902.0768467991402
 10
638.7063878672015
 20
899.4056782623339
 10
643.7462802285518
 20
895.2200007453466
 10
647.4704065039514
 20
889.8300754246703
 10
647.4704065039514
 20
887.8300754246701
 10
643.4704065039514
 20
887.8300754246701
 10
641.4704065039513
 20
884.8300754246702
 10
638.4704065039514
 20
884.8300754246702
 10
635.4704065039514
 20
889.8300754246703
 10
630.4704065039514
 20
889.8300754246703
 10
628.4704065039513
 20
885.8300754246702
 10
625.4704065039513
 20
885.8300754246702
 10
622.4704065039514
 20
890.8300754246702
 10
619.4704065039513
 20
890.8300754246702
 10
613.4704065039514
 20
888.8300754246701
 10
613.2949815039538
 20
885.6641014246671
 10
613.1089104151506
 20
884.7776298664793
 10
612.6667348992814
 20
883.9871005796704
 10
612.0087659666205
 20
883.3645804877997
 10
611.1949847640716
 20
882.9668184824512
 10
610.2995765039523
 20
882.8300754246702
 10
606.9304535039519
 20
882.8300754246702
 10
592.3264874110209
 20
875.860817521996
 10
577.3124814503026
 20
869.8254214191365
 10
561.9480813828413
 20
864.7478637505811
 10
546.294324972172
 20
860.6483160320895
 10
530.4133995039519
 20
857.5430644246626
 10
519.7945434249122
 20
857.1629332416597
 10
509.4988205586523
 20
859.7902335090294
 10
500.3605307460711
 20
865.2120666354131
 10
493.1201820881833
 20
872.989081642936
 10
488.3644855039529
 20
882.4910794246644
 10
485.2487515667526
 20
887.1761339708573
 10
480.4659582983403
 20
890.1396493780593
 10
474.8837201910537
 20
890.844033447367
 10
469.5146757613438
 20
889.1615095607667
 10
452.6611508465612
 20
880.3874761605511
 10
435.2390160041031
 20
872.8049851385257
 10
417.3323880148127
 20
866.4506459241783
 10
399.0277231601103
 20
861.3551383568374
 10
380.4133995039519
 20
857.5430644246626
 10
373.3550288035622
 20
857.2421607644027
 10
366.3421117111138
 20
858.0966378766278
 10
359.5625030068914
 20
860.0836064858995
 10
353.1978082281712
 20
863.1498417538205
 10
347.4185185039532
 20
867.2132084246658
 10
343.0000970358305
 20
870.8127976362701
 10
337.9786524237025
 20
873.5080869726916
 10
332.5368325443414
 20
875.2010391755575
 10
326.8725757796528
 20
875.8300754500487
  0
HATCH
  5
A6
330
1F
100
AcDbEntity
  8
BETONNEN DAKPANNEN
  6
Continuous
 62
   254
370
    13
100
AcDbHatch
 10
0.0
 20
0.0
 30
0.0
210
0.0
220
0.0
230
1.0
  2
SOLID
 70
     1
 71
     0
 91
        1
 92
        0
 93
       88
 72
     1
 10
417.3323880148127
 20
866.4506459241783
 11
435.2390160041031
 21
872.8049851385257
 72
     1
 10
435.2390160041031
 20
872.8049851385257
 11
452.6611508465612
 21
880.3874761605511
 72
     1
 10
452.6611508465612
 20
880.3874761605511
 11
469.5146757613438
 21
889.1615095607667
 72
     1
 10
469.5146757613438
 20
889.1615095607667
 11
474.8837201910537
 21
890.844033447367
 72
     1
 10
474.8837201910537
 20
890.844033447367
 11
480.4659582983403
 21
890.1396493780593
 72
     1
 10
480.4659582983403
 20
890.1396493780593
 11
485.2487515667417
 21
887.1761339708573
 72
     1
 10
485.2487515667417
 20
887.1761339708573
 11
488.3644855039529
 21
882.4910794246644
 72
     1
 10
488.3644855039529
 20
882.4910794246644
 11
493.1201820881833
 21
872.989081642936
 72
     1
 10
493.1201820881833
 20
872.989081642936
 11
500.3605307460711
 21
865.2120666354131
 72
     1
 10
500.3605307460711
 20
865.2120666354131
 11
509.4988205586523
 21
859.7902335090294
 72
     1
 10
509.4988205586523
 20
859.7902335090294
 11
519.7945434249122
 21
857.1629332416597
 72
     1
 10
519.7945434249122
 20
857.1629332416597
 11
530.4133995039519
 21
857.5430644246626
 72
     1
 10
530.4133995039519
 20
857.5430644246626
 11
546.294324972172
 21
860.6483160320895
 72
     1
 10
546.294324972172
 20
860.6483160320895
 11
561.9480813828413
 21
864.7478637505811
 72
     1
 10
561.9480813828413
 20
864.7478637505811
 11
577.3124814503026
 21
869.8254214191365
 72
     1
 10
577.3124814503026
 20
869.8254214191365
 11
592.3264874110209
 21
875.860817521996
 72
     1
 10
592.3264874110209
 20
875.860817521996
 11
606.9304535039519
 21
882.8300754246702
 72
     1
 10
606.9304535039519
 20
882.8300754246702
 11
610.2995765039523
 21
882.8300754246702
 72
     1
 10
610.2995765039523
 20
882.8300754246702
 11
611.1949847640716
 21
882.9668184824512
 72
     1
 10
611.1949847640716
 20
882.9668184824512
 11
612.0087659666205
 21
883.3645804877997
 72
     1
 10
612.0087659666205
 20
883.3645804877997
 11
612.6667348992814
 21
883.9871005796704
 72
     1
 10
612.6667348992814
 20
883.9871005796704
 11
613.1089104151506
 21
884.7776298664793
 72
     1
 10
613.1089104151506
 20
884.7776298664793
 11
613.2949815039538
 21
885.6641014246671
 72
     1
 10
613.2949815039538
 20
885.6641014246671
 11
613.4704065039514
 21
888.8300754246701
 72
     1
 10
613.4704065039514
 20
888.8300754246701
 11
619.4704065039513
 21
890.8300754246702
 72
     1
 10
619.4704065039513
 20
890.8300754246702
 11
622.4704065039514
 21
890.8300754246702
 72
     1
 10
622.4704065039514
 20
890.8300754246702
 11
625.4704065039513
 21
885.8300754246702
 72
     1
 10
625.4704065039513
 20
885.8300754246702
 11
628.4704065039513
 21
885.8300754246702
 72
     1
 10
628.4704065039513
 20
885.8300754246702
 11
630.4704065039514
 21
889.8300754246703
 72
     1
 10
630.4704065039514
 20
889.8300754246703
 11
635.4704065039514
 21
889.8300754246703
 72
     1
 10
635.4704065039514
 20
889.8300754246703
 11
638.4704065039514
 21
884.8300754246702
 72
     1
 10
638.4704065039514
 20
884.8300754246702
 11
641.4704065039513
 21
884.8300754246702
 72
     1
 10
641.4704065039513
 20
884.8300754246702
 11
643.4704065039514
 21
887.8300754246701
 72
     1
 10
643.4704065039514
 20
887.8300754246701
 11
647.4704065039514
 21
887.8300754246701
 72
     1
 10
647.4704065039514
 20
887.8300754246701
 11
647.4704065039514
 21
889.8300754246703
 72
     1
 10
647.4704065039514
 20
889.8300754246703
 11
643.7462802285518
 21
895.2200007453466
 72
     1
 10
643.7462802285518
 20
895.2200007453466
 11
638.7063878672015
 21
899.4056782623339
 72
     1
 10
638.7063878672015
 20
899.4056782623339
 11
632.7243087185415
 21
902.0768467991402
 72
     1
 10
632.7243087185415
 20
902.0768467991402
 11
626.2434613454534
 21
903.035507153163
 72
     1
 10
626.2434613454534
 20
903.035507153163
 11
619.744235579481
 21
902.2105993171244
 72
     1
 10
619.744235579481
 20
902.2105993171244
 11
613.7083827355418
 21
899.6632695754197
 72
     1
 10
613.7083827355418
 20
899.6632695754197
 11
597.4863944544231
 21
891.4140047335495
 72
     1
 10
597.4863944544231
 20
891.4140047335495
 11
580.7649002487705
 21
884.2310460560366
 72
     1
 10
580.7649002487705
 20
884.2310460560366
 11
563.6139010071128
 21
878.1444633397587
 72
     1
 10
563.6139010071128
 20
878.1444633397587
 11
546.1051958844218
 21
873.1797368619409
 72
     1
 10
546.1051958844218
 20
873.1797368619409
 11
528.312081503951
 21
869.3576504246703
 72
     1
 10
528.312081503951
 20
869.3576504246703
 11
520.9802482665327
 21
869.2669502465395
 72
     1
 10
520.9802482665327
 20
869.2669502465395
 11
513.9110811099526
 21
871.2139698988721
 72
     1
 10
513.9110811099526
 20
871.2139698988721
 11
507.6596182320535
 21
875.045839082184
 72
     1
 10
507.6596182320535
 20
875.045839082184
 11
502.716695065963
 21
880.4616971372997
 72
     1
 10
502.716695065963
 20
880.4616971372997
 11
499.4704065039513
 21
887.0363164246628
 72
     1
 10
499.4704065039513
 20
887.0363164246628
 11
494.9713305017903
 21
894.2799330289235
 72
     1
 10
494.9713305017903
 20
894.2799330289235
 11
488.3259417550034
 21
899.6231973775683
 72
     1
 10
488.3259417550034
 20
899.6231973775683
 11
480.2853131435913
 21
902.4622043129747
 72
     1
 10
480.2853131435913
 20
902.4622043129747
 11
471.7582109842806
 21
902.4760844549273
 72
     1
 10
471.7582109842806
 20
902.4760844549273
 11
463.7083828943832
 21
899.6632696375417
 72
     1
 10
463.7083828943832
 20
899.6632696375417
 11
447.4799108270126
 21
891.4291087289711
 72
     1
 10
447.4799108270126
 20
891.4291087289711
 11
430.7561550873215
 21
884.2541042745251
 72
     1
 10
430.7561550873215
 20
884.2541042745251
 11
413.6061544983822
 21
878.1678759629103
 72
     1
 10
413.6061544983822
 20
878.1678759629103
 11
396.1007079024821
 21
873.1955490762594
 72
     1
 10
396.1007079024821
 20
873.1955490762594
 11
378.312081503951
 21
869.3576504246703
 72
     1
 10
378.312081503951
 20
869.3576504246703
 11
371.2344582957121
 21
869.23545070225
 72
     1
 10
371.2344582957121
 20
869.23545070225
 11
364.3830369387033
 21
871.0146952798496
 72
     1
 10
364.3830369387033
 20
871.0146952798496
 11
358.2591743975427
 21
874.5651872766867
 72
     1
 10
358.2591743975427
 20
874.5651872766867
 11
353.310987832152
 21
879.6271171908555
 72
     1
 10
353.310987832152
 20
879.6271171908555
 11
349.9005635039503
 21
885.8300754246702
 72
     1
 10
349.9005635039503
 20
885.8300754246702
 11
344.4704065039514
 21
885.8300754246702
 72
     1
 10
344.4704065039514
 20
885.8300754246702
 11
342.4704065039514
 21
882.8300754246702
 72
     1
 10
342.4704065039514
 20
882.8300754246702
 11
336.4704065039514
 21
882.8300754246702
 72
     1
 10
336.4704065039514
 20
882.8300754246702
 11
334.4704065039514
 21
887.8300754246701
 72
     1
 10
334.4704065039514
 20
887.8300754246701
 11
331.4704065039514
 21
887.8300754246701
 72
     1
 10
331.4704065039514
 20
887.8300754246701
 11
329.4704065039514
 21
883.8300754246702
 72
     1
 10
329.4704065039514
 20
883.8300754246702
 11
323.4704065039514
 21
883.8300754246702
 72
     1
 10
323.4704065039514
 20
883.8300754246702
 11
321.4704065039514
 21
887.8300754246701
 72
     1
 10
321.4704065039514
 20
887.8300754246701
 11
315.4704065039514
 21
887.8300754246701
 72
     1
 10
315.4704065039514
 20
887.8300754246701
 11
315.4704065039514
 21
875.8300754246702
 72
     1
 10
315.4704065039514
 20
875.8300754246702
 11
326.8725757796528
 21
875.8300754500487
 72
     1
 10
326.8725757796528
 20
875.8300754500487
 11
332.5368325443414
 21
875.2010391755575
 72
     1
 10
332.5368325443414
 20
875.2010391755575
 11
337.9786524237025
 21
873.5080869726916
 72
     1
 10
337.9786524237025
 20
873.5080869726916
 11
343.0000970358305
 21
870.8127976362701
 72
     1
 10
343.0000970358305
 20
870.8127976362701
 11
347.4185185039532
 21
867.2132084246658
 72
     1
 10
347.4185185039532
 20
867.2132084246658
 11
353.1978082281712
 21
863.1498417538205
 72
     1
 10
353.1978082281712
 20
863.1498417538205
 11
359.5625030068914
 21
860.0836064858995
 72
     1
 10
359.5625030068914
 20
860.0836064858995
 11
366.3421117111138
 21
858.0966378766278
 72
     1
 10
366.3421117111138
 20
858.0966378766278
 11
373.3550288035622
 21
857.2421607644027
 72
     1
 10
373.3550288035622
 20
857.2421607644027
 11
380.4133995039519
 21
857.5430644246626
 72
     1
 10
380.4133995039519
 20
857.5430644246626
 11
399.0277231601103
 21
861.3551383568374
 72
     1
 10
399.0277231601103
 20
861.3551383568374
 11
417.3323880148127
 21
866.4506459241783
 97
        0
 75
     0
 76
     1
 98
        0
450
        0
451
        0
460
0.0
461
0.0
452
        1
462
0.0
453
        0
470

1001
ACAD
1010
0.0
1020
0.0
1030
0.0
1001
NEM_ODX
1002
{
1000
BZM_DEPEND
1070
     1
1000
BZM_SCALE
1040
5.0
1000
HATCHING_314
1002
}
  0
HATCH
  5
A7
330
1F
100
AcDbEntity
  8
BETONNEN DAKPANNEN
  6
Continuous
 62
     7
370
    13
100
AcDbHatch
 10
0.0
 20
0.0
 30
0.0
210
0.0
220
0.0
230
1.0
  2
HATCHING_314
 70
     0
 71
     0
 91
        1
 92
        0
 93
       88
 72
     1
 10
417.3323880148127
 20
866.4506459241783
 11
435.2390160041031
 21
872.8049851385257
 72
     1
 10
435.2390160041031
 20
872.8049851385257
 11
452.6611508465612
 21
880.3874761605511
 72
     1
 10
452.6611508465612
 20
880.3874761605511
 11
469.5146757613438
 21
889.1615095607667
 72
     1
 10
469.5146757613438
 20
889.1615095607667
 11
474.8837201910537
 21
890.844033447367
 72
     1
 10
474.8837201910537
 20
890.844033447367
 11
480.4659582983403
 21
890.1396493780593
 72
     1
 10
480.4659582983403
 20
890.1396493780593
 11
485.2487515667417
 21
887.1761339708573
 72
     1
 10
485.2487515667417
 20
887.1761339708573
 11
488.3644855039529
 21
882.4910794246644
 72
     1
 10
488.3644855039529
 20
882.4910794246644
 11
493.1201820881833
 21
872.989081642936
 72
     1
 10
493.1201820881833
 20
872.989081642936
 11
500.3605307460711
 21
865.2120666354131
 72
     1
 10
500.3605307460711
 20
865.2120666354131
 11
509.4988205586523
 21
859.7902335090294
 72
     1
 10
509.4988205586523
 20
859.7902335090294
 11
519.7945434249122
 21
857.1629332416597
 72
     1
 10
519.7945434249122
 20
857.1629332416597
 11
530.4133995039519
 21
857.5430644246626
 72
     1
 10
530.4133995039519
 20
857.5430644246626
 11
546.294324972172
 21
860.6483160320895
 72
     1
 10
546.294324972172
 20
860.6483160320895
 11
561.9480813828413
 21
864.7478637505811
 72
     1
 10
561.9480813828413
 20
864.7478637505811
 11
577.3124814503026
 21
869.8254214191365
 72
     1
 10
577.3124814503026
 20
869.8254214191365
 11
592.3264874110209
 21
875.860817521996
 72
     1
 10
592.3264874110209
 20
875.860817521996
 11
606.9304535039519
 21
882.8300754246702
 72
     1
 10
606.9304535039519
 20
882.8300754246702
 11
610.2995765039523
 21
882.8300754246702
 72
     1
 10
610.2995765039523
 20
882.8300754246702
 11
611.1949847640716
 21
882.9668184824512
 72
     1
 10
611.1949847640716
 20
882.9668184824512
 11
612.0087659666205
 21
883.3645804877997
 72
     1
 10
612.0087659666205
 20
883.3645804877997
 11
612.6667348992814
 21
883.9871005796704
 72
     1
 10
612.6667348992814
 20
883.9871005796704
 11
613.1089104151506
 21
884.7776298664793
 72
     1
 10
613.1089104151506
 20
884.7776298664793
 11
613.2949815039538
 21
885.6641014246671
 72
     1
 10
613.2949815039538
 20
885.6641014246671
 11
613.4704065039514
 21
888.8300754246701
 72
     1
 10
613.4704065039514
 20
888.8300754246701
 11
619.4704065039513
 21
890.8300754246702
 72
     1
 10
619.4704065039513
 20
890.8300754246702
 11
622.4704065039514
 21
890.8300754246702
 72
     1
 10
622.4704065039514
 20
890.8300754246702
 11
625.4704065039513
 21
885.8300754246702
 72
     1
 10
625.4704065039513
 20
885.8300754246702
 11
628.4704065039513
 21
885.8300754246702
 72
     1
 10
628.4704065039513
 20
885.8300754246702
 11
630.4704065039514
 21
889.8300754246703
 72
     1
 10
630.4704065039514
 20
889.8300754246703
 11
635.4704065039514
 21
889.8300754246703
 72
     1
 10
635.4704065039514
 20
889.8300754246703
 11
638.4704065039514
 21
884.8300754246702
 72
     1
 10
638.4704065039514
 20
884.8300754246702
 11
641.4704065039513
 21
884.8300754246702
 72
     1
 10
641.4704065039513
 20
884.8300754246702
 11
643.4704065039514
 21
887.8300754246701
 72
     1
 10
643.4704065039514
 20
887.8300754246701
 11
647.4704065039514
 21
887.8300754246701
 72
     1
 10
647.4704065039514
 20
887.8300754246701
 11
647.4704065039514
 21
889.8300754246703
 72
     1
 10
647.4704065039514
 20
889.8300754246703
 11
643.7462802285518
 21
895.2200007453466
 72
     1
 10
643.7462802285518
 20
895.2200007453466
 11
638.7063878672015
 21
899.4056782623339
 72
     1
 10
638.7063878672015
 20
899.4056782623339
 11
632.7243087185415
 21
902.0768467991402
 72
     1
 10
632.7243087185415
 20
902.0768467991402
 11
626.2434613454534
 21
903.035507153163
 72
     1
 10
626.2434613454534
 20
903.035507153163
 11
619.744235579481
 21
902.2105993171244
 72
     1
 10
619.744235579481
 20
902.2105993171244
 11
613.7083827355418
 21
899.6632695754197
 72
     1
 10
613.7083827355418
 20
899.6632695754197
 11
597.4863944544231
 21
891.4140047335495
 72
     1
 10
597.4863944544231
 20
891.4140047335495
 11
580.7649002487705
 21
884.2310460560366
 72
     1
 10
580.7649002487705
 20
884.2310460560366
 11
563.6139010071128
 21
878.1444633397587
 72
     1
 10
563.6139010071128
 20
878.1444633397587
 11
546.1051958844218
 21
873.1797368619409
 72
     1
 10
546.1051958844218
 20
873.1797368619409
 11
528.312081503951
 21
869.3576504246703
 72
     1
 10
528.312081503951
 20
869.3576504246703
 11
520.9802482665327
 21
869.2669502465395
 72
     1
 10
520.9802482665327
 20
869.2669502465395
 11
513.9110811099526
 21
871.2139698988721
 72
     1
 10
513.9110811099526
 20
871.2139698988721
 11
507.6596182320535
 21
875.045839082184
 72
     1
 10
507.6596182320535
 20
875.045839082184
 11
502.716695065963
 21
880.4616971372997
 72
     1
 10
502.716695065963
 20
880.4616971372997
 11
499.4704065039513
 21
887.0363164246628
 72
     1
 10
499.4704065039513
 20
887.0363164246628
 11
494.9713305017903
 21
894.2799330289235
 72
     1
 10
494.9713305017903
 20
894.2799330289235
 11
488.3259417550034
 21
899.6231973775683
 72
     1
 10
488.3259417550034
 20
899.6231973775683
 11
480.2853131435913
 21
902.4622043129747
 72
     1
 10
480.2853131435913
 20
902.4622043129747
 11
471.7582109842806
 21
902.4760844549273
 72
     1
 10
471.7582109842806
 20
902.4760844549273
 11
463.7083828943832
 21
899.6632696375417
 72
     1
 10
463.7083828943832
 20
899.6632696375417
 11
447.4799108270126
 21
891.4291087289711
 72
     1
 10
447.4799108270126
 20
891.4291087289711
 11
430.7561550873215
 21
884.2541042745251
 72
     1
 10
430.7561550873215
 20
884.2541042745251
 11
413.6061544983822
 21
878.1678759629103
 72
     1
 10
413.6061544983822
 20
878.1678759629103
 11
396.1007079024821
 21
873.1955490762594
 72
     1
 10
396.1007079024821
 20
873.1955490762594
 11
378.312081503951
 21
869.3576504246703
 72
     1
 10
378.312081503951
 20
869.3576504246703
 11
371.2344582957121
 21
869.23545070225
 72
     1
 10
371.2344582957121
 20
869.23545070225
 11
364.3830369387033
 21
871.0146952798496
 72
     1
 10
364.3830369387033
 20
871.0146952798496
 11
358.2591743975427
 21
874.5651872766867
 72
     1
 10
358.2591743975427
 20
874.5651872766867
 11
353.310987832152
 21
879.6271171908555
 72
     1
 10
353.310987832152
 20
879.6271171908555
 11
349.9005635039503
 21
885.8300754246702
 72
     1
 10
349.9005635039503
 20
885.8300754246702
 11
344.4704065039514
 21
885.8300754246702
 72
     1
 10
344.4704065039514
 20
885.8300754246702
 11
342.4704065039514
 21
882.8300754246702
 72
     1
 10
342.4704065039514
 20
882.8300754246702
 11
336.4704065039514
 21
882.8300754246702
 72
     1
 10
336.4704065039514
 20
882.8300754246702
 11
334.4704065039514
 21
887.8300754246701
 72
     1
 10
334.4704065039514
 20
887.8300754246701
 11
331.4704065039514
 21
887.8300754246701
 72
     1
 10
331.4704065039514
 20
887.8300754246701
 11
329.4704065039514
 21
883.8300754246702
 72
     1
 10
329.4704065039514
 20
883.8300754246702
 11
323.4704065039514
 21
883.8300754246702
 72
     1
 10
323.4704065039514
 20
883.8300754246702
 11
321.4704065039514
 21
887.8300754246701
 72
     1
 10
321.4704065039514
 20
887.8300754246701
 11
315.4704065039514
 21
887.8300754246701
 72
     1
 10
315.4704065039514
 20
887.8300754246701
 11
315.4704065039514
 21
875.8300754246702
 72
     1
 10
315.4704065039514
 20
875.8300754246702
 11
326.8725757796528
 21
875.8300754500487
 72
     1
 10
326.8725757796528
 20
875.8300754500487
 11
332.5368325443414
 21
875.2010391755575
 72
     1
 10
332.5368325443414
 20
875.2010391755575
 11
337.9786524237025
 21
873.5080869726916
 72
     1
 10
337.9786524237025
 20
873.5080869726916
 11
343.0000970358305
 21
870.8127976362701
 72
     1
 10
343.0000970358305
 20
870.8127976362701
 11
347.4185185039532
 21
867.2132084246658
 72
     1
 10
347.4185185039532
 20
867.2132084246658
 11
353.1978082281712
 21
863.1498417538205
 72
     1
 10
353.1978082281712
 20
863.1498417538205
 11
359.5625030068914
 21
860.0836064858995
 72
     1
 10
359.5625030068914
 20
860.0836064858995
 11
366.3421117111138
 21
858.0966378766278
 72
     1
 10
366.3421117111138
 20
858.0966378766278
 11
373.3550288035622
 21
857.2421607644027
 72
     1
 10
373.3550288035622
 20
857.2421607644027
 11
380.4133995039519
 21
857.5430644246626
 72
     1
 10
380.4133995039519
 20
857.5430644246626
 11
399.0277231601103
 21
861.3551383568374
 72
     1
 10
399.0277231601103
 20
861.3551383568374
 11
417.3323880148127
 21
866.4506459241783
 97
        0
 75
     0
 76
     2
 52
0.0
 41
5.0
 77
     0
 78
     2
 53
45.0
 43
0.0
 44
0.0
 45
-5.303300858899105
 46
5.303300858899106
 79
     0
 53
135.0
 43
0.0
 44
0.0
 45
-5.303300858899106
 46
-5.303300858899105
 79
     0
 98
        0
1001
ACAD
1010
0.0
1020
0.0
1030
0.0
1001
NEM_ODX
1002
{
1000
BZM_DEPEND
1070
     1
1000
BZM_SCALE
1040
5.0
1000
HATCHING_314
1002
}
  0
LWPOLYLINE
  5
A8
330
1F
100
AcDbEntity
  8
BETONNEN DAKPANNEN
  6
Continuous
 62
    30
370
    18
100
AcDbPolyline
 90
       37
 70
     0
 43
0.0
 10
613.9684584215902
 20
888.9960928211621
 10
613.5561274543106
 20
884.9409433038344
 10
612.2113935131019
 20
881.0930942000959
 10
610.0081010201429
 20
877.663844416511
 10
607.0672405039513
 20
874.841506424662
 10
582.1982585039513
 20
859.8927004246617
 10
564.0722932477619
 20
851.0255409483907
 10
550.7978434216529
 20
846.7276048229214
 10
537.1153551975112
 20
843.9939644137593
 10
523.2085085039507
 20
842.8613174246674
 10
516.6219158373023
 20
844.0679393005812
 10
510.5765297123107
 20
846.9476002086848
 10
505.4892207703524
 20
851.3017278289153
 10
501.710793503953
 20
856.8300754246703
 10
498.618219503951
 20
863.1421624246685
 10
494.0890415738831
 20
869.7739935254176
 10
487.8636998115434
 20
874.8474298330075
 10
480.4543135430103
 20
877.9451118090182
 10
472.4704062337405
 20
878.8122122613385
 10
468.444342877181
 20
878.666076856458
 10
464.4809254799438
 20
877.9436736442113
 10
460.6622060215231
 20
876.6599582642339
 10
457.0672405034311
 20
874.8415064556574
 10
426.7198505049637
 20
856.8300754090705
 10
414.0440239293821
 20
851.0206911601672
 10
400.7798781417404
 20
846.7209283896481
 10
387.1065016905814
 20
843.9888411716347
 10
373.2085085039507
 20
842.8613174246674
 10
366.6219158373024
 20
844.0679393005812
 10
360.5765297123107
 20
846.9476002086848
 10
355.4892207703524
 20
851.3017278289153
 10
351.710793503953
 20
856.8300754246703
 10
350.7948355039516
 20
858.8581524246656
 10
349.0059423435632
 20
862.4747737753459
 10
346.8226190991409
 20
865.8678827221265
 10
344.2724298083922
 20
868.9946419463485
 10
341.387570113613
 20
871.8155766744422
  0
LWPOLYLINE
  5
A9
330
1F
100
AcDbEntity
  8
BETONNEN DAKPANNEN
  6
Continuous
 62
    30
370
    18
100
AcDbPolyline
 90
       27
 70
     0
 43
0.0
 10
313.9684584215902
 20
888.9960928211621
 10
313.5561274543106
 20
884.9409433038344
 10
312.2113935131019
 20
881.0930942000959
 10
310.0081010201429
 20
877.663844416511
 10
307.0672405039513
 20
874.841506424662
 10
282.1982585039513
 20
859.8927004246617
 10
264.072293247762
 20
851.0255409483907
 10
250.7978434216529
 20
846.7276048229214
 10
237.1153551975112
 20
843.9939644137593
 10
223.2085085039507
 20
842.8613174246674
 10
216.6219158373024
 20
844.0679393005812
 10
210.5765297123107
 20
846.9476002086848
 10
205.4892207703524
 20
851.3017278289153
 10
201.710793503953
 20
856.8300754246703
 10
198.618219503951
 20
863.1421624246685
 10
194.0890415738831
 20
869.7739935254176
 10
187.8636998115435
 20
874.8474298330075
 10
180.4543135430103
 20
877.9451118090182
 10
172.4704062337405
 20
878.8122122613385
 10
168.444342877181
 20
878.666076856458
 10
164.4809254799438
 20
877.9436736442113
 10
160.6622060215231
 20
876.6599582642339
 10
157.0672405034311
 20
874.8415064556574
 10
126.7198505049637
 20
856.8300754090705
 10
114.0440239293821
 20
851.0206911601672
 10
100.7798781417404
 20
846.7209283896481
 10
96.87949741304691
 20
845.9415905009919
  0
LWPOLYLINE
  5
AA
330
1F
100
AcDbEntity
  8
BETONNEN DAKPANNEN
  6
Continuous
 62
     7
370
    25
100
AcDbPolyline
 90
       66
 70
     0
 43
0.0
 10
96.87949741304691
 20
873.2454764177928
 10
96.87949741304691
 20
873.4167600006003
 10
113.6061544983822
 20
878.1678759629103
 10
130.7561550873215
 20
884.2541042745251
 10
147.4799108270126
 20
891.4291087289711
 10
163.7083828943832
 20
899.6632696375417
 10
171.7582109842806
 20
902.4760844549273
 10
180.2853131435913
 20
902.4622043129747
 10
188.3259417550034
 20
899.6231973775683
 10
194.9713305017903
 20
894.2799330289235
 10
199.4704065039513
 20
887.0363164246628
 10
202.716695065963
 20
880.4616971372997
 10
207.6596182320609
 20
875.045839082184
 10
213.9110811099527
 20
871.2139698988721
 10
220.9802482665327
 20
869.2669502465395
 10
228.312081503951
 20
869.3576504246703
 10
246.1051958844219
 20
873.1797368619409
 10
263.6139010071129
 20
878.1444633397587
 10
280.7649002487706
 20
884.2310460560366
 10
297.4863944544231
 20
891.4140047335495
 10
313.7083827355418
 20
899.6632695754197
 10
319.744235579481
 20
902.2105993171244
 10
326.2434613454534
 20
903.035507153163
 10
332.7243087185416
 20
902.0768467991402
 10
338.7063878672015
 20
899.4056782623339
 10
343.7462802285518
 20
895.2200007453466
 10
347.4704065039514
 20
889.8300754246703
 10
347.4704065039514
 20
887.8300754246701
 10
343.4704065039514
 20
887.8300754246701
 10
341.4704065039514
 20
884.8300754246702
 10
338.4704065039514
 20
884.8300754246702
 10
335.4704065039514
 20
889.8300754246703
 10
330.4704065039514
 20
889.8300754246703
 10
328.4704065039514
 20
885.8300754246702
 10
325.4704065039514
 20
885.8300754246702
 10
322.4704065039514
 20
890.8300754246702
 10
319.4704065039514
 20
890.8300754246702
 10
313.4704065039514
 20
888.8300754246701
 10
313.2949815039538
 20
885.6641014246671
 10
313.1089104151506
 20
884.7776298664793
 10
312.6667348992814
 20
883.9871005796704
 10
312.0087659666205
 20
883.3645804877997
 10
311.1949847640717
 20
882.9668184824512
 10
310.2995765039523
 20
882.8300754246702
 10
306.9304535039519
 20
882.8300754246702
 10
292.3264874110209
 20
875.860817521996
 10
277.3124814503026
 20
869.8254214191365
 10
261.9480813828413
 20
864.7478637505811
 10
246.294324972172
 20
860.6483160320895
 10
230.4133995039519
 20
857.5430644246626
 10
219.7945434249123
 20
857.1629332416597
 10
209.4988205586524
 20
859.7902335090294
 10
200.3605307460712
 20
865.2120666354131
 10
193.1201820881833
 20
872.989081642936
 10
188.3644855039529
 20
882.4910794246644
 10
185.2487515667526
 20
887.1761339708573
 10
180.4659582983404
 20
890.1396493780593
 10
174.8837201910537
 20
890.844033447367
 10
169.5146757613438
 20
889.1615095607667
 10
152.6611508465612
 20
880.3874761605511
 10
135.2390160041031
 20
872.8049851385257
 10
117.3323880148127
 20
866.4506459241783
 10
99.02772316011033
 20
861.3551383568374
 10
98.34901368931241
 20
861.368744758478
 10
97.76411971263952
 20
861.2308470382231
 10
96.87949741304691
 20
861.0872962492393
  0
HATCH
  5
AB
330
1F
100
AcDbEntity
  8
BETONNEN DAKPANNEN
  6
Continuous
 62
   254
370
    13
100
AcDbHatch
 10
0.0
 20
0.0
 30
0.0
210
0.0
220
0.0
230
1.0
  2
SOLID
 70
     1
 71
     0
 91
        1
 92
        0
 93
       65
 72
     1
 10
117.3323880148127
 20
866.4506459241783
 11
135.2390160041031
 21
872.8049851385257
 72
     1
 10
135.2390160041031
 20
872.8049851385257
 11
152.6611508465612
 21
880.3874761605511
 72
     1
 10
152.6611508465612
 20
880.3874761605511
 11
169.5146757613438
 21
889.1615095607667
 72
     1
 10
169.5146757613438
 20
889.1615095607667
 11
174.8837201910537
 21
890.844033447367
 72
     1
 10
174.8837201910537
 20
890.844033447367
 11
180.4659582983404
 21
890.1396493780593
 72
     1
 10
180.4659582983404
 20
890.1396493780593
 11
185.2487515667417
 21
887.1761339708573
 72
     1
 10
185.2487515667417
 20
887.1761339708573
 11
188.3644855039529
 21
882.4910794246644
 72
     1
 10
188.3644855039529
 20
882.4910794246644
 11
193.1201820881833
 21
872.989081642936
 72
     1
 10
193.1201820881833
 20
872.989081642936
 11
200.3605307460712
 21
865.2120666354131
 72
     1
 10
200.3605307460712
 20
865.2120666354131
 11
209.4988205586524
 21
859.7902335090294
 72
     1
 10
209.4988205586524
 20
859.7902335090294
 11
219.7945434249123
 21
857.1629332416597
 72
     1
 10
219.7945434249123
 20
857.1629332416597
 11
230.4133995039519
 21
857.5430644246626
 72
     1
 10
230.4133995039519
 20
857.5430644246626
 11
246.294324972172
 21
860.6483160320895
 72
     1
 10
246.294324972172
 20
860.6483160320895
 11
261.9480813828413
 21
864.7478637505811
 72
     1
 10
261.9480813828413
 20
864.7478637505811
 11
277.3124814503026
 21
869.8254214191365
 72
     1
 10
277.3124814503026
 20
869.8254214191365
 11
292.3264874110209
 21
875.860817521996
 72
     1
 10
292.3264874110209
 20
875.860817521996
 11
306.9304535039519
 21
882.8300754246702
 72
     1
 10
306.9304535039519
 20
882.8300754246702
 11
310.2995765039523
 21
882.8300754246702
 72
     1
 10
310.2995765039523
 20
882.8300754246702
 11
311.1949847640717
 21
882.9668184824512
 72
     1
 10
311.1949847640717
 20
882.9668184824512
 11
312.0087659666205
 21
883.3645804877997
 72
     1
 10
312.0087659666205
 20
883.3645804877997
 11
312.6667348992814
 21
883.9871005796704
 72
     1
 10
312.6667348992814
 20
883.9871005796704
 11
313.1089104151506
 21
884.7776298664793
 72
     1
 10
313.1089104151506
 20
884.7776298664793
 11
313.2949815039538
 21
885.6641014246671
 72
     1
 10
313.2949815039538
 20
885.6641014246671
 11
313.4704065039514
 21
888.8300754246701
 72
     1
 10
313.4704065039514
 20
888.8300754246701
 11
319.4704065039514
 21
890.8300754246702
 72
     1
 10
319.4704065039514
 20
890.8300754246702
 11
322.4704065039514
 21
890.8300754246702
 72
     1
 10
322.4704065039514
 20
890.8300754246702
 11
325.4704065039514
 21
885.8300754246702
 72
     1
 10
325.4704065039514
 20
885.8300754246702
 11
328.4704065039514
 21
885.8300754246702
 72
     1
 10
328.4704065039514
 20
885.8300754246702
 11
330.4704065039514
 21
889.8300754246703
 72
     1
 10
330.4704065039514
 20
889.8300754246703
 11
335.4704065039514
 21
889.8300754246703
 72
     1
 10
335.4704065039514
 20
889.8300754246703
 11
338.4704065039514
 21
884.8300754246702
 72
     1
 10
338.4704065039514
 20
884.8300754246702
 11
341.4704065039514
 21
884.8300754246702
 72
     1
 10
341.4704065039514
 20
884.8300754246702
 11
343.4704065039514
 21
887.8300754246701
 72
     1
 10
343.4704065039514
 20
887.8300754246701
 11
347.4704065039514
 21
887.8300754246701
 72
     1
 10
347.4704065039514
 20
887.8300754246701
 11
347.4704065039514
 21
889.8300754246703
 72
     1
 10
347.4704065039514
 20
889.8300754246703
 11
343.7462802285518
 21
895.2200007453466
 72
     1
 10
343.7462802285518
 20
895.2200007453466
 11
338.7063878672015
 21
899.4056782623339
 72
     1
 10
338.7063878672015
 20
899.4056782623339
 11
332.7243087185416
 21
902.0768467991402
 72
     1
 10
332.7243087185416
 20
902.0768467991402
 11
326.2434613454534
 21
903.035507153163
 72
     1
 10
326.2434613454534
 20
903.035507153163
 11
319.744235579481
 21
902.2105993171244
 72
     1
 10
319.744235579481
 20
902.2105993171244
 11
313.7083827355418
 21
899.6632695754197
 72
     1
 10
313.7083827355418
 20
899.6632695754197
 11
297.4863944544231
 21
891.4140047335495
 72
     1
 10
297.4863944544231
 20
891.4140047335495
 11
280.7649002487706
 21
884.2310460560366
 72
     1
 10
280.7649002487706
 20
884.2310460560366
 11
263.6139010071129
 21
878.1444633397587
 72
     1
 10
263.6139010071129
 20
878.1444633397587
 11
246.1051958844219
 21
873.1797368619409
 72
     1
 10
246.1051958844219
 20
873.1797368619409
 11
228.312081503951
 21
869.3576504246703
 72
     1
 10
228.312081503951
 20
869.3576504246703
 11
220.9802482665327
 21
869.2669502465395
 72
     1
 10
220.9802482665327
 20
869.2669502465395
 11
213.9110811099527
 21
871.2139698988721
 72
     1
 10
213.9110811099527
 20
871.2139698988721
 11
207.6596182320536
 21
875.045839082184
 72
     1
 10
207.6596182320536
 20
875.045839082184
 11
202.716695065963
 21
880.4616971372997
 72
     1
 10
202.716695065963
 20
880.4616971372997
 11
199.4704065039513
 21
887.0363164246628
 72
     1
 10
199.4704065039513
 20
887.0363164246628
 11
194.9713305017903
 21
894.2799330289235
 72
     1
 10
194.9713305017903
 20
894.2799330289235
 11
188.3259417550034
 21
899.6231973775683
 72
     1
 10
188.3259417550034
 20
899.6231973775683
 11
180.2853131435913
 21
902.4622043129747
 72
     1
 10
180.2853131435913
 20
902.4622043129747
 11
171.7582109842806
 21
902.4760844549273
 72
     1
 10
171.7582109842806
 20
902.4760844549273
 11
163.7083828943832
 21
899.6632696375417
 72
     1
 10
163.7083828943832
 20
899.6632696375417
 11
147.4799108270126
 21
891.4291087289711
 72
     1
 10
147.4799108270126
 20
891.4291087289711
 11
130.7561550873215
 21
884.2541042745251
 72
     1
 10
130.7561550873215
 20
884.2541042745251
 11
113.6061544983822
 21
878.1678759629103
 72
     1
 10
113.6061544983822
 20
878.1678759629103
 11
96.87949741304691
 21
873.4167600006003
 72
     1
 10
96.87949741304691
 20
873.4167600006003
 11
96.87949741304691
 21
861.0872962492393
 72
     1
 10
96.87949741304691
 20
861.0872962492393
 11
97.76411971263952
 21
861.2308470382231
 72
     1
 10
97.76411971263952
 20
861.2308470382231
 11
98.98081541304783
 21
861.4308904177851
 72
     1
 10
98.98081541304783
 20
861.4308904177851
 11
99.02772316011033
 21
861.3551383568374
 72
     1
 10
99.02772316011033
 20
861.3551383568374
 11
117.3323880148127
 21
866.4506459241783
 97
        0
 75
     0
 76
     1
 98
        0
450
        0
451
        0
460
0.0
461
0.0
452
        1
462
0.0
453
        0
470

1001
ACAD
1010
0.0
1020
0.0
1030
0.0
1001
NEM_ODX
1002
{
1000
BZM_DEPEND
1070
     1
1000
BZM_SCALE
1040
5.0
1000
HATCHING_314
1002
}
  0
HATCH
  5
AC
330
1F
100
AcDbEntity
  8
BETONNEN DAKPANNEN
  6
Continuous
 62
     7
370
    13
100
AcDbHatch
 10
0.0
 20
0.0
 30
0.0
210
0.0
220
0.0
230
1.0
  2
HATCHING_314
 70
     0
 71
     0
 91
        1
 92
        0
 93
       65
 72
     1
 10
117.3323880148127
 20
866.4506459241783
 11
135.2390160041031
 21
872.8049851385257
 72
     1
 10
135.2390160041031
 20
872.8049851385257
 11
152.6611508465612
 21
880.3874761605511
 72
     1
 10
152.6611508465612
 20
880.3874761605511
 11
169.5146757613438
 21
889.1615095607667
 72
     1
 10
169.5146757613438
 20
889.1615095607667
 11
174.8837201910537
 21
890.844033447367
 72
     1
 10
174.8837201910537
 20
890.844033447367
 11
180.4659582983404
 21
890.1396493780593
 72
     1
 10
180.4659582983404
 20
890.1396493780593
 11
185.2487515667417
 21
887.1761339708573
 72
     1
 10
185.2487515667417
 20
887.1761339708573
 11
188.3644855039529
 21
882.4910794246644
 72
     1
 10
188.3644855039529
 20
882.4910794246644
 11
193.1201820881833
 21
872.989081642936
 72
     1
 10
193.1201820881833
 20
872.989081642936
 11
200.3605307460712
 21
865.2120666354131
 72
     1
 10
200.3605307460712
 20
865.2120666354131
 11
209.4988205586524
 21
859.7902335090294
 72
     1
 10
209.4988205586524
 20
859.7902335090294
 11
219.7945434249123
 21
857.1629332416597
 72
     1
 10
219.7945434249123
 20
857.1629332416597
 11
230.4133995039519
 21
857.5430644246626
 72
     1
 10
230.4133995039519
 20
857.5430644246626
 11
246.294324972172
 21
860.6483160320895
 72
     1
 10
246.294324972172
 20
860.6483160320895
 11
261.9480813828413
 21
864.7478637505811
 72
     1
 10
261.9480813828413
 20
864.7478637505811
 11
277.3124814503026
 21
869.8254214191365
 72
     1
 10
277.3124814503026
 20
869.8254214191365
 11
292.3264874110209
 21
875.860817521996
 72
     1
 10
292.3264874110209
 20
875.860817521996
 11
306.9304535039519
 21
882.8300754246702
 72
     1
 10
306.9304535039519
 20
882.8300754246702
 11
310.2995765039523
 21
882.8300754246702
 72
     1
 10
310.2995765039523
 20
882.8300754246702
 11
311.1949847640717
 21
882.9668184824512
 72
     1
 10
311.1949847640717
 20
882.9668184824512
 11
312.0087659666205
 21
883.3645804877997
 72
     1
 10
312.0087659666205
 20
883.3645804877997
 11
312.6667348992814
 21
883.9871005796704
 72
     1
 10
312.6667348992814
 20
883.9871005796704
 11
313.1089104151506
 21
884.7776298664793
 72
     1
 10
313.1089104151506
 20
884.7776298664793
 11
313.2949815039538
 21
885.6641014246671
 72
     1
 10
313.2949815039538
 20
885.6641014246671
 11
313.4704065039514
 21
888.8300754246701
 72
     1
 10
313.4704065039514
 20
888.8300754246701
 11
319.4704065039514
 21
890.8300754246702
 72
     1
 10
319.4704065039514
 20
890.8300754246702
 11
322.4704065039514
 21
890.8300754246702
 72
     1
 10
322.4704065039514
 20
890.8300754246702
 11
325.4704065039514
 21
885.8300754246702
 72
     1
 10
325.4704065039514
 20
885.8300754246702
 11
328.4704065039514
 21
885.8300754246702
 72
     1
 10
328.4704065039514
 20
885.8300754246702
 11
330.4704065039514
 21
889.8300754246703
 72
     1
 10
330.4704065039514
 20
889.8300754246703
 11
335.4704065039514
 21
889.8300754246703
 72
     1
 10
335.4704065039514
 20
889.8300754246703
 11
338.4704065039514
 21
884.8300754246702
 72
     1
 10
338.4704065039514
 20
884.8300754246702
 11
341.4704065039514
 21
884.8300754246702
 72
     1
 10
341.4704065039514
 20
884.8300754246702
 11
343.4704065039514
 21
887.8300754246701
 72
     1
 10
343.4704065039514
 20
887.8300754246701
 11
347.4704065039514
 21
887.8300754246701
 72
     1
 10
347.4704065039514
 20
887.8300754246701
 11
347.4704065039514
 21
889.8300754246703
 72
     1
 10
347.4704065039514
 20
889.8300754246703
 11
343.7462802285518
 21
895.2200007453466
 72
     1
 10
343.7462802285518
 20
895.2200007453466
 11
338.7063878672015
 21
899.4056782623339
 72
     1
 10
338.7063878672015
 20
899.4056782623339
 11
332.7243087185416
 21
902.0768467991402
 72
     1
 10
332.7243087185416
 20
902.0768467991402
 11
326.2434613454534
 21
903.035507153163
 72
     1
 10
326.2434613454534
 20
903.035507153163
 11
319.744235579481
 21
902.2105993171244
 72
     1
 10
319.744235579481
 20
902.2105993171244
 11
313.7083827355418
 21
899.6632695754197
 72
     1
 10
313.7083827355418
 20
899.6632695754197
 11
297.4863944544231
 21
891.4140047335495
 72
     1
 10
297.4863944544231
 20
891.4140047335495
 11
280.7649002487706
 21
884.2310460560366
 72
     1
 10
280.7649002487706
 20
884.2310460560366
 11
263.6139010071129
 21
878.1444633397587
 72
     1
 10
263.6139010071129
 20
878.1444633397587
 11
246.1051958844219
 21
873.1797368619409
 72
     1
 10
246.1051958844219
 20
873.1797368619409
 11
228.312081503951
 21
869.3576504246703
 72
     1
 10
228.312081503951
 20
869.3576504246703
 11
220.9802482665327
 21
869.2669502465395
 72
     1
 10
220.9802482665327
 20
869.2669502465395
 11
213.9110811099527
 21
871.2139698988721
 72
     1
 10
213.9110811099527
 20
871.2139698988721
 11
207.6596182320536
 21
875.045839082184
 72
     1
 10
207.6596182320536
 20
875.045839082184
 11
202.716695065963
 21
880.4616971372997
 72
     1
 10
202.716695065963
 20
880.4616971372997
 11
199.4704065039513
 21
887.0363164246628
 72
     1
 10
199.4704065039513
 20
887.0363164246628
 11
194.9713305017903
 21
894.2799330289235
 72
     1
 10
194.9713305017903
 20
894.2799330289235
 11
188.3259417550034
 21
899.6231973775683
 72
     1
 10
188.3259417550034
 20
899.6231973775683
 11
180.2853131435913
 21
902.4622043129747
 72
     1
 10
180.2853131435913
 20
902.4622043129747
 11
171.7582109842806
 21
902.4760844549273
 72
     1
 10
171.7582109842806
 20
902.4760844549273
 11
163.7083828943832
 21
899.6632696375417
 72
     1
 10
163.7083828943832
 20
899.6632696375417
 11
147.4799108270126
 21
891.4291087289711
 72
     1
 10
147.4799108270126
 20
891.4291087289711
 11
130.7561550873215
 21
884.2541042745251
 72
     1
 10
130.7561550873215
 20
884.2541042745251
 11
113.6061544983822
 21
878.1678759629103
 72
     1
 10
113.6061544983822
 20
878.1678759629103
 11
96.87949741304691
 21
873.4167600006003
 72
     1
 10
96.87949741304691
 20
873.4167600006003
 11
96.87949741304691
 21
861.0872962492393
 72
     1
 10
96.87949741304691
 20
861.0872962492393
 11
97.76411971263952
 21
861.2308470382231
 72
     1
 10
97.76411971263952
 20
861.2308470382231
 11
98.98081541304783
 21
861.4308904177851
 72
     1
 10
98.98081541304783
 20
861.4308904177851
 11
99.02772316011033
 21
861.3551383568374
 72
     1
 10
99.02772316011033
 20
861.3551383568374
 11
117.3323880148127
 21
866.4506459241783
 97
        0
 75
     0
 76
     2
 52
0.0
 41
5.0
 77
     0
 78
     2
 53
45.0
 43
0.0
 44
0.0
 45
-5.303300858899105
 46
5.303300858899106
 79
     0
 53
135.0
 43
0.0
 44
0.0
 45
-5.303300858899106
 46
-5.303300858899105
 79
     0
 98
        0
1001
ACAD
1010
0.0
1020
0.0
1030
0.0
1001
NEM_ODX
1002
{
1000
BZM_DEPEND
1070
     1
1000
BZM_SCALE
1040
5.0
1000
HATCHING_314
1002
}
  0
INSERT
  5
B4
330
1F
100
AcDbEntity
  8
ANKER
  6
VERDECKT2_S2
 62
     5
370
    13
100
AcDbBlockReference
  2
COMPLEXOBJECT_0
 10
0.0
 20
0.0
 30
0.0
  0
INSERT
  5
BC
330
1F
100
AcDbEntity
  8
ANKER
  6
VERDECKT2_S2
 62
     5
370
    13
100
AcDbBlockReference
  2
COMPLEXOBJECT_1
 10
0.0
 20
0.0
 30
0.0
  0
LWPOLYLINE
  5
BD
330
1F
100
AcDbEntity
  8
SANDWICH DAKELEMENTEN
  6
Continuous
 62
    30
370
    18
100
AcDbPolyline
 90
        4
 70
     0
 43
0.0
 10
96.87949741304691
 20
835.1629332416596
 10
911.8794974130432
 20
835.1629332416596
 10
911.8794974130432
 20
857.1629332416597
 10
96.87949741304691
 20
857.1629332416597
  0
HATCH
  5
BE
330
1F
100
AcDbEntity
  8
KALKZANDSTEEN
  6
Continuous
 62
     7
370
    25
100
AcDbHatch
 10
0.0
 20
0.0
 30
0.0
210
0.0
220
0.0
230
1.0
  2
HATCHING_9
 70
     0
 71
     0
 91
        1
 92
        0
 93
        4
 72
     1
 10
456.8794974431876
 20
685.162933241645
 11
456.8794974351257
 21
240.162933241656
 72
     1
 10
456.8794974351257
 20
240.162933241656
 11
576.8794974351367
 21
240.162933241656
 72
     1
 10
576.8794974351367
 20
240.162933241656
 11
576.8794974431876
 21
685.162933241645
 72
     1
 10
576.8794974431876
 20
685.162933241645
 11
456.8794974431876
 21
685.162933241645
 97
        0
 75
     0
 76
     2
 52
0.0
 41
5.0
 77
     0
 78
     2
 53
45.0
 43
0.0
 44
0.0
 45
-176.7766952966368
 46
176.7766952966369
 79
     0
 53
45.0
 43
-88.38834764831842
 44
88.38834764831844
 45
-176.7766952966368
 46
176.7766952966369
 79
     0
 98
        0
1001
ACAD
1010
0.0
1020
0.0
1030
0.0
1001
NEM_ODX
1002
{
1000
BZM_DEPEND
1070
     1
1000
BZM_SCALE
1040
5.0
1000
HATCHING_9
1002
}
  0
LWPOLYLINE
  5
BF
330
1F
100
AcDbEntity
  8
KALKZANDSTEEN
  6
Continuous
 62
     3
370
    70
100
AcDbPolyline
 90
        4
 70
     0
 43
0.0
 10
576.8794974351258
 20
240.162933241656
 10
576.8794974351403
 20
685.1629332416459
 10
456.8794974351403
 20
685.1629332416459
 10
456.8794974351257
 20
240.162933241656
  0
LWPOLYLINE
  5
C0
330
1F
100
AcDbEntity
  8
DILALATIEVOEG EN AFDICHTING
  6
Continuous
 62
     5
370
    13
100
AcDbPolyline
 90
       11
 70
     1
 43
0.0
 10
406.8794974238771
 20
817.1629332416596
 10
438.8794974238772
 20
817.1629337806916
 10
438.8794974238772
 20
804.1629339963074
 10
438.8794974351403
 20
687.1629335931174
 10
526.8794974351403
 20
687.1629335931174
 10
526.8794974351403
 20
687.9629335931204
 10
439.6794974351396
 20
687.9629335931204
 10
439.6794974238765
 20
804.9629340825594
 10
439.6794974238765
 20
817.9629337806945
 10
406.8794974238771
 20
817.9629332416626
 10
406.8794974238771
 20
817.1629332416596
  0
HATCH
  5
C1
330
1F
100
AcDbEntity
  8
DILALATIEVOEG EN AFDICHTING
  6
Continuous
 62
   250
370
    25
100
AcDbHatch
 10
0.0
 20
0.0
 30
0.0
210
0.0
220
0.0
230
1.0
  2
SOLID
 70
     1
 71
     0
 91
        1
 92
        3
 72
     0
 73
     1
 93
       10
 10
406.8794974238771
 20
817.1629332416596
 10
438.8794974238772
 20
817.1629337806916
 10
438.8794974238772
 20
804.1629339963074
 10
438.8794974351403
 20
687.1629335931174
 10
526.8794974351403
 20
687.1629335931174
 10
526.8794974351403
 20
687.9629335931204
 10
439.6794974351396
 20
687.9629335931204
 10
439.6794974238765
 20
804.9629340825594
 10
439.6794974238765
 20
817.9629337806945
 10
406.8794974238771
 20
817.9629332416626
 97
        0
 75
     0
 76
     1
 98
        0
450
        0
451
        0
460
0.0
461
0.0
452
        1
462
0.0
453
        0
470

  0
LINE
  5
C2
330
1F
100
AcDbEntity
  8
POLYISOCYANURAAT (PIR)
  6
Continuous
 62
     7
370
    25
100
AcDbLine
 10
576.8794974351403
 20
240.1629332416633
 30
0.0
 11
576.8794974351367
 21
595.1629332416596
 31
0.0
  0
LWPOLYLINE
  5
C3
330
1F
100
AcDbEntity
  8
BAKSTEEN
  6
Continuous
 62
    30
370
    18
100
AcDbPolyline
 90
        5
 70
     1
 43
0.0
 10
849.8794974351294
 20
600.1629332416596
 10
753.8794974351294
 20
600.1629332416596
 10
753.8794974351294
 20
590.1629332416596
 10
849.8794974351294
 20
590.1629332416596
 10
849.8794974351294
 20
600.1629332416596
  0
LWPOLYLINE
  5
C4
330
1F
100
AcDbEntity
  8
BAKSTEEN
  6
Continuous
 62
    30
370
    18
100
AcDbPolyline
 90
        5
 70
     1
 43
0.0
 10
849.8794974351294
 20
480.1629332416596
 10
753.8794974351294
 20
480.1629332416596
 10
753.8794974351294
 20
470.1629332416596
 10
849.8794974351294
 20
470.1629332416596
 10
849.8794974351294
 20
480.1629332416596
  0
LWPOLYLINE
  5
C5
330
1F
100
AcDbEntity
  8
BAKSTEEN
  6
Continuous
 62
    30
370
    18
100
AcDbPolyline
 90
        5
 70
     1
 43
0.0
 10
849.8794974351294
 20
540.1629332416596
 10
753.8794974351294
 20
540.1629332416596
 10
753.8794974351294
 20
530.1629332416596
 10
849.8794974351294
 20
530.1629332416596
 10
849.8794974351294
 20
540.1629332416596
  0
LWPOLYLINE
  5
C6
330
1F
100
AcDbEntity
  8
BAKSTEEN
  6
Continuous
 62
    30
370
    18
100
AcDbPolyline
 90
        5
 70
     1
 43
0.0
 10
849.8794974351294
 20
360.1629332416596
 10
753.8794974351294
 20
360.1629332416596
 10
753.8794974351294
 20
350.1629332416596
 10
849.8794974351294
 20
350.1629332416596
 10
849.8794974351294
 20
360.1629332416596
  0
LWPOLYLINE
  5
C7
330
1F
100
AcDbEntity
  8
BAKSTEEN
  6
Continuous
 62
    30
370
    18
100
AcDbPolyline
 90
        5
 70
     1
 43
0.0
 10
849.8794974351294
 20
420.1629332416596
 10
753.8794974351294
 20
420.1629332416596
 10
753.8794974351294
 20
410.1629332416596
 10
849.8794974351294
 20
410.1629332416596
 10
849.8794974351294
 20
420.1629332416596
  0
LWPOLYLINE
  5
C8
330
1F
100
AcDbEntity
  8
BAKSTEEN
  6
Continuous
 62
     2
370
    35
100
AcDbPolyline
 90
        5
 70
     1
 43
0.0
 10
851.8794974351294
 20
650.1629332416596
 10
751.8794974351294
 20
650.1629332416596
 10
751.8794974351294
 20
600.1629332416596
 10
851.8794974351294
 20
600.1629332416596
 10
851.8794974351294
 20
650.1629332416596
  0
LWPOLYLINE
  5
C9
330
1F
100
AcDbEntity
  8
BAKSTEEN
  6
Continuous
 62
     2
370
    35
100
AcDbPolyline
 90
        5
 70
     1
 43
0.0
 10
851.8794974351294
 20
590.1629332416596
 10
751.8794974351294
 20
590.1629332416596
 10
751.8794974351294
 20
540.1629332416596
 10
851.8794974351294
 20
540.1629332416596
 10
851.8794974351294
 20
590.1629332416596
  0
LWPOLYLINE
  5
CA
330
1F
100
AcDbEntity
  8
BAKSTEEN
  6
Continuous
 62
     2
370
    35
100
AcDbPolyline
 90
        5
 70
     1
 43
0.0
 10
851.8794974351294
 20
530.1629332416596
 10
751.8794974351294
 20
530.1629332416596
 10
751.8794974351294
 20
480.1629332416596
 10
851.8794974351294
 20
480.1629332416596
 10
851.8794974351294
 20
530.1629332416596
  0
LWPOLYLINE
  5
CB
330
1F
100
AcDbEntity
  8
BAKSTEEN
  6
Continuous
 62
     2
370
    35
100
AcDbPolyline
 90
        5
 70
     1
 43
0.0
 10
851.8794974351294
 20
410.1629332416596
 10
751.8794974351294
 20
410.1629332416596
 10
751.8794974351294
 20
360.1629332416596
 10
851.8794974351294
 20
360.1629332416596
 10
851.8794974351294
 20
410.1629332416596
  0
LWPOLYLINE
  5
CC
330
1F
100
AcDbEntity
  8
BAKSTEEN
  6
Continuous
 62
     2
370
    35
100
AcDbPolyline
 90
        5
 70
     1
 43
0.0
 10
851.8794974351294
 20
470.1629332416596
 10
751.8794974351294
 20
470.1629332416596
 10
751.8794974351294
 20
420.1629332416596
 10
851.8794974351294
 20
420.1629332416596
 10
851.8794974351294
 20
470.1629332416596
  0
LWPOLYLINE
  5
CD
330
1F
100
AcDbEntity
  8
BAKSTEEN
  6
Continuous
 62
    30
370
    18
100
AcDbPolyline
 90
        5
 70
     1
 43
0.0
 10
849.8794974351294
 20
720.1629332416596
 10
753.8794974351294
 20
720.1629332416596
 10
753.8794974351294
 20
710.1629332416596
 10
849.8794974351294
 20
710.1629332416596
 10
849.8794974351294
 20
720.1629332416596
  0
LWPOLYLINE
  5
CE
330
1F
100
AcDbEntity
  8
BAKSTEEN
  6
Continuous
 62
     2
370
    35
100
AcDbPolyline
 90
        5
 70
     1
 43
0.0
 10
851.8794974351294
 20
770.1629332416596
 10
751.8794974351294
 20
770.1629332416596
 10
751.8794974351294
 20
720.1629332416596
 10
851.8794974351294
 20
720.1629332416596
 10
851.8794974351294
 20
770.1629332416596
  0
LWPOLYLINE
  5
CF
330
1F
100
AcDbEntity
  8
BAKSTEEN
  6
Continuous
 62
     2
370
    35
100
AcDbPolyline
 90
        5
 70
     1
 43
0.0
 10
851.8794974351294
 20
710.1629332416596
 10
751.8794974351294
 20
710.1629332416596
 10
751.8794974351294
 20
660.1629332416596
 10
851.8794974351294
 20
660.1629332416596
 10
851.8794974351294
 20
710.1629332416596
  0
LWPOLYLINE
  5
D0
330
1F
100
AcDbEntity
  8
BAKSTEEN
  6
Continuous
 62
    30
370
    18
100
AcDbPolyline
 90
        5
 70
     1
 43
0.0
 10
849.8794974351294
 20
780.1629332416596
 10
753.8794974351294
 20
780.1629332416596
 10
753.8794974351294
 20
770.1629332416596
 10
849.8794974351294
 20
770.1629332416596
 10
849.8794974351294
 20
780.1629332416596
  0
LWPOLYLINE
  5
D1
330
1F
100
AcDbEntity
  8
BAKSTEEN
  6
Continuous
 62
     2
370
    35
100
AcDbPolyline
 90
        5
 70
     1
 43
0.0
 10
851.8794974351294
 20
830.1629332416595
 10
751.8794974351294
 20
830.1629332416595
 10
751.8794974351294
 20
780.1629332416596
 10
851.8794974351294
 20
780.1629332416596
 10
851.8794974351294
 20
830.1629332416595
  0
LWPOLYLINE
  5
D2
330
1F
100
AcDbEntity
  8
BAKSTEEN
  6
Continuous
 62
    30
370
    18
100
AcDbPolyline
 90
        5
 70
     1
 43
0.0
 10
849.8794974351294
 20
660.1629332416596
 10
753.8794974351294
 20
660.1629332416596
 10
753.8794974351294
 20
650.1629332416596
 10
849.8794974351294
 20
650.1629332416596
 10
849.8794974351294
 20
660.1629332416596
  0
LWPOLYLINE
  5
D3
330
1F
100
AcDbEntity
  8
DILALATIEVOEG EN AFDICHTING
  6
Continuous
 62
     5
370
    13
100
AcDbPolyline
 90
        5
 70
     1
 43
0.0
 10
851.8794974351294
 20
830.1629332416595
 10
751.8794974351294
 20
830.1629332416595
 10
751.8794974351294
 20
835.1629332416596
 10
851.8794974351294
 20
835.1629332416596
 10
851.8794974351294
 20
830.1629332416595
  0
HATCH
  5
D4
330
1F
100
AcDbEntity
  8
DILALATIEVOEG EN AFDICHTING
  6
Continuous
 62
   254
370
    13
100
AcDbHatch
 10
0.0
 20
0.0
 30
0.0
210
0.0
220
0.0
230
1.0
  2
SOLID
 70
     1
 71
     0
 91
        1
 92
        0
 93
        4
 72
     1
 10
851.8794974351294
 20
835.1629332416596
 11
751.8794974351294
 21
835.1629332416596
 72
     1
 10
751.8794974351294
 20
835.1629332416596
 11
751.8794974351294
 21
830.1629332416595
 72
     1
 10
751.8794974351294
 20
830.1629332416595
 11
851.8794974351294
 21
830.1629332416595
 72
     1
 10
851.8794974351294
 20
830.1629332416595
 11
851.8794974351294
 21
835.1629332416596
 97
        0
 75
     0
 76
     1
 98
        0
450
        0
451
        0
460
0.0
461
0.0
452
        1
462
0.0
453
        0
470

1001
ACAD
1010
0.0
1020
0.0
1030
0.0
1001
NEM_ODX
1002
{
1000
BZM_DEPEND
1070
     1
1000
BZM_SCALE
1040
5.0
1000
HATCHING_15
1002
}
  0
HATCH
  5
D5
330
1F
100
AcDbEntity
  8
DILALATIEVOEG EN AFDICHTING
  6
Continuous
 62
     7
370
    13
100
AcDbHatch
 10
0.0
 20
0.0
 30
0.0
210
0.0
220
0.0
230
1.0
  2
HATCHING_15
 70
     0
 71
     0
 91
        1
 92
        0
 93
        4
 72
     1
 10
851.8794974351294
 20
835.1629332416596
 11
751.8794974351294
 21
835.1629332416596
 72
     1
 10
751.8794974351294
 20
835.1629332416596
 11
751.8794974351294
 21
830.1629332416595
 72
     1
 10
751.8794974351294
 20
830.1629332416595
 11
851.8794974351294
 21
830.1629332416595
 72
     1
 10
851.8794974351294
 20
830.1629332416595
 11
851.8794974351294
 21
835.1629332416596
 97
        0
 75
     0
 76
     2
 52
0.0
 41
5.0
 77
     0
 78
     2
 53
45.0
 43
0.0
 44
0.0
 45
-10.60660171779821
 46
10.60660171779821
 79
     0
 53
45.0
 43
-5.303300858899105
 44
5.303300858899106
 45
-10.60660171779821
 46
10.60660171779821
 79
     4
 49
40.0
 49
-5.0
 49
5.0
 49
-5.0
 98
        0
1001
ACAD
1010
0.0
1020
0.0
1030
0.0
1001
NEM_ODX
1002
{
1000
BZM_DEPEND
1070
     1
1000
BZM_SCALE
1040
5.0
1000
HATCHING_15
1002
}
  0
LWPOLYLINE
  5
D6
330
1F
100
AcDbEntity
  8
BAKSTEEN
  6
Continuous
 62
     2
370
    35
100
AcDbPolyline
 90
        4
 70
     0
 43
0.0
 10
851.8794974351294
 20
240.1629332416596
 10
851.8794974351294
 20
290.1629332416596
 10
751.8794974351294
 20
290.1629332416596
 10
751.8794974351294
 20
240.1629332416596
  0
LWPOLYLINE
  5
D7
330
1F
100
AcDbEntity
  8
BAKSTEEN
  6
Continuous
 62
    30
370
    18
100
AcDbPolyline
 90
        5
 70
     1
 43
0.0
 10
849.8794974351294
 20
300.1629332416596
 10
753.8794974351294
 20
300.1629332416596
 10
753.8794974351294
 20
290.1629332416596
 10
849.8794974351294
 20
290.1629332416596
 10
849.8794974351294
 20
300.1629332416596
  0
LWPOLYLINE
  5
D8
330
1F
100
AcDbEntity
  8
BAKSTEEN
  6
Continuous
 62
     2
370
    35
100
AcDbPolyline
 90
        5
 70
     1
 43
0.0
 10
851.8794974351294
 20
350.1629332416596
 10
751.8794974351294
 20
350.1629332416596
 10
751.8794974351294
 20
300.1629332416596
 10
851.8794974351294
 20
300.1629332416596
 10
851.8794974351294
 20
350.1629332416596
  0
HATCH
  5
D9
330
1F
100
AcDbEntity
  8
SANDWICH DAKELEMENTEN
  6
Continuous
 62
     7
370
    25
100
AcDbHatch
 10
0.0
 20
0.0
 30
0.0
210
0.0
220
0.0
230
1.0
  2
HATCHING_301
 70
     0
 71
     0
 91
        1
 92
        0
 93
        4
 72
     1
 10
626.8794974351368
 20
685.162933241645
 11
654.8794974351404
 21
685.162933241645
 72
     1
 10
654.8794974351404
 20
685.162933241645
 11
654.8794974351368
 21
835.1629332416596
 72
     1
 10
654.8794974351368
 20
835.1629332416596
 11
626.8794974351368
 21
835.1629332416596
 72
     1
 10
626.8794974351368
 20
835.1629332416596
 11
626.8794974351368
 21
685.162933241645
 97
        0
 75
     0
 76
     2
 52
0.0
 41
5.0
 77
     0
 78
     2
 53
45.0
 43
0.0
 44
0.0
 45
-10.60660171779821
 46
10.60660171779821
 79
     0
 53
45.0
 43
-5.303300858899105
 44
5.303300858899106
 45
-10.60660171779821
 46
10.60660171779821
 79
     0
 98
        0
1001
ACAD
1010
0.0
1020
0.0
1030
0.0
1001
NEM_ODX
1002
{
1000
BZM_DEPEND
1070
     1
1000
BZM_SCALE
1040
5.0
1000
HATCHING_301
1002
}
  0
LWPOLYLINE
  5
DA
330
1F
100
AcDbEntity
  8
SANDWICH DAKELEMENTEN
  6
Continuous
 62
     7
370
    25
100
AcDbPolyline
 90
        5
 70
     1
 43
0.0
 10
626.8794974351363
 20
685.1629332416454
 10
626.8794974351366
 20
835.1629332416598
 10
654.8794974351364
 20
835.1629332416599
 10
654.87949743514
 20
685.1629332416455
 10
626.8794974351363
 20
685.1629332416454
  0
LWPOLYLINE
  5
DB
330
1F
100
AcDbEntity
  8
STEENWOL
  6
Continuous
 62
     7
370
    25
100
AcDbPolyline
 90
        5
 70
     1
 43
0.0
 10
654.8794974351388
 20
685.1629332416455
 10
729.8794974351375
 20
685.1629332416455
 10
729.8794974351375
 20
835.1629332416596
 10
654.8794974351367
 20
835.1629332416596
 10
654.8794974351388
 20
685.1629332416455
  0
INSERT
  5
E3
330
1F
100
AcDbEntity
  8
ANKER
  6
VERDECKT2_S2
 62
     5
370
    13
100
AcDbBlockReference
  2
COMPLEXOBJECT_2
 10
0.0
 20
0.0
 30
0.0
  0
INSERT
  5
E4
330
1F
100
AcDbEntity
  8
AANHAALLIJN
  6
Continuous
 62
    30
370
    18
100
AcDbBlockReference
  2
NSY154
 10
691.9217881106516
 20
758.2989047486319
 30
0.0
 41
1.962533333333333
 42
1.962533333333333
 43
1.962533333333333
  0
HATCH
  5
E5
330
1F
100
AcDbEntity
  8
SANDWICH DAKELEMENTEN
  6
Continuous
 62
    30
370
    18
100
AcDbHatch
 10
0.0
 20
0.0
 30
0.0
210
0.0
220
0.0
230
1.0
  2
HATCHING_301
 70
     0
 71
     0
 91
        1
 92
        0
 93
        4
 72
     1
 10
406.8794974238771
 20
815.1629332416597
 11
436.8794974130469
 21
815.1629332416597
 72
     1
 10
436.8794974130469
 20
815.1629332416597
 11
436.8794974130469
 21
835.1629332416596
 72
     1
 10
436.8794974130469
 20
835.1629332416596
 11
406.8794974238771
 21
835.1629332416596
 72
     1
 10
406.8794974238771
 20
835.1629332416596
 11
406.8794974238771
 21
815.1629332416597
 97
        0
 75
     0
 76
     2
 52
0.0
 41
5.0
 77
     0
 78
     2
 53
45.0
 43
0.0
 44
0.0
 45
-10.60660171779821
 46
10.60660171779821
 79
     0
 53
45.0
 43
-5.303300858899105
 44
5.303300858899106
 45
-10.60660171779821
 46
10.60660171779821
 79
     0
 98
        0
1001
ACAD
1010
0.0
1020
0.0
1030
0.0
1001
NEM_ODX
1002
{
1000
BZM_DEPEND
1070
     1
1000
BZM_SCALE
1040
5.0
1000
HATCHING_301
1002
}
  0
LWPOLYLINE
  5
E6
330
1F
100
AcDbEntity
  8
SANDWICH DAKELEMENTEN
  6
Continuous
 62
    30
370
    18
100
AcDbPolyline
 90
        5
 70
     1
 43
0.0
 10
406.8794974238771
 20
815.1629332416597
 10
436.8794974130469
 20
815.1629332416597
 10
436.8794974130469
 20
835.1629332416596
 10
406.8794974238771
 20
835.1629332416596
 10
406.8794974238771
 20
815.1629332416597
  0
LWPOLYLINE
  5
E7
330
1F
100
AcDbEntity
  8
DILALATIEVOEG EN AFDICHTING
  6
Continuous
 62
     5
370
    13
100
AcDbPolyline
 90
        8
 70
     1
 43
0.0
 10
456.8794974351403
 20
685.1629332416459
 10
436.87949742431
 20
685.162933241645
 10
436.8794974238771
 20
631.1629332412376
 10
436.8794974238809
 20
562.1629332416596
 10
436.8794974240082
 20
540.0882301579222
 10
436.8794974240846
 20
535.162933241645
 10
456.8794974238809
 20
535.1629332416596
 10
456.8794974351403
 20
685.1629332416459
  0
LINE
  5
E8
330
1F
100
AcDbEntity
  8
AFBREEKLIJNEN
  6
STRICHPUNKT2_S5
 62
     7
370
    25
100
AcDbLine
 10
426.8794974351294
 20
240.1629332416596
 30
0.0
 11
881.8794974351295
 21
240.1629332416596
 31
0.0
  0
DIMENSION
  5
FB
330
1F
100
AcDbEntity
  8
Maatlijnen 1_5
  6
Continuous
 62
    30
370
    18
100
AcDbDimension
280
     0
  2
*D7
 10
851.8794974351294
 20
180.1629332416596
 30
0.0
 11
654.2685759334212
 21
190.3335817058234
 31
0.0
 70
   160
  1
<>
 71
     5
 42
395.0000000000036
 73
     0
 74
     0
 75
     0
  3
_DIMSTYLE_2
100
AcDbAlignedDimension
 13
456.8794974351257
 23
240.161933241656
 33
0.0
 14
851.8794974351294
 24
240.1619332416596
 34
0.0
100
AcDbRotatedDimension
1001
NEM_ODX
1000
MASSLINIE
1002
{
1000
UTF_TYPE
1070
     1
1000
ODXVALUES
1070
     1
1070
     0
1070
   499
1040
0.1
1002
}
  0
DIMENSION
  5
107
330
1F
100
AcDbEntity
  8
Maatlijnen 1_5
  6
Continuous
 62
    30
370
    18
100
AcDbDimension
280
     0
  2
*D8
 10
576.8794974351403
 20
210.1629332416596
 30
0.0
 11
516.5911015306963
 21
220.2994520129907
 31
0.0
 70
   160
  1
<>
 71
     5
 42
120.0000000000145
 73
     0
 74
     0
 75
     0
  3
_DIMSTYLE_2
100
AcDbAlignedDimension
 13
456.8794974351257
 23
240.161933241656
 33
0.0
 14
576.8794974351403
 24
240.1619332416633
 34
0.0
100
AcDbRotatedDimension
1001
NEM_ODX
1000
MASSLINIE
1002
{
1000
UTF_TYPE
1070
     1
1000
ODXVALUES
1070
     1
1070
     0
1070
   499
1040
0.1
1002
}
  0
DIMENSION
  5
112
330
1F
100
AcDbEntity
  8
Maatlijnen 1_5
  6
Continuous
 62
    30
370
    18
100
AcDbDimension
280
     0
  2
*D9
 10
711.8794974351366
 20
210.1629332416596
 30
0.0
 11
644.268575933432
 21
220.2994520129907
 31
0.0
 70
   160
  1
<>
 71
     5
 42
134.9999999999963
 73
     0
 74
     0
 75
     0
  3
_DIMSTYLE_2
100
AcDbAlignedDimension
 13
576.8794974351403
 23
240.1619332416633
 33
0.0
 14
711.8794974351366
 24
240.1619332416614
 34
0.0
100
AcDbRotatedDimension
1001
NEM_ODX
1000
MASSLINIE
1002
{
1000
UTF_TYPE
1070
     1
1000
ODXVALUES
1070
     1
1070
     0
1070
   499
1040
0.1
1002
}
  0
DIMENSION
  5
11D
330
1F
100
AcDbEntity
  8
Maatlijnen 1_5
  6
Continuous
 62
    30
370
    18
100
AcDbDimension
280
     0
  2
*D10
 10
751.8794974351294
 20
210.1629332416596
 30
0.0
 11
731.7566305409351
 21
220.2994520129907
 31
0.0
 70
   160
  1
<>
 71
     5
 42
39.99999999999273
 73
     0
 74
     0
 75
     0
  3
_DIMSTYLE_2
100
AcDbAlignedDimension
 13
711.8794974351366
 23
240.1619332416614
 33
0.0
 14
751.8794974351294
 24
240.1619332416596
 34
0.0
100
AcDbRotatedDimension
1001
NEM_ODX
1000
MASSLINIE
1002
{
1000
UTF_TYPE
1070
     1
1000
ODXVALUES
1070
     1
1070
     0
1070
   499
1040
0.1
1002
}
  0
DIMENSION
  5
128
330
1F
100
AcDbEntity
  8
Maatlijnen 1_5
  6
Continuous
 62
    30
370
    18
100
AcDbDimension
280
     0
  2
*D11
 10
851.8794974351294
 20
210.1629332416596
 30
0.0
 11
801.5911015306926
 21
220.2994520129907
 31
0.0
 70
   160
  1
<>
 71
     5
 42
100.0
 73
     0
 74
     0
 75
     0
  3
_DIMSTYLE_2
100
AcDbAlignedDimension
 13
751.8794974351294
 23
240.1619332416596
 33
0.0
 14
851.8794974351294
 24
240.1619332416596
 34
0.0
100
AcDbRotatedDimension
1001
NEM_ODX
1000
MASSLINIE
1002
{
1000
UTF_TYPE
1070
     1
1000
ODXVALUES
1070
     1
1070
     0
1070
   499
1040
0.1
1002
}
  0
INSERT
  5
129
330
1F
100
AcDbEntity
  8
AANHAALLIJN
  6
Continuous
 62
    30
370
    18
100
AcDbBlockReference
  2
NSY154
 10
516.8794974351294
 20
325.1629332416599
 30
0.0
 41
1.962533333333333
 42
1.962533333333333
 43
1.962533333333333
  0
INSERT
  5
12A
330
1F
100
AcDbEntity
  8
AANHAALLIJN
  6
Continuous
 62
    30
370
    18
100
AcDbBlockReference
  2
NSY154
 10
731.8794974351399
 20
325.16293324166
 30
0.0
 41
1.962533333333333
 42
1.962533333333333
 43
1.962533333333333
  0
INSERT
  5
12B
330
1F
100
AcDbEntity
  8
AANHAALLIJN
  6
Continuous
 62
    30
370
    18
100
AcDbBlockReference
  2
NSY154
 10
801.8794974351294
 20
325.1629332416596
 30
0.0
 41
1.962533333333333
 42
1.962533333333333
 43
1.962533333333333
  0
INSERT
  5
12C
330
1F
100
AcDbEntity
  8
AANHAALLIJN
  6
Continuous
 62
    30
370
    18
100
AcDbBlockReference
  2
NSY154
 10
644.3794974351399
 20
325.1629332416588
 30
0.0
 41
1.962533333333333
 42
1.962533333333333
 43
1.962533333333333
  0
INSERT
  5
12D
330
1F
100
AcDbEntity
  8
AANHAALLIJN
  6
Continuous
 62
    30
370
    18
100
AcDbBlockReference
  2
NSY154
 10
199.7749723129055
 20
818.1629332416596
 30
0.0
 41
1.962533333333333
 42
1.962533333333333
 43
1.962533333333333
  0
INSERT
  5
12E
330
1F
100
AcDbEntity
  8
AANHAALLIJN
  6
Continuous
 62
    30
370
    18
100
AcDbBlockReference
  2
NSY154
 10
199.7749723129057
 20
541.1629332416529
 30
0.0
 41
1.962533333333333
 42
1.962533333333333
 43
1.962533333333333
  0
INSERT
  5
12F
330
1F
100
AcDbEntity
  8
AANHAALLIJN
  6
Continuous
 62
    30
370
    18
100
AcDbBlockReference
  2
NSY154
 10
199.7749723128982
 20
845.4065685640966
 30
0.0
 41
1.962533333333333
 42
1.962533333333333
 43
1.962533333333333
  0
HATCH
  5
130
330
1F
100
AcDbEntity
  8
SANDWICH DAKELEMENTEN
  6
Continuous
 62
     5
370
    13
100
AcDbHatch
 10
0.0
 20
0.0
 30
0.0
210
0.0
220
0.0
230
1.0
  2
HATCHING_341
 70
     0
 71
     0
 91
        1
 92
        0
 93
        4
 72
     1
 10
96.87949741305068
 20
545.1629332416588
 11
96.87949741305068
 21
535.1629332416588
 72
     1
 10
96.87949741305068
 20
535.1629332416588
 11
436.8794974240846
 21
535.162933241645
 72
     1
 10
436.8794974240846
 20
535.162933241645
 11
436.8794974238809
 21
545.1629332416596
 72
     1
 10
436.8794974238809
 20
545.1629332416596
 11
96.87949741305068
 21
545.1629332416588
 97
        0
 75
     0
 76
     2
 52
0.0
 41
5.0
 77
     0
 78
     2
 53
90.0
 43
0.0
 44
0.0
 45
-15.0
 46
0.0000000000000009
 79
     0
 53
90.0
 43
-7.5
 44
0.0000000000000009
 45
-15.0
 46
0.0000000000000009
 79
     0
 98
        0
1001
ACAD
1010
856.8794973928358
1020
535.1629332416588
1030
0.0
1001
NEM_ODX
1002
{
1000
BZM_DEPEND
1070
     1
1000
BZM_SCALE
1040
5.0
1000
HATCHING_341
1002
}
  0
INSERT
  5
131
330
1F
100
AcDbEntity
  8
AANHAALLIJN
  6
Continuous
 62
    30
370
    18
100
AcDbBlockReference
  2
NSY154
 10
531.8794974223147
 20
743.6629332405348
 30
0.0
 41
1.962533333333333
 42
1.962533333333333
 43
1.962533333333333
  0
HATCH
  5
132
330
1F
100
AcDbEntity
  8
DILALATIEVOEG EN AFDICHTING
  6
Continuous
 62
   254
370
    13
100
AcDbHatch
 10
0.0
 20
0.0
 30
0.0
210
0.0
220
0.0
230
1.0
  2
SOLID
 70
     1
 71
     0
 91
        1
 92
        0
 93
        4
 72
     1
 10
436.8794974240846
 20
535.162933241645
 11
456.8794974240846
 21
535.1629332434973
 72
     1
 10
456.8794974240846
 20
535.1629332434973
 11
456.8794974464035
 21
685.1629332416314
 72
     1
 10
456.8794974464035
 20
685.1629332416314
 11
436.8794974355733
 21
685.1629332416305
 72
     1
 10
436.8794974355733
 20
685.1629332416305
 11
436.8794974240846
 21
535.162933241645
 97
        0
 75
     0
 76
     1
 98
        0
450
        0
451
        0
460
1.570796326794896
461
0.0
452
        1
462
0.0
453
        0
470

1001
ACAD
1010
0.0
1020
0.0
1030
0.0
1001
NEM_ODX
1002
{
1000
BZM_DEPEND
1070
     1
1000
BZM_SCALE
1040
5.0
1000
HATCHING_15
1002
}
  0
HATCH
  5
133
330
1F
100
AcDbEntity
  8
DILALATIEVOEG EN AFDICHTING
  6
Continuous
 62
     7
370
    13
100
AcDbHatch
 10
0.0
 20
0.0
 30
0.0
210
0.0
220
0.0
230
1.0
  2
HATCHING_15
 70
     0
 71
     0
 91
        1
 92
        0
 93
        4
 72
     1
 10
436.8794974240846
 20
535.162933241645
 11
456.8794974240846
 21
535.1629332434973
 72
     1
 10
456.8794974240846
 20
535.1629332434973
 11
456.8794974464035
 21
685.1629332416314
 72
     1
 10
456.8794974464035
 20
685.1629332416314
 11
436.8794974355733
 21
685.1629332416305
 72
     1
 10
436.8794974355733
 20
685.1629332416305
 11
436.8794974240846
 21
535.162933241645
 97
        0
 75
     0
 76
     2
 52
90.00000000000001
 41
5.0
 77
     0
 78
     2
 53
135.0
 43
0.0
 44
0.0
 45
-10.60660171779821
 46
-10.60660171779821
 79
     0
 53
135.0
 43
-5.303300858899105
 44
-5.303300858899106
 45
-10.60660171779821
 46
-10.60660171779821
 79
     4
 49
40.0
 49
-5.0
 49
5.0
 49
-5.0
 98
        0
1001
ACAD
1010
0.0
1020
0.0
1030
0.0
1001
NEM_ODX
1002
{
1000
BZM_DEPEND
1070
     1
1000
BZM_SCALE
1040
5.0
1000
HATCHING_15
1002
}
  0
LINE
  5
134
330
1F
100
AcDbEntity
  8
AFBREEKLIJNEN
  6
STRICHPUNKT2_S5
 62
     7
370
    25
100
AcDbLine
 10
96.87949741305068
 20
505.162933241645
 30
0.0
 11
96.87949741304691
 21
903.4154764177928
 31
0.0
  0
LWPOLYLINE
  5
135
330
1F
100
AcDbEntity
  8
STEENWOL
  6
Continuous
 62
     7
370
    25
100
AcDbPolyline
 90
        4
 70
     0
 43
0.0
 10
96.87949741304885
 20
644.9554903330697
 10
195.1488103944122
 20
815.1629332416597
 10
351.0333830756052
 20
545.1629332416577
 10
414.8794974238793
 20
655.7476471587207
  0
LWPOLYLINE
  5
136
330
1F
100
AcDbEntity
  8
STEENWOL
  6
Continuous
 62
     7
370
    25
100
AcDbPolyline
 90
       11
 70
     0
 43
0.0
 10
436.8794974130505
 20
806.5026792225653
 10
439.4586625457669
 20
802.0354341715828
 10
447.0378276676601
 20
815.1629332416597
 10
454.5433811671245
 20
802.1629332416596
 10
473.5959400503816
 20
835.1629332416596
 10
492.6484989336422
 20
802.1629332416596
 10
511.7010578168993
 20
835.1629332416596
 10
530.7536167001562
 20
802.1629332416596
 10
549.8061755834132
 20
835.1629332416596
 10
568.8587344666703
 20
802.1629332416596
 10
587.9112933499255
 20
835.1629332416596
  0
LWPOLYLINE
  5
137
330
1F
100
AcDbEntity
  8
STEENWOL
  6
Continuous
 62
     7
370
    25
100
AcDbPolyline
 90
        7
 70
     0
 43
0.0
 10
576.8794974351403
 20
240.1629332416633
 10
711.8794974351382
 20
318.1052195822616
 10
576.8794974351309
 20
396.0475059228654
 10
711.8794974351414
 20
473.9897922634709
 10
576.879497435136
 20
551.9320786040736
 10
711.8794974351446
 20
629.874364944678
 10
616.116888067056
 20
685.162933241645
  0
LWPOLYLINE
  5
138
330
1F
100
AcDbEntity
  8
STEENWOL
  6
Continuous
 62
     7
370
    25
100
AcDbPolyline
 90
        5
 70
     0
 43
0.0
 10
654.8794974351388
 20
685.1629332416455
 10
729.8794974351375
 20
728.4642034308667
 10
654.879497435138
 20
771.7654736200884
 10
729.8794974351375
 20
815.0667438093101
 10
709.7833080027879
 20
835.1629332416596
  0
LWPOLYLINE
  5
139
330
1F
100
AcDbEntity
  8
STEENWOL
  6
Continuous
 62
     7
370
    25
100
AcDbPolyline
 90
        3
 70
     0
 43
0.0
 10
587.9112933499255
 20
835.1629332416596
 10
606.9638522331833
 20
802.1629332416596
 10
626.8794974368431
 20
832.0785784436129
  0
LINE
  5
13A
330
1F
100
AcDbEntity
  8
STEENWOL
  6
Continuous
 62
     7
370
    25
100
AcDbLine
 10
711.8794974351458
 20
685.1629332416455
 30
0.0
 11
711.8794974351385
 21
240.1629332416596
 31
0.0
  0
LWPOLYLINE
  5
13B
330
1F
100
AcDbEntity
  8
STEENWOL
  6
Continuous
 62
    32
370
    25
100
AcDbPolyline
 90
        5
 70
     1
 43
0.0
 10
436.8794974090243
 20
802.1629332416596
 10
626.879497412662
 20
802.1629332416596
 10
626.8794974279526
 20
685.162933241645
 10
436.87949742431
 20
685.162933241645
 10
436.8794974090243
 20
802.1629332416596
  0
INSERT
  5
13C
330
1F
100
AcDbEntity
  8
AANHAALLIJN
  6
Continuous
 62
    30
370
    18
100
AcDbBlockReference
  2
NSY154
 10
199.4704065039513
 20
887.0363164246628
 30
0.0
 41
1.962533333333333
 42
1.962533333333333
 43
1.962533333333333
  0
INSERT
  5
13D
330
1F
100
AcDbEntity
  8
AANHAALLIJN
  6
Continuous
 62
    30
370
    18
100
AcDbBlockReference
  2
NSY154
 10
446.8794974240918
 20
610.1629331579961
 30
0.0
 41
1.962533333333333
 42
1.962533333333333
 43
1.962533333333333
  0
MTEXT
  5
13E
330
1F
100
AcDbEntity
  8
AANHAALLIJN
  6
Continuous
 62
    30
370
    18
100
AcDbMText
 10
984.0886067344564
 20
1075.401208796183
 30
0.0
 40
12.5
 41
198.6795742753623
 46
0.0
 71
     3
 72
     5
  1
gevelpan vastzetten met\PRVS schroeven
  7
Trebuchet MS
 73
     1
 44
0.783132530120482
  0
LWPOLYLINE
  5
13F
330
1F
100
AcDbEntity
  8
AANHAALLIJN
  6
Continuous
 62
    30
370
    18
100
AcDbPolyline
 90
        3
 70
     0
 43
0.0
 10
984.0886067344563
 20
1088.317956170061
 10
598.7396461275328
 20
1088.317956170061
 10
531.8794974223147
 20
743.6629332405348
  0
LWPOLYLINE
  5
140
330
1F
100
AcDbEntity
  8
AANHAALLIJN
  6
Continuous
 62
    30
370
    18
100
AcDbPolyline
 90
        3
 70
     0
 43
0.0
 10
984.0886067344563
 20
1042.067875462854
 10
708.2894402912716
 20
1042.067875462854
 10
674.7732698998333
 20
869.2965505634601
  0
MTEXT
  5
141
330
1F
100
AcDbEntity
  8
AANHAALLIJN
  6
Continuous
 62
    30
370
    18
100
AcDbMText
 10
984.0886067344564
 20
1029.151289503389
 30
0.0
 40
12.5
 41
182.4640308739856
 46
0.0
 71
     3
 72
     5
  1
waterwerende en\Pdampdoorlatende laag
  7
Trebuchet MS
 73
     1
 44
0.783132530120482
  0
LWPOLYLINE
  5
142
330
1F
100
AcDbEntity
  8
AANHAALLIJN
  6
Continuous
 62
    30
370
    18
100
AcDbPolyline
 90
        3
 70
     0
 43
0.0
 10
984.0886067344563
 20
995.8179561700559
 10
717.998467810184
 20
995.8179561700559
 10
687.4147316802959
 20
838.1629332416595
  0
INSERT
  5
143
330
1F
100
AcDbEntity
  8
AANHAALLIJN
  6
Continuous
 62
    30
370
    18
100
AcDbBlockReference
  2
NSY154
 10
687.4147316802959
 20
838.1629332416595
 30
0.0
 41
1.962533333333333
 42
1.962533333333333
 43
1.962533333333333
  0
LWPOLYLINE
  5
144
330
1F
100
AcDbEntity
  8
AANHAALLIJN
  6
Continuous
 62
    30
370
    18
100
AcDbPolyline
 90
        3
 70
     0
 43
0.0
 10
691.9217881106516
 20
758.2989047486319
 10
731.8836146058441
 20
965.817956170056
 10
984.0886067344563
 20
965.817956170056
  0
LWPOLYLINE
  5
145
330
1F
100
AcDbEntity
  8
STEENWOL
  6
Continuous
 62
     7
370
    25
100
AcDbPolyline
 90
        4
 70
     0
 43
0.0
 10
96.87949741304691
 20
815.1629332416597
 10
414.8794974238771
 20
815.1629332416597
 10
414.8794974238809
 20
545.1629332416596
 10
96.87949741305068
 20
545.16293324165
  0
LWPOLYLINE
  5
146
330
1F
100
AcDbEntity
  8
STEENWOL
  6
Continuous
 62
    32
370
    25
100
AcDbPolyline
 90
        4
 70
     0
 43
0.0
 10
626.8794974351365
 20
771.76547361242
 10
576.8794974395641
 20
685.162933241645
 10
507.4480726012661
 20
802.1629332416596
 10
436.87949742431
 20
685.162933241645
  0
LWPOLYLINE
  5
147
330
1F
100
AcDbEntity
  8
STEENWOL
  6
Continuous
 62
     7
370
    25
100
AcDbPolyline
 90
        7
 70
     1
 43
0.0
 10
626.879497412662
 20
802.1629332416596
 10
626.8794974182935
 20
835.1629332416596
 10
466.4819836074078
 20
835.1629332416596
 10
448.9355770738875
 20
815.1629332416597
 10
436.8794974130469
 20
815.1629332416597
 10
436.8794974130469
 20
802.1629332416596
 10
626.879497412662
 20
802.1629332416596
  0
LINE
  5
148
330
1F
100
AcDbEntity
  8
AANHAALLIJN
  6
Continuous
 62
    30
370
    18
100
AcDbLine
 10
96.87949741305097
 20
325.1629332416605
 30
0.0
 11
801.8794974351294
 21
325.1629332416596
 31
0.0
  0
MTEXT
  5
149
330
1F
100
AcDbEntity
  8
AANHAALLIJN
  6
Continuous
 62
    30
100
AcDbMText
 10
96.87949741305098
 20
459.7462665749881
 30
0.0
 40
12.5
 41
184.1666666666667
 46
0.0
 71
     7
 72
     5
  1
luchtdichte aansluiting
  7
Trebuchet MS
 73
     1
 44
1.0
  0
LWPOLYLINE
  5
14A
330
1F
100
AcDbEntity
  8
AANHAALLIJN
  6
Continuous
 62
    30
370
    18
100
AcDbPolyline
 90
        3
 70
     0
 43
0.0
 10
96.87949741305097
 20
455.162933241645
 10
382.8794974243101
 20
455.162933241645
 10
446.8794974240918
 20
610.1629331579961
  0
MTEXT
  5
14B
330
1F
100
AcDbEntity
  8
GOTEN
  6
Continuous
 62
     5
370
    13
100
AcDbMText
 10
984.0886067344564
 20
970.4012895033892
 30
0.0
 40
12.5
 41
131.100881462254
 46
0.0
 71
     9
 72
     5
  1
{\fArial|i0|b1;\H12.500000;\W1.000000;\C30;Rockfit Mono**}\P
  7
ARIAL
 73
     1
 44
1.0
  0
MTEXT
  5
14C
330
1F
100
AcDbEntity
  8
AANHAALLIJN
  6
Continuous
 62
    30
370
    18
100
AcDbMText
 10
51.49999999999272
 20
1344.249999999994
 30
0.0
 40
17.5
 41
252.9077385235286
 46
0.0
 71
     1
 72
     5
  1
\W1.00;Rockfit\~Premium\~silver
  7
ARIAL
 73
     1
 44
1.0
  0
MTEXT
  5
14D
330
1F
100
AcDbEntity
  8
AANHAALLIJN
  6
Continuous
 62
    30
100
AcDbMText
 10
96.87949741305098
 20
423.4962665749938
 30
0.0
 40
12.5
 41
223.0827719788
 46
0.0
 71
     1
 72
     5
  1
{\Lwandopbouw}\Pgestapeld binnenspouwblad\P{\fArial|b1|i0|c0|p34;Rockfit Premium silver*\P}niet-geventileerde \Pluchtspouw (≥ 20 mm)\Pmetselwerk
  7
Trebuchet MS
 73
     1
 44
0.783132530120482
  0
MTEXT
  5
14E
330
1F
100
AcDbEntity
  8
AANHAALLIJN
  6
Continuous
 62
     5
370
    18
100
AcDbMText
 10
51.5
 20
1282.999999999999
 30
0.0
 40
10.0
 41
702.7315445336585
 46
0.0
 71
     1
 72
     5
  3
{\fArial|i0|b0;\H10.000000;\W1.000000;\C5;Bouwdetail gebaseerd op:     Rc wand ≥ \fArial|i0|b1;4,7 m²·K/W     \fArial|i0|b0;Rc dak ≥ \fArial|i0|b1;6,3 m²·K/W     \fArial|i0|b0;qv10-waarde\fArial|i0|b1; \fArial|i0|b0;≤ \fArial|i0|b1;0,4 dm³/s per m²}\
  1
P
  7
ARIAL
 73
     1
 44
1.0
  0
MTEXT
  5
14F
330
1F
100
AcDbEntity
  8
AANHAALLIJN
  6
Continuous
 62
    30
370
    13
100
AcDbMText
 10
519.7749723128908
 20
1148.06627854929
 30
0.0
 40
12.5
 41
230.3506803297199
 46
0.0
 71
     3
 72
     5
  1
{\Lopbouw sporenkap}\Pdakpan\Ppanlat 22x38 mm\Pwaterwerende en\Pdampdoorlatende laag\P{\fArial|b1|i0|c0|p34;RockSono Base 270 mm***\P(twee laags)\P(houtpercentage 8%)}\Ponderplaat 10 mm
  7
Trebuchet MS
 73
     1
 44
0.783132530120482
  0
MTEXT
  5
150
330
1F
100
AcDbEntity
  8
AANHAALLIJN
  6
Continuous
 62
     5
370
    13
100
AcDbMText
 10
74.98415187608952
 20
84.86577832937651
 30
0.0
 40
7.0
 41
123.3494362645644
 46
0.0
 71
     1
 72
     5
  1
***λreken ≤ 0,037 W/(m.K)
  7
TAHOMA
 73
     1
 44
1.0
  0
MTEXT
  5
151
330
1F
100
AcDbEntity
  8
AANHAALLIJN
  6
Continuous
 62
     5
370
    13
100
AcDbMText
 10
74.98415187608952
 20
97.36577832937651
 30
0.0
 40
7.0
 41
117.7121212121212
 46
0.0
 71
     1
 72
     5
  1
**λreken ≤ 0,035 W/(m.K)
  7
Trebuchet MS
 73
     1
 44
1.0
  0
MTEXT
  5
152
330
1F
100
AcDbEntity
  8
AANHAALLIJN
  6
Continuous
 62
     5
370
    13
100
AcDbMText
 10
74.98415187608952
 20
109.8657783293765
 30
0.0
 40
7.0
 41
112.0736316591529
 46
0.0
 71
     1
 72
     5
  1
*λreken ≤ 0,033 W/(m.K)
  7
TAHOMA
 73
     1
 44
1.0
  0
LWPOLYLINE
  5
153
330
1F
100
AcDbEntity
  8
AANHAALLIJN
  6
Continuous
 62
    30
370
    18
100
AcDbPolyline
 90
        5
 70
     1
 43
0.0
 10
69.99999999999968
 20
70.00000000000117
 10
203.7903829171933
 20
70.00000000000196
 10
203.7903829171935
 20
114.924372025117
 10
69.99999999999982
 20
114.9243720251163
 10
69.99999999999968
 20
70.00000000000117
  0
HATCH
  5
154
330
1F
100
AcDbEntity
  8
AANHAALLIJN
  6
Continuous
 62
   255
370
    25
100
AcDbHatch
 10
0.0
 20
0.0
 30
0.0
210
0.0
220
0.0
230
1.0
  2
SOLID
 70
     1
 71
     0
 91
        1
 92
        3
 72
     0
 73
     1
 93
        4
 10
203.7903829171899
 20
70.00000000000206
 10
203.7903829171936
 20
114.924372025115
 10
69.99999999999495
 20
114.9243720251165
 10
69.99999999999963
 20
70.00000000000165
 97
        0
 75
     0
 76
     1
 98
        0
450
        0
451
        0
460
0.0
461
0.0
452
        1
462
0.0
453
        0
470

  0
MTEXT
  5
155
330
1F
100
AcDbEntity
  8
AANHAALLIJN
  6
Continuous
 62
    30
370
    18
100
AcDbMText
 10
984.0886067344564
 20
1092.901289503394
 30
0.0
 40
12.5
 41
154.1857039253016
 46
0.0
 71
     9
 72
     5
  1
{\fArial|i0|b1;\H12.500000;\W1.000000;\C30;RockSono Solid**}\P
  7
ARIAL
 73
     1
 44
1.0
  0
LWPOLYLINE
  5
156
330
1F
100
AcDbEntity
  8
DILALATIEVOEG EN AFDICHTING
  6
VERDECKT2_S2
 62
     7
370
    25
100
AcDbPolyline
 90
        5
 70
     0
 43
0.0
 10
414.379497413884
 20
821.1629332416595
 10
450.4482474096195
 20
821.1629332416595
 10
465.3626929631119
 20
838.1629332416595
 10
734.7658610502399
 20
838.1629332416595
 10
734.7658610502399
 20
530.1629332416596
  0
LWPOLYLINE
  5
157
330
1F
100
AcDbEntity
  8
DILALATIEVOEG EN AFDICHTING
  6
VERDECKT2_S2
 62
     7
370
    25
100
AcDbPolyline
 90
        4
 70
     0
 43
0.0
 10
96.8794974130478
 20
818.1629332416596
 10
400.8794974238772
 20
818.1629332416596
 10
403.8794974238771
 20
821.1629332416595
 10
450.4482474096195
 20
821.1629332416595
  0
ENDSEC
  0
SECTION
  2
OBJECTS
  0
DICTIONARY
  5
C
330
0
100
AcDbDictionary
281
     1
  3
ACAD_CIP_PREVIOUS_PRODUCT_INFO
350
17A
  3
ACAD_COLOR
350
169
  3
ACAD_DETAILVIEWSTYLE
350
16E
  3
ACAD_GROUP
350
D
  3
ACAD_LAYOUT
350
1A
  3
ACAD_MATERIAL
350
3B
  3
ACAD_MLEADERSTYLE
350
15D
  3
ACAD_MLINESTYLE
350
17
  3
ACAD_PLOTSETTINGS
350
19
  3
ACAD_PLOTSTYLENAME
350
E
  3
ACAD_SCALELIST
350
6F
  3
ACAD_SECTIONVIEWSTYLE
350
16C
  3
ACAD_TABLESTYLE
350
15C
  3
ACAD_VISUALSTYLE
350
2A
  3
ACDB_RECOMPOSE_DATA
350
222
  3
AcDbVariableDictionary
350
15A
  3
AcDsDecomposeData
350
228
  0
DICTIONARY
  5
1CD
330
2
100
AcDbDictionary
280
     1
281
     1
  3
ACAD_LAYERSTATES
360
1CE
  0
DICTIONARY
  5
158
330
1F
100
AcDbDictionary
280
     1
281
     1
  3
ACAD_SORTENTS
360
159
  0
XRECORD
  5
17A
102
{ACAD_REACTORS
330
C
102
}
330
C
100
AcDbXrecord
280
     1
300
ACDLT
300
2020
300

  0
DICTIONARY
  5
169
102
{ACAD_REACTORS
330
C
102
}
330
C
100
AcDbDictionary
281
     1
  0
DICTIONARY
  5
16E
102
{ACAD_REACTORS
330
C
102
}
330
C
100
AcDbDictionary
281
     1
  3
Metric50
350
16F
  0
DICTIONARY
  5
D
102
{ACAD_REACTORS
330
C
102
}
330
C
100
AcDbDictionary
281
     1
  0
DICTIONARY
  5
1A
102
{ACAD_REACTORS
330
C
102
}
330
C
100
AcDbDictionary
281
     1
  3
Layout1
350
1E
  3
Layout2
350
26
  3
Model
350
22
  0
DICTIONARY
  5
3B
102
{ACAD_REACTORS
330
C
102
}
330
C
100
AcDbDictionary
281
     1
  3
ByBlock
350
3D
  3
ByLayer
350
3C
  3
Global
350
3E
  0
DICTIONARY
  5
15D
102
{ACAD_REACTORS
330
C
102
}
330
C
100
AcDbDictionary
281
     1
  3
Standard
350
16B
  0
DICTIONARY
  5
17
102
{ACAD_REACTORS
330
C
102
}
330
C
100
AcDbDictionary
281
     1
  3
Standard
350
18
  0
DICTIONARY
  5
19
102
{ACAD_REACTORS
330
C
102
}
330
C
100
AcDbDictionary
281
     1
  0
ACDBDICTIONARYWDFLT
  5
E
102
{ACAD_REACTORS
330
C
102
}
330
C
100
AcDbDictionary
281
     1
  3
Normal
350
F
100
AcDbDictionaryWithDefault
340
F
  0
DICTIONARY
  5
6F
102
{ACAD_REACTORS
330
C
102
}
330
C
100
AcDbDictionary
281
     1
  3
A0
350
70
  3
A1
350
71
  3
A2
350
72
  3
A3
350
73
  3
A4
350
74
  3
A5
350
75
  3
A6
350
76
  3
A7
350
77
  3
A8
350
78
  3
A9
350
79
  3
B0
350
7A
  3
B1
350
7B
  3
B2
350
7C
  3
B3
350
7D
  3
B4
350
7E
  3
B5
350
7F
  3
B6
350
80
  3
B7
350
81
  3
B8
350
82
  3
B9
350
83
  3
C0
350
84
  3
C1
350
85
  3
C2
350
86
  3
C3
350
87
  3
C4
350
88
  3
C5
350
89
  3
C6
350
8A
  3
C7
350
8B
  3
C8
350
8C
  3
C9
350
8D
  3
D0
350
8E
  3
D1
350
8F
  3
D2
350
90
  0
DICTIONARY
  5
16C
102
{ACAD_REACTORS
330
C
102
}
330
C
100
AcDbDictionary
281
     1
  3
Metric50
350
16D
  0
DICTIONARY
  5
15C
102
{ACAD_REACTORS
330
C
102
}
330
C
100
AcDbDictionary
281
     1
  3
Standard
350
16A
  0
DICTIONARY
  5
2A
102
{ACAD_REACTORS
330
C
102
}
330
C
100
AcDbDictionary
281
     1
  3
2dWireframe
350
2F
  3
3D Hidden
350
31
  3
3dWireframe
350
30
  3
Basic
350
32
  3
Brighten
350
36
  3
ColorChange
350
3A
  3
Conceptual
350
34
  3
Dim
350
35
  3
EdgeColorOff
350
168
  3
Facepattern
350
39
  3
Flat
350
2B
  3
FlatWithEdges
350
2C
  3
Gouraud
350
2D
  3
GouraudWithEdges
350
2E
  3
Hidden
350
160
  3
JitterOff
350
166
  3
Linepattern
350
38
  3
OverhangOff
350
167
  3
Realistic
350
33
  3
Shaded
350
165
  3
Shaded with edges
350
164
  3
Shades of Gray
350
161
  3
Sketchy
350
162
  3
Thicken
350
37
  3
Wireframe
350
15F
  3
X-Ray
350
163
  0
XRECORD
  5
222
102
{ACAD_REACTORS
330
C
102
}
330
C
100
AcDbXrecord
280
     1
 90
        1
330
16A
  0
DICTIONARY
  5
15A
102
{ACAD_REACTORS
330
C
102
}
330
C
100
AcDbDictionary
281
     1
  3
CANNOSCALE
350
15B
  3
CMLEADERSTYLE
350
21D
  3
CTABLESTYLE
350
21C
  3
CVIEWDETAILSTYLE
350
21E
  3
CVIEWSECTIONSTYLE
350
21F
  0
DICTIONARY
  5
228
102
{ACAD_REACTORS
330
C
102
}
330
C
100
AcDbDictionary
281
     1
  3
AcDsRecords
350
22A
  3
AcDsSchemas
350
229
1001
ACAD
1070
     2
  0
DICTIONARY
  5
1CE
102
{ACAD_REACTORS
330
1CD
102
}
330
1CD
100
AcDbDictionary
281
     1
  0
SORTENTSTABLE
  5
159
102
{ACAD_REACTORS
330
158
102
}
330
158
100
AcDbSortentsTable
330
1F
331
6D
  5
98
331
6E
  5
99
331
91
  5
9A
331
92
  5
9B
331
93
  5
9C
331
94
  5
9D
331
96
  5
9E
331
97
  5
9F
331
98
  5
A0
331
99
  5
A1
331
9A
  5
A2
331
9B
  5
6D
331
9C
  5
A3
331
9D
  5
A4
331
9E
  5
A5
331
9F
  5
A6
331
A0
  5
A7
331
A1
  5
A8
331
A2
  5
A9
331
A3
  5
6E
331
A4
  5
AA
331
A5
  5
AB
331
A6
  5
91
331
A7
  5
AC
331
A8
  5
B4
331
A9
  5
BC
331
AA
  5
BD
331
AB
  5
92
331
AC
  5
BE
331
B4
  5
BF
331
BC
  5
C0
331
BD
  5
C1
331
BE
  5
C2
331
BF
  5
C3
331
C0
  5
C4
331
C1
  5
93
331
C2
  5
C5
331
C3
  5
C6
331
C4
  5
C7
331
C5
  5
C8
331
C6
  5
C9
331
C7
  5
CA
331
C8
  5
CB
331
C9
  5
CC
331
CA
  5
CD
331
CB
  5
CE
331
CC
  5
CF
331
CD
  5
D0
331
CE
  5
D1
331
CF
  5
D2
331
D0
  5
D3
331
D1
  5
D4
331
D2
  5
D5
331
D3
  5
D6
331
D4
  5
94
331
D5
  5
D7
331
D6
  5
D8
331
D7
  5
D9
331
D8
  5
DA
331
D9
  5
DB
331
DA
  5
E3
331
DB
  5
E4
331
E3
  5
E5
331
E4
  5
E6
331
E5
  5
E7
331
E6
  5
E8
331
E7
  5
FB
331
E8
  5
107
331
FB
  5
112
331
107
  5
11D
331
112
  5
128
331
11D
  5
129
331
128
  5
12A
331
129
  5
12B
331
12A
  5
12C
331
12B
  5
12D
331
12C
  5
12E
331
12D
  5
12F
331
12E
  5
130
331
12F
  5
131
331
130
  5
132
331
131
  5
133
331
132
  5
96
331
133
  5
134
331
134
  5
135
331
135
  5
136
331
136
  5
137
331
137
  5
138
331
138
  5
139
331
139
  5
13A
331
13A
  5
13B
331
13B
  5
13C
331
13C
  5
13D
331
13D
  5
13E
331
13E
  5
13F
331
13F
  5
140
331
140
  5
141
331
141
  5
142
331
142
  5
143
331
143
  5
144
331
144
  5
145
331
145
  5
146
331
146
  5
147
331
147
  5
148
331
148
  5
149
331
149
  5
14A
331
14A
  5
14B
331
14B
  5
14C
331
14C
  5
14D
331
14D
  5
14E
331
14E
  5
14F
331
14F
  5
150
331
150
  5
151
331
151
  5
152
331
152
  5
153
331
153
  5
154
331
154
  5
97
  0
ACDBDETAILVIEWSTYLE
  5
16F
102
{ACAD_XDICTIONARY
360
263
102
}
102
{ACAD_REACTORS
330
16E
102
}
330
16E
100
AcDbModelDocViewStyle
 70
     0
  3
Metric50
290
     0
100
AcDbDetailViewStyle
 70
     0
 71
     0
 90
        3
 71
     1
340
11
 62
   256
 40
5.0
340
0
 62
   256
 40
5.0
300

 40
0.0
280
     1
 71
     2
340
16
 90
       25
 62
   256
 71
     3
340
11
 62
   256
 40
5.0
 90
        0
 40
15.0
 90
        1
300
%<\AcVar ViewDetailId>% (%<\AcVar ViewScale \f "%sn">%)
 71
     4
340
16
 90
       25
 62
   256
340
16
 90
       25
 62
   256
280
     0
  0
LAYOUT
  5
1E
102
{ACAD_REACTORS
330
1A
102
}
330
1A
100
AcDbPlotSettings
  1

  2
none_device
  4
none_user_media
  6

 40
6.349999999999999
 41
19.05
 42
6.349974599999999
 43
19.0499873
 44
1500.0
 45
1065.0
 46
7.5
 47
7.5
 48
0.0
 49
0.0
140
0.0
141
0.0
142
1.0
143
1.0
 70
   688
 72
     1
 73
     0
 74
     5
  7

 75
    16
147
1.0
 76
     0
 77
     2
 78
   300
148
0.0
149
0.0
100
AcDbLayout
  1
Layout1
 70
     1
 71
     1
 10
0.0
 20
0.0
 11
12.0
 21
9.0
 12
0.0
 22
0.0
 32
0.0
 14
1.000000000000000E+20
 24
1.000000000000000E+20
 34
1.000000000000000E+20
 15
-1.000000000000000E+20
 25
-1.000000000000000E+20
 35
-1.000000000000000E+20
146
0.0
 13
0.0
 23
0.0
 33
0.0
 16
1.0
 26
0.0
 36
0.0
 17
0.0
 27
1.0
 37
0.0
 76
     0
330
1B
  0
LAYOUT
  5
26
102
{ACAD_REACTORS
330
1A
102
}
330
1A
100
AcDbPlotSettings
  1

  2
none_device
  4

  6

 40
0.0
 41
0.0
 42
0.0
 43
0.0
 44
0.0
 45
0.0
 46
0.0
 47
0.0
 48
0.0
 49
0.0
140
0.0
141
0.0
142
1.0
143
1.0
 70
   688
 72
     0
 73
     0
 74
     5
  7

 75
    16
147
1.0
 76
     0
 77
     2
 78
   300
148
0.0
149
0.0
100
AcDbLayout
  1
Layout2
 70
     1
 71
     2
 10
0.0
 20
0.0
 11
0.0
 21
0.0
 12
0.0
 22
0.0
 32
0.0
 14
0.0
 24
0.0
 34
0.0
 15
0.0
 25
0.0
 35
0.0
146
0.0
 13
0.0
 23
0.0
 33
0.0
 16
1.0
 26
0.0
 36
0.0
 17
0.0
 27
1.0
 37
0.0
 76
     0
330
23
  0
LAYOUT
  5
22
102
{ACAD_REACTORS
330
1A
102
}
330
1A
100
AcDbPlotSettings
  1

  2
none_device
  4

  6

 40
0.0
 41
0.0
 42
0.0
 43
0.0
 44
0.0
 45
0.0
 46
0.0
 47
0.0
 48
0.0
 49
0.0
140
0.0
141
0.0
142
1.0
143
1.0
 70
  1712
 72
     0
 73
     0
 74
     0
  7

 75
     0
147
1.0
 76
     0
 77
     2
 78
   300
148
0.0
149
0.0
100
AcDbLayout
  1
Model
 70
     1
 71
     0
 10
0.0
 20
0.0
 11
1050.0
 21
1485.0
 12
0.0
 22
0.0
 32
0.0
 14
0.0
 24
0.0
 34
0.0
 15
1050.0
 25
1485.0
 35
1050.0
146
0.0
 13
0.0
 23
0.0
 33
0.0
 16
1.0
 26
0.0
 36
0.0
 17
0.0
 27
1.0
 37
0.0
 76
     0
330
1F
331
29
  0
MATERIAL
  5
3D
102
{ACAD_REACTORS
330
3B
102
}
330
3B
100
AcDbMaterial
  1
ByBlock
 73
     1
 78
     1
172
     1
176
     1
270
     1
274
     1
  0
MATERIAL
  5
3C
102
{ACAD_REACTORS
330
3B
102
}
330
3B
100
AcDbMaterial
  1
ByLayer
 73
     1
 78
     1
172
     1
176
     1
270
     1
274
     1
  0
MATERIAL
  5
3E
102
{ACAD_REACTORS
330
3B
102
}
330
3B
100
AcDbMaterial
  1
Global
 73
     1
 78
     1
172
     1
176
     1
270
     1
274
     1
  0
MLEADERSTYLE
  5
16B
102
{ACAD_XDICTIONARY
360
25F
102
}
102
{ACAD_REACTORS
330
15D
102
}
330
15D
100
AcDbMLeaderStyle
179
     2
170
     2
171
     1
172
     0
 90
        2
 40
0.0
 41
0.0
173
     1
 91
-1056964608
340
14
 92
       -2
290
     1
 42
2.0
291
     1
 43
0.36
  3
Standard
 44
4.0
300

342
11
174
     1
178
     6
175
     1
176
     0
 93
-1056964608
 45
4.0
292
     0
297
     0
 46
4.0
 94
-1056964608
 47
1.0
 49
1.0
140
1.0
293
     1
141
0.0
294
     1
177
     0
142
1.0
295
     0
296
     0
143
0.125
271
     0
272
     9
273
     9
  0
MLINESTYLE
  5
18
102
{ACAD_REACTORS
330
17
102
}
330
17
100
AcDbMlineStyle
  2
STANDARD
 70
     0
  3

 62
   256
 51
90.0
 52
90.0
 71
     2
 49
0.5
 62
   256
  6
BYLAYER
 49
-0.5
 62
   256
  6
BYLAYER
  0
ACDBPLACEHOLDER
  5
F
102
{ACAD_REACTORS
330
E
102
}
330
E
  0
SCALE
  5
70
102
{ACAD_REACTORS
330
6F
102
}
330
6F
100
AcDbScale
 70
     0
300
1:1
140
1.0
141
1.0
290
     1
  0
SCALE
  5
71
102
{ACAD_REACTORS
330
6F
102
}
330
6F
100
AcDbScale
 70
     0
300
1:2
140
1.0
141
2.0
290
     0
  0
SCALE
  5
72
102
{ACAD_REACTORS
330
6F
102
}
330
6F
100
AcDbScale
 70
     0
300
1:4
140
1.0
141
4.0
290
     0
  0
SCALE
  5
73
102
{ACAD_REACTORS
330
6F
102
}
330
6F
100
AcDbScale
 70
     0
300
1:5
140
1.0
141
5.0
290
     0
  0
SCALE
  5
74
102
{ACAD_REACTORS
330
6F
102
}
330
6F
100
AcDbScale
 70
     0
300
1:8
140
1.0
141
8.0
290
     0
  0
SCALE
  5
75
102
{ACAD_REACTORS
330
6F
102
}
330
6F
100
AcDbScale
 70
     0
300
1:10
140
1.0
141
10.0
290
     0
  0
SCALE
  5
76
102
{ACAD_REACTORS
330
6F
102
}
330
6F
100
AcDbScale
 70
     0
300
1:16
140
1.0
141
16.0
290
     0
  0
SCALE
  5
77
102
{ACAD_REACTORS
330
6F
102
}
330
6F
100
AcDbScale
 70
     0
300
1:20
140
1.0
141
20.0
290
     0
  0
SCALE
  5
78
102
{ACAD_REACTORS
330
6F
102
}
330
6F
100
AcDbScale
 70
     0
300
1:30
140
1.0
141
30.0
290
     0
  0
SCALE
  5
79
102
{ACAD_REACTORS
330
6F
102
}
330
6F
100
AcDbScale
 70
     0
300
1:40
140
1.0
141
40.0
290
     0
  0
SCALE
  5
7A
102
{ACAD_REACTORS
330
6F
102
}
330
6F
100
AcDbScale
 70
     0
300
1:50
140
1.0
141
50.0
290
     0
  0
SCALE
  5
7B
102
{ACAD_REACTORS
330
6F
102
}
330
6F
100
AcDbScale
 70
     0
300
1:100
140
1.0
141
100.0
290
     0
  0
SCALE
  5
7C
102
{ACAD_REACTORS
330
6F
102
}
330
6F
100
AcDbScale
 70
     0
300
2:1
140
2.0
141
1.0
290
     0
  0
SCALE
  5
7D
102
{ACAD_REACTORS
330
6F
102
}
330
6F
100
AcDbScale
 70
     0
300
4:1
140
4.0
141
1.0
290
     0
  0
SCALE
  5
7E
102
{ACAD_REACTORS
330
6F
102
}
330
6F
100
AcDbScale
 70
     0
300
8:1
140
8.0
141
1.0
290
     0
  0
SCALE
  5
7F
102
{ACAD_REACTORS
330
6F
102
}
330
6F
100
AcDbScale
 70
     0
300
10:1
140
10.0
141
1.0
290
     0
  0
SCALE
  5
80
102
{ACAD_REACTORS
330
6F
102
}
330
6F
100
AcDbScale
 70
     0
300
100:1
140
100.0
141
1.0
290
     0
  0
SCALE
  5
81
102
{ACAD_REACTORS
330
6F
102
}
330
6F
100
AcDbScale
 70
     0
300
1/128" = 1'-0"
140
0.0078125
141
12.0
290
     0
  0
SCALE
  5
82
102
{ACAD_REACTORS
330
6F
102
}
330
6F
100
AcDbScale
 70
     0
300
1/64" = 1'-0"
140
0.015625
141
12.0
290
     0
  0
SCALE
  5
83
102
{ACAD_REACTORS
330
6F
102
}
330
6F
100
AcDbScale
 70
     0
300
1/32" = 1'-0"
140
0.03125
141
12.0
290
     0
  0
SCALE
  5
84
102
{ACAD_REACTORS
330
6F
102
}
330
6F
100
AcDbScale
 70
     0
300
1/16" = 1'-0"
140
0.0625
141
12.0
290
     0
  0
SCALE
  5
85
102
{ACAD_REACTORS
330
6F
102
}
330
6F
100
AcDbScale
 70
     0
300
3/32" = 1'-0"
140
0.09375
141
12.0
290
     0
  0
SCALE
  5
86
102
{ACAD_REACTORS
330
6F
102
}
330
6F
100
AcDbScale
 70
     0
300
1/8" = 1'-0"
140
0.125
141
12.0
290
     0
  0
SCALE
  5
87
102
{ACAD_REACTORS
330
6F
102
}
330
6F
100
AcDbScale
 70
     0
300
3/16" = 1'-0"
140
0.1875
141
12.0
290
     0
  0
SCALE
  5
88
102
{ACAD_REACTORS
330
6F
102
}
330
6F
100
AcDbScale
 70
     0
300
1/4" = 1'-0"
140
0.25
141
12.0
290
     0
  0
SCALE
  5
89
102
{ACAD_REACTORS
330
6F
102
}
330
6F
100
AcDbScale
 70
     0
300
3/8" = 1'-0"
140
0.375
141
12.0
290
     0
  0
SCALE
  5
8A
102
{ACAD_REACTORS
330
6F
102
}
330
6F
100
AcDbScale
 70
     0
300
1/2" = 1'-0"
140
0.5
141
12.0
290
     0
  0
SCALE
  5
8B
102
{ACAD_REACTORS
330
6F
102
}
330
6F
100
AcDbScale
 70
     0
300
3/4" = 1'-0"
140
0.75
141
12.0
290
     0
  0
SCALE
  5
8C
102
{ACAD_REACTORS
330
6F
102
}
330
6F
100
AcDbScale
 70
     0
300
1" = 1'-0"
140
1.0
141
12.0
290
     0
  0
SCALE
  5
8D
102
{ACAD_REACTORS
330
6F
102
}
330
6F
100
AcDbScale
 70
     0
300
1-1/2" = 1'-0"
140
1.5
141
12.0
290
     0
  0
SCALE
  5
8E
102
{ACAD_REACTORS
330
6F
102
}
330
6F
100
AcDbScale
 70
     0
300
3" = 1'-0"
140
3.0
141
12.0
290
     0
  0
SCALE
  5
8F
102
{ACAD_REACTORS
330
6F
102
}
330
6F
100
AcDbScale
 70
     0
300
6" = 1'-0"
140
6.0
141
12.0
290
     0
  0
SCALE
  5
90
102
{ACAD_REACTORS
330
6F
102
}
330
6F
100
AcDbScale
 70
     0
300
1'-0" = 1'-0"
140
12.0
141
12.0
290
     0
  0
ACDBSECTIONVIEWSTYLE
  5
16D
102
{ACAD_XDICTIONARY
360
261
102
}
102
{ACAD_REACTORS
330
16C
102
}
330
16C
100
AcDbModelDocViewStyle
 70
     0
  3
Metric50
290
     0
100
AcDbSectionViewStyle
 70
     0
 71
     0
 90
      102
 71
     1
340
11
 62
   256
 40
5.0
340
0
340
0
 62
   256
 40
5.0
300
I, O, Q, S, X, Z
 40
10.0
 90
        0
 40
2.5
 90
        0
 71
     2
340
16
 90
       25
 62
   256
340
16
 90
       50
 62
   256
 40
5.0
 40
2.5
 40
5.0
 71
     3
340
11
 62
   256
 40
5.0
 90
        0
 40
15.0
 90
        1
300
%<\AcVar ViewSectionStartId>%-%<\AcVar ViewSectionEndId>% (%<\AcVar ViewScale \f "%sn">%)
 71
     4
 62
   256
 62
   257
300
ANSI31
 40
1.0
 90
        0
290
     0
290
     0
 90
        6
 40
0.0
 40
1.570796326794896
 40
0.2617993877991494
 40
1.308996938995747
 40
-0.2617993877991494
 40
1.832595714594046
  0
TABLESTYLE
  5
16A
102
{ACAD_XDICTIONARY
360
220
102
}
102
{ACAD_REACTORS
330
15C
102
}
330
15C
100
AcDbTableStyle
280
     0
  3
Standard
 70
     0
 71
     0
 40
1.5
 41
1.5
280
     0
281
     0
  7
Standard
140
4.5
170
     2
 62
     0
 63
     7
283
     0
 90
      512
 91
        0
  1

274
    -2
284
     1
 64
     0
275
    -2
285
     1
 65
     0
276
    -2
286
     1
 66
     0
277
    -2
287
     1
 67
     0
278
    -2
288
     1
 68
     0
279
    -2
289
     1
 69
     0
  7
Standard
140
6.0
170
     5
 62
     0
 63
     7
283
     0
 90
      512
 91
        0
  1

274
    -2
284
     1
 64
     0
275
    -2
285
     1
 65
     0
276
    -2
286
     1
 66
     0
277
    -2
287
     1
 67
     0
278
    -2
288
     1
 68
     0
279
    -2
289
     1
 69
     0
  7
Standard
140
4.5
170
     5
 62
     0
 63
     7
283
     0
 90
      512
 91
        0
  1

274
    -2
284
     1
 64
     0
275
    -2
285
     1
 65
     0
276
    -2
286
     1
 66
     0
277
    -2
287
     1
 67
     0
278
    -2
288
     1
 68
     0
279
    -2
289
     1
 69
     0
  0
VISUALSTYLE
  5
2F
102
{ACAD_XDICTIONARY
360
233
102
}
102
{ACAD_REACTORS
330
2A
102
}
330
2A
100
AcDbVisualStyle
  2
2dWireframe
 70
     4
177
     2
291
     0
 71
     0
176
     1
 72
     2
176
     1
 73
     0
176
     1
 90
        0
176
     1
 40
0.6
176
     1
 41
30.0
176
     1
 63
     7
421
 16777215
176
     1
 74
     1
176
     1
 91
        4
176
     1
 64
     7
176
     1
 65
   257
176
     1
 75
     1
176
     1
175
     1
176
     1
 42
1.0
176
     1
 92
        0
176
     1
 66
   257
176
     1
 43
1.0
176
     1
 76
     1
176
     1
 77
     6
176
     1
 78
     2
176
     1
 67
     7
176
     1
 79
     5
176
     1
170
     0
176
     1
171
     0
176
     1
290
     0
176
     1
 93
        1
176
     1
 44
0.0
176
     1
173
     0
176
     1
1001
ACAD
1000
AcDbSavedByObjectVersion
1070
     0
  0
VISUALSTYLE
  5
31
102
{ACAD_XDICTIONARY
360
237
102
}
102
{ACAD_REACTORS
330
2A
102
}
330
2A
100
AcDbVisualStyle
  2
3D Hidden
 70
     6
177
     2
291
     0
 71
     1
176
     1
 72
     2
176
     1
 73
     2
176
     1
 90
        0
176
     1
 40
0.6
176
     1
 41
30.0
176
     1
 63
     7
421
 16777215
176
     1
 74
     2
176
     1
 91
        2
176
     1
 64
     7
176
     1
 65
   257
176
     1
 75
     2
176
     1
175
     1
176
     1
 42
40.0
176
     1
 92
        0
176
     1
 66
   257
176
     1
 43
1.0
176
     1
 76
     1
176
     1
 77
     6
176
     1
 78
     2
176
     1
 67
     7
176
     1
 79
     3
176
     1
170
     0
176
     1
171
     0
176
     1
290
     0
176
     1
 93
        1
176
     1
 44
0.0
176
     1
173
     0
176
     1
1001
ACAD
1000
AcDbSavedByObjectVersion
1070
     0
  0
VISUALSTYLE
  5
30
102
{ACAD_XDICTIONARY
360
235
102
}
102
{ACAD_REACTORS
330
2A
102
}
330
2A
100
AcDbVisualStyle
  2
3dWireframe
 70
     5
177
     2
291
     0
 71
     0
176
     1
 72
     2
176
     1
 73
     0
176
     1
 90
        0
176
     1
 40
0.6
176
     1
 41
30.0
176
     1
 63
     7
421
 16777215
176
     1
 74
     1
176
     1
 91
        4
176
     1
 64
     7
176
     1
 65
   257
176
     1
 75
     1
176
     1
175
     1
176
     1
 42
1.0
176
     1
 92
        0
176
     1
 66
   257
176
     1
 43
1.0
176
     1
 76
     1
176
     1
 77
     6
176
     1
 78
     2
176
     1
 67
     7
176
     1
 79
     5
176
     1
170
     0
176
     1
171
     0
176
     1
290
     0
176
     1
 93
        1
176
     1
 44
0.0
176
     1
173
     0
176
     1
1001
ACAD
1000
AcDbSavedByObjectVersion
1070
     0
  0
VISUALSTYLE
  5
32
102
{ACAD_XDICTIONARY
360
239
102
}
102
{ACAD_REACTORS
330
2A
102
}
330
2A
100
AcDbVisualStyle
  2
Basic
 70
     7
177
     2
291
     1
 71
     1
176
     1
 72
     0
176
     1
 73
     1
176
     1
 90
        0
176
     1
 40
0.6
176
     1
 41
30.0
176
     1
 63
     7
421
 16777215
176
     1
 74
     0
176
     1
 91
        4
176
     1
 64
     7
176
     1
 65
   257
176
     1
 75
     1
176
     1
175
     1
176
     1
 42
1.0
176
     1
 92
        8
176
     1
 66
     7
176
     1
 43
1.0
176
     1
 76
     1
176
     1
 77
     6
176
     1
 78
     2
176
     1
 67
     7
176
     1
 79
     5
176
     1
170
     0
176
     1
171
     0
176
     1
290
     0
176
     1
 93
        1
176
     1
 44
0.0
176
     1
173
     0
176
     1
1001
ACAD
1000
AcDbSavedByObjectVersion
1070
     0
  0
VISUALSTYLE
  5
36
102
{ACAD_XDICTIONARY
360
241
102
}
102
{ACAD_REACTORS
330
2A
102
}
330
2A
100
AcDbVisualStyle
  2
Brighten
 70
    12
177
     2
291
     1
 71
     2
176
     1
 72
     2
176
     1
 73
     0
176
     1
 90
        0
176
     1
 40
0.6
176
     1
 41
30.0
176
     1
 63
     7
421
 16777215
176
     1
 74
     1
176
     1
 91
        4
176
     1
 64
     7
176
     1
 65
   257
176
     1
 75
     1
176
     1
175
     1
176
     1
 42
1.0
176
     1
 92
        8
176
     1
 66
     7
176
     1
 43
1.0
176
     1
 76
     1
176
     1
 77
     6
176
     1
 78
     2
176
     1
 67
     7
176
     1
 79
     5
176
     1
170
     0
176
     1
171
     0
176
     1
290
     0
176
     1
 93
        1
176
     1
 44
50.0
176
     1
173
     0
176
     1
1001
ACAD
1000
AcDbSavedByObjectVersion
1070
     0
  0
VISUALSTYLE
  5
3A
102
{ACAD_XDICTIONARY
360
249
102
}
102
{ACAD_REACTORS
330
2A
102
}
330
2A
100
AcDbVisualStyle
  2
ColorChange
 70
    16
177
     2
291
     1
 71
     2
176
     1
 72
     2
176
     1
 73
     3
176
     1
 90
        0
176
     1
 40
0.6
176
     1
 41
30.0
176
     1
 63
     8
421
  8421504
176
     1
 74
     1
176
     1
 91
        4
176
     1
 64
     7
176
     1
 65
   257
176
     1
 75
     1
176
     1
175
     1
176
     1
 42
1.0
176
     1
 92
        8
176
     1
 66
     8
424
  8421504
176
     1
 43
1.0
176
     1
 76
     1
176
     1
 77
     6
176
     1
 78
     2
176
     1
 67
     7
176
     1
 79
     5
176
     1
170
     0
176
     1
171
     0
176
     1
290
     0
176
     1
 93
        1
176
     1
 44
0.0
176
     1
173
     0
176
     1
1001
ACAD
1000
AcDbSavedByObjectVersion
1070
     0
  0
VISUALSTYLE
  5
34
102
{ACAD_XDICTIONARY
360
23D
102
}
102
{ACAD_REACTORS
330
2A
102
}
330
2A
100
AcDbVisualStyle
  2
Conceptual
 70
     9
177
     2
291
     0
 71
     3
176
     1
 72
     2
176
     1
 73
     0
176
     1
 90
        0
176
     1
 40
0.6
176
     1
 41
30.0
176
     1
 63
     7
421
 16777215
176
     1
 74
     2
176
     1
 91
        2
176
     1
 64
     7
176
     1
 65
   257
176
     1
 75
     1
176
     1
175
     1
176
     1
 42
40.0
176
     1
 92
        8
176
     1
 66
     7
176
     1
 43
1.0
176
     1
 76
     1
176
     1
 77
     6
176
     1
 78
     2
176
     1
 67
     7
176
     1
 79
     3
176
     1
170
     0
176
     1
171
     0
176
     1
290
     0
176
     1
 93
        1
176
     1
 44
0.0
176
     1
173
     0
176
     1
1001
ACAD
1000
AcDbSavedByObjectVersion
1070
     0
  0
VISUALSTYLE
  5
35
102
{ACAD_XDICTIONARY
360
23F
102
}
102
{ACAD_REACTORS
330
2A
102
}
330
2A
100
AcDbVisualStyle
  2
Dim
 70
    11
177
     2
291
     1
 71
     2
176
     1
 72
     2
176
     1
 73
     0
176
     1
 90
        0
176
     1
 40
0.6
176
     1
 41
30.0
176
     1
 63
     7
421
 16777215
176
     1
 74
     1
176
     1
 91
        4
176
     1
 64
     7
176
     1
 65
   257
176
     1
 75
     1
176
     1
175
     1
176
     1
 42
1.0
176
     1
 92
        8
176
     1
 66
     7
176
     1
 43
1.0
176
     1
 76
     1
176
     1
 77
     6
176
     1
 78
     2
176
     1
 67
     7
176
     1
 79
     5
176
     1
170
     0
176
     1
171
     0
176
     1
290
     0
176
     1
 93
        1
176
     1
 44
-50.0
176
     1
173
     0
176
     1
1001
ACAD
1000
AcDbSavedByObjectVersion
1070
     0
  0
VISUALSTYLE
  5
168
102
{ACAD_XDICTIONARY
360
25D
102
}
102
{ACAD_REACTORS
330
2A
102
}
330
2A
100
AcDbVisualStyle
  2
EdgeColorOff
 70
    22
177
     2
291
     1
 71
     2
176
     0
 72
     2
176
     0
 73
     0
176
     0
 90
        0
176
     0
 40
0.6
176
     0
 41
30.0
176
     0
 63
     7
421
 16777215
176
     0
 74
     1
176
     0
 91
        4
176
     0
 64
     7
176
     0
 65
   257
176
     0
 75
     1
176
     0
175
     1
176
     0
 42
1.0
176
     0
 92
        8
176
     2
 66
     7
176
     0
 43
1.0
176
     0
 76
     1
176
     0
 77
     6
176
     0
 78
     2
176
     0
 67
     7
176
     0
 79
     5
176
     0
170
     0
176
     0
171
     0
176
     0
290
     0
176
     0
 93
        1
176
     0
 44
0.0
176
     0
173
     0
176
     0
1001
ACAD
1000
AcDbSavedByObjectVersion
1070
     0
  0
VISUALSTYLE
  5
39
102
{ACAD_XDICTIONARY
360
247
102
}
102
{ACAD_REACTORS
330
2A
102
}
330
2A
100
AcDbVisualStyle
  2
Facepattern
 70
    15
177
     2
291
     1
 71
     2
176
     1
 72
     2
176
     1
 73
     0
176
     1
 90
        0
176
     1
 40
0.6
176
     1
 41
30.0
176
     1
 63
     7
421
 16777215
176
     1
 74
     1
176
     1
 91
        4
176
     1
 64
     7
176
     1
 65
   257
176
     1
 75
     1
176
     1
175
     1
176
     1
 42
1.0
176
     1
 92
        8
176
     1
 66
     7
176
     1
 43
1.0
176
     1
 76
     1
176
     1
 77
     6
176
     1
 78
     2
176
     1
 67
     7
176
     1
 79
     5
176
     1
170
     0
176
     1
171
     0
176
     1
290
     0
176
     1
 93
        1
176
     1
 44
0.0
176
     1
173
     0
176
     1
1001
ACAD
1000
AcDbSavedByObjectVersion
1070
     0
  0
VISUALSTYLE
  5
2B
102
{ACAD_XDICTIONARY
360
22B
102
}
102
{ACAD_REACTORS
330
2A
102
}
330
2A
100
AcDbVisualStyle
  2
Flat
 70
     0
177
     2
291
     1
 71
     2
176
     1
 72
     1
176
     1
 73
     1
176
     1
 90
        2
176
     1
 40
0.6
176
     1
 41
30.0
176
     1
 63
     7
421
 16777215
176
     1
 74
     0
176
     1
 91
        4
176
     1
 64
     7
176
     1
 65
   257
176
     1
 75
     1
176
     1
175
     1
176
     1
 42
1.0
176
     1
 92
        8
176
     1
 66
     7
176
     1
 43
1.0
176
     1
 76
     1
176
     1
 77
     6
176
     1
 78
     2
176
     1
 67
     7
176
     1
 79
     5
176
     1
170
     0
176
     1
171
     0
176
     1
290
     0
176
     1
 93
       13
176
     1
 44
0.0
176
     1
173
     0
176
     1
1001
ACAD
1000
AcDbSavedByObjectVersion
1070
     0
  0
VISUALSTYLE
  5
2C
102
{ACAD_XDICTIONARY
360
22D
102
}
102
{ACAD_REACTORS
330
2A
102
}
330
2A
100
AcDbVisualStyle
  2
FlatWithEdges
 70
     1
177
     2
291
     1
 71
     2
176
     1
 72
     1
176
     1
 73
     1
176
     1
 90
        2
176
     1
 40
0.6
176
     1
 41
30.0
176
     1
 63
     7
421
 16777215
176
     1
 74
     1
176
     1
 91
        4
176
     1
 64
     7
176
     1
 65
   257
176
     1
 75
     1
176
     1
175
     1
176
     1
 42
1.0
176
     1
 92
        0
176
     1
 66
   257
176
     1
 43
1.0
176
     1
 76
     1
176
     1
 77
     6
176
     1
 78
     2
176
     1
 67
     7
176
     1
 79
     5
176
     1
170
     0
176
     1
171
     0
176
     1
290
     0
176
     1
 93
       13
176
     1
 44
0.0
176
     1
173
     0
176
     1
1001
ACAD
1000
AcDbSavedByObjectVersion
1070
     0
  0
VISUALSTYLE
  5
2D
102
{ACAD_XDICTIONARY
360
22F
102
}
102
{ACAD_REACTORS
330
2A
102
}
330
2A
100
AcDbVisualStyle
  2
Gouraud
 70
     2
177
     2
291
     1
 71
     2
176
     1
 72
     2
176
     1
 73
     1
176
     1
 90
        2
176
     1
 40
0.6
176
     1
 41
30.0
176
     1
 63
     7
421
 16777215
176
     1
 74
     0
176
     1
 91
        4
176
     1
 64
     7
176
     1
 65
   257
176
     1
 75
     1
176
     1
175
     1
176
     1
 42
1.0
176
     1
 92
        0
176
     1
 66
     7
176
     1
 43
1.0
176
     1
 76
     1
176
     1
 77
     6
176
     1
 78
     2
176
     1
 67
     7
176
     1
 79
     5
176
     1
170
     0
176
     1
171
     0
176
     1
290
     0
176
     1
 93
       13
176
     1
 44
0.0
176
     1
173
     0
176
     1
1001
ACAD
1000
AcDbSavedByObjectVersion
1070
     0
  0
VISUALSTYLE
  5
2E
102
{ACAD_XDICTIONARY
360
231
102
}
102
{ACAD_REACTORS
330
2A
102
}
330
2A
100
AcDbVisualStyle
  2
GouraudWithEdges
 70
     3
177
     2
291
     1
 71
     2
176
     1
 72
     2
176
     1
 73
     1
176
     1
 90
        2
176
     1
 40
0.6
176
     1
 41
30.0
176
     1
 63
     7
421
 16777215
176
     1
 74
     1
176
     1
 91
        4
176
     1
 64
     7
176
     1
 65
   257
176
     1
 75
     1
176
     1
175
     1
176
     1
 42
1.0
176
     1
 92
        0
176
     1
 66
   257
176
     1
 43
1.0
176
     1
 76
     1
176
     1
 77
     6
176
     1
 78
     2
176
     1
 67
     7
176
     1
 79
     5
176
     1
170
     0
176
     1
171
     0
176
     1
290
     0
176
     1
 93
       13
176
     1
 44
0.0
176
     1
173
     0
176
     1
1001
ACAD
1000
AcDbSavedByObjectVersion
1070
     0
  0
VISUALSTYLE
  5
160
102
{ACAD_XDICTIONARY
360
24D
102
}
102
{ACAD_REACTORS
330
2A
102
}
330
2A
100
AcDbVisualStyle
  2
Hidden
 70
     6
177
     2
291
     0
 71
     1
176
     1
 72
     2
176
     1
 73
     2
176
     1
 90
        0
176
     1
 40
0.6
176
     1
 41
30.0
176
     1
 63
     7
421
 16777215
176
     1
 74
     2
176
     1
 91
        2
176
     1
 64
     7
176
     1
 65
   257
176
     1
 75
     2
176
     1
175
     1
176
     1
 42
40.0
176
     1
 92
        0
176
     1
 66
   257
176
     1
 43
1.0
176
     1
 76
     1
176
     1
 77
     6
176
     1
 78
     2
176
     1
 67
     7
176
     1
 79
     3
176
     1
170
     0
176
     1
171
     0
176
     1
290
     0
176
     1
 93
        1
176
     1
 44
0.0
176
     1
173
     0
176
     1
1001
ACAD
1000
AcDbSavedByObjectVersion
1070
     0
  0
VISUALSTYLE
  5
166
102
{ACAD_XDICTIONARY
360
259
102
}
102
{ACAD_REACTORS
330
2A
102
}
330
2A
100
AcDbVisualStyle
  2
JitterOff
 70
    20
177
     2
291
     1
 71
     2
176
     0
 72
     2
176
     0
 73
     0
176
     0
 90
        0
176
     0
 40
0.6
176
     0
 41
30.0
176
     0
 63
     7
421
 16777215
176
     0
 74
     1
176
     0
 91
        4
176
     0
 64
     7
176
     0
 65
   257
176
     0
 75
     1
176
     0
175
     1
176
     0
 42
1.0
176
     0
 92
       10
176
     2
 66
     7
176
     0
 43
1.0
176
     0
 76
     1
176
     0
 77
     6
176
     0
 78
     2
176
     0
 67
     7
176
     0
 79
     5
176
     0
170
     0
176
     0
171
     0
176
     0
290
     0
176
     0
 93
        1
176
     0
 44
0.0
176
     0
173
     0
176
     0
1001
ACAD
1000
AcDbSavedByObjectVersion
1070
     0
  0
VISUALSTYLE
  5
38
102
{ACAD_XDICTIONARY
360
245
102
}
102
{ACAD_REACTORS
330
2A
102
}
330
2A
100
AcDbVisualStyle
  2
Linepattern
 70
    14
177
     2
291
     1
 71
     2
176
     1
 72
     2
176
     1
 73
     0
176
     1
 90
        0
176
     1
 40
0.6
176
     1
 41
30.0
176
     1
 63
     7
421
 16777215
176
     1
 74
     1
176
     1
 91
        4
176
     1
 64
     7
176
     1
 65
   257
176
     1
 75
     7
176
     1
175
     7
176
     1
 42
1.0
176
     1
 92
        8
176
     1
 66
     7
176
     1
 43
1.0
176
     1
 76
     1
176
     1
 77
     6
176
     1
 78
     2
176
     1
 67
     7
176
     1
 79
     5
176
     1
170
     0
176
     1
171
     0
176
     1
290
     0
176
     1
 93
        1
176
     1
 44
0.0
176
     1
173
     0
176
     1
1001
ACAD
1000
AcDbSavedByObjectVersion
1070
     0
  0
VISUALSTYLE
  5
167
102
{ACAD_XDICTIONARY
360
25B
102
}
102
{ACAD_REACTORS
330
2A
102
}
330
2A
100
AcDbVisualStyle
  2
OverhangOff
 70
    21
177
     2
291
     1
 71
     2
176
     0
 72
     2
176
     0
 73
     0
176
     0
 90
        0
176
     0
 40
0.6
176
     0
 41
30.0
176
     0
 63
     7
421
 16777215
176
     0
 74
     1
176
     0
 91
        4
176
     0
 64
     7
176
     0
 65
   257
176
     0
 75
     1
176
     0
175
     1
176
     0
 42
1.0
176
     0
 92
        9
176
     2
 66
     7
176
     0
 43
1.0
176
     0
 76
     1
176
     0
 77
     6
176
     0
 78
     2
176
     0
 67
     7
176
     0
 79
     5
176
     0
170
     0
176
     0
171
     0
176
     0
290
     0
176
     0
 93
        1
176
     0
 44
0.0
176
     0
173
     0
176
     0
1001
ACAD
1000
AcDbSavedByObjectVersion
1070
     0
  0
VISUALSTYLE
  5
33
102
{ACAD_XDICTIONARY
360
23B
102
}
102
{ACAD_REACTORS
330
2A
102
}
330
2A
100
AcDbVisualStyle
  2
Realistic
 70
     8
177
     2
291
     0
 71
     2
176
     1
 72
     2
176
     1
 73
     0
176
     1
 90
        0
176
     1
 40
0.6
176
     1
 41
30.0
176
     1
 63
     7
421
 16777215
176
     1
 74
     1
176
     1
 91
        0
176
     1
 64
     7
176
     1
 65
   257
176
     1
 75
     1
176
     1
175
     1
176
     1
 42
1.0
176
     1
 92
        8
176
     1
 66
     8
424
  7895160
176
     1
 43
1.0
176
     1
 76
     1
176
     1
 77
     6
176
     1
 78
     2
176
     1
 67
     7
176
     1
 79
     5
176
     1
170
     0
176
     1
171
     0
176
     1
290
     0
176
     1
 93
       13
176
     1
 44
0.0
176
     1
173
     0
176
     1
1001
ACAD
1000
AcDbSavedByObjectVersion
1070
     0
  0
VISUALSTYLE
  5
165
102
{ACAD_XDICTIONARY
360
257
102
}
102
{ACAD_REACTORS
330
2A
102
}
330
2A
100
AcDbVisualStyle
  2
Shaded
 70
    27
177
     2
291
     0
 71
     2
176
     1
 72
     2
176
     1
 73
     1
176
     1
 90
        2
176
     1
 40
0.6
176
     1
 41
30.0
176
     1
 63
     7
421
 16777215
176
     1
 74
     0
176
     1
 91
        4
176
     1
 64
     7
176
     1
 65
   257
176
     1
 75
     1
176
     1
175
     1
176
     1
 42
1.0
176
     1
 92
        8
176
     1
 66
   257
176
     1
 43
1.0
176
     1
 76
     1
176
     1
 77
     6
176
     1
 78
     2
176
     1
 67
     8
425
  7895160
176
     1
 79
     3
176
     1
170
     0
176
     1
171
     0
176
     1
290
     0
176
     1
 93
        5
176
     1
 44
0.0
176
     1
173
     0
176
     1
1001
ACAD
1000
AcDbSavedByObjectVersion
1070
     0
  0
VISUALSTYLE
  5
164
102
{ACAD_XDICTIONARY
360
255
102
}
102
{ACAD_REACTORS
330
2A
102
}
330
2A
100
AcDbVisualStyle
  2
Shaded with edges
 70
    26
177
     2
291
     0
 71
     2
176
     1
 72
     2
176
     1
 73
     1
176
     1
 90
        2
176
     1
 40
0.6
176
     1
 41
30.0
176
     1
 63
     7
421
 16777215
176
     1
 74
     1
176
     1
 91
        2
176
     1
 64
     7
176
     1
 65
   257
176
     1
 75
     2
176
     1
175
     1
176
     1
 42
1.0
176
     1
 92
        8
176
     1
 66
   257
176
     1
 43
1.0
176
     1
 76
     1
176
     1
 77
     6
176
     1
 78
     2
176
     1
 67
     7
176
     1
 79
     3
176
     1
170
     0
176
     1
171
     0
176
     1
290
     0
176
     1
 93
        5
176
     1
 44
0.0
176
     1
173
     0
176
     1
1001
ACAD
1000
AcDbSavedByObjectVersion
1070
     0
  0
VISUALSTYLE
  5
161
102
{ACAD_XDICTIONARY
360
24F
102
}
102
{ACAD_REACTORS
330
2A
102
}
330
2A
100
AcDbVisualStyle
  2
Shades of Gray
 70
    23
177
     2
291
     0
 71
     2
176
     1
 72
     2
176
     1
 73
     3
176
     1
 90
        0
176
     1
 40
0.6
176
     1
 41
30.0
176
     1
 63
     7
421
 16777215
176
     1
 74
     2
176
     1
 91
        2
176
     1
 64
     7
176
     1
 65
     7
176
     1
 75
     1
176
     1
175
     1
176
     1
 42
40.0
176
     1
 92
        8
176
     1
 66
     7
176
     1
 43
1.0
176
     1
 76
     1
176
     1
 77
     6
176
     1
 78
     2
176
     1
 67
     7
176
     1
 79
     3
176
     1
170
     0
176
     1
171
     0
176
     1
290
     0
176
     1
 93
        1
176
     1
 44
0.0
176
     1
173
     0
176
     1
1001
ACAD
1000
AcDbSavedByObjectVersion
1070
     0
  0
VISUALSTYLE
  5
162
102
{ACAD_XDICTIONARY
360
251
102
}
102
{ACAD_REACTORS
330
2A
102
}
330
2A
100
AcDbVisualStyle
  2
Sketchy
 70
    24
177
     2
291
     0
 71
     1
176
     1
 72
     2
176
     1
 73
     2
176
     1
 90
        0
176
     1
 40
0.6
176
     1
 41
30.0
176
     1
 63
     7
421
 16777215
176
     1
 74
     2
176
     1
 91
        2
176
     1
 64
     7
176
     1
 65
     7
176
     1
 75
     1
176
     1
175
     1
176
     1
 42
40.0
176
     1
 92
       11
176
     1
 66
     7
176
     1
 43
1.0
176
     1
 76
     1
176
     1
 77
     6
176
     1
 78
     2
176
     1
 67
     7
176
     1
 79
     6
176
     1
170
     0
176
     1
171
     0
176
     1
290
     0
176
     1
 93
        1
176
     1
 44
0.0
176
     1
173
     0
176
     1
1001
ACAD
1000
AcDbSavedByObjectVersion
1070
     0
  0
VISUALSTYLE
  5
37
102
{ACAD_XDICTIONARY
360
243
102
}
102
{ACAD_REACTORS
330
2A
102
}
330
2A
100
AcDbVisualStyle
  2
Thicken
 70
    13
177
     2
291
     1
 71
     2
176
     1
 72
     2
176
     1
 73
     0
176
     1
 90
        0
176
     1
 40
0.6
176
     1
 41
30.0
176
     1
 63
     7
421
 16777215
176
     1
 74
     1
176
     1
 91
        4
176
     1
 64
     7
176
     1
 65
   257
176
     1
 75
     1
176
     1
175
     1
176
     1
 42
1.0
176
     1
 92
       12
176
     1
 66
     7
176
     1
 43
1.0
176
     1
 76
     1
176
     1
 77
     6
176
     1
 78
     2
176
     1
 67
     7
176
     1
 79
     5
176
     1
170
     0
176
     1
171
     0
176
     1
290
     0
176
     1
 93
        1
176
     1
 44
0.0
176
     1
173
     0
176
     1
1001
ACAD
1000
AcDbSavedByObjectVersion
1070
     0
  0
VISUALSTYLE
  5
15F
102
{ACAD_XDICTIONARY
360
24B
102
}
102
{ACAD_REACTORS
330
2A
102
}
330
2A
100
AcDbVisualStyle
  2
Wireframe
 70
     5
177
     2
291
     0
 71
     0
176
     1
 72
     2
176
     1
 73
     0
176
     1
 90
        0
176
     1
 40
0.6
176
     1
 41
30.0
176
     1
 63
     7
421
 16777215
176
     1
 74
     1
176
     1
 91
        4
176
     1
 64
     7
176
     1
 65
   257
176
     1
 75
     1
176
     1
175
     1
176
     1
 42
1.0
176
     1
 92
        0
176
     1
 66
   257
176
     1
 43
1.0
176
     1
 76
     1
176
     1
 77
     6
176
     1
 78
     2
176
     1
 67
     7
176
     1
 79
     3
176
     1
170
     0
176
     1
171
     0
176
     1
290
     0
176
     1
 93
        1
176
     1
 44
0.0
176
     1
173
     0
176
     1
1001
ACAD
1000
AcDbSavedByObjectVersion
1070
     0
  0
VISUALSTYLE
  5
163
102
{ACAD_XDICTIONARY
360
253
102
}
102
{ACAD_REACTORS
330
2A
102
}
330
2A
100
AcDbVisualStyle
  2
X-Ray
 70
    25
177
     2
291
     0
 71
     2
176
     1
 72
     2
176
     1
 73
     1
176
     1
 90
        1
176
     1
 40
0.5
176
     1
 41
30.0
176
     1
 63
     7
421
 16777215
176
     1
 74
     1
176
     1
 91
        0
176
     1
 64
     7
176
     1
 65
   257
176
     1
 75
     1
176
     1
175
     1
176
     1
 42
1.0
176
     1
 92
        8
176
     1
 66
     7
176
     1
 43
1.0
176
     1
 76
     1
176
     1
 77
     6
176
     1
 78
     2
176
     1
 67
     7
176
     1
 79
     3
176
     1
170
     0
176
     1
171
     0
176
     1
290
     0
176
     1
 93
       13
176
     1
 44
0.0
176
     1
173
     0
176
     1
1001
ACAD
1000
AcDbSavedByObjectVersion
1070
     0
  0
DICTIONARYVAR
  5
15B
102
{ACAD_REACTORS
330
15A
102
}
330
15A
100
DictionaryVariables
280
     0
  1
1:1
  0
DICTIONARYVAR
  5
21D
102
{ACAD_REACTORS
330
15A
102
}
330
15A
100
DictionaryVariables
280
     0
  1
STANDARD
  0
DICTIONARYVAR
  5
21C
102
{ACAD_REACTORS
330
15A
102
}
330
15A
100
DictionaryVariables
280
     0
  1
STANDARD
  0
DICTIONARYVAR
  5
21E
102
{ACAD_REACTORS
330
15A
102
}
330
15A
100
DictionaryVariables
280
     0
  1
Metric50
  0
DICTIONARYVAR
  5
21F
102
{ACAD_REACTORS
330
15A
102
}
330
15A
100
DictionaryVariables
280
     0
  1
Metric50
  0
DICTIONARY
  5
22A
102
{ACAD_REACTORS
330
228
102
}
330
228
100
AcDbDictionary
281
     1
  0
DICTIONARY
  5
229
102
{ACAD_REACTORS
330
228
102
}
330
228
100
AcDbDictionary
281
     1
  3
3158169455664
350
223
  3
3158169455680
350
224
  3
3158169455696
350
225
  3
3158169455712
350
226
  3
3158169455728
350
227
  0
DICTIONARY
  5
263
330
16F
100
AcDbDictionary
280
     1
281
     1
  3
ACAD_XREC_ROUNDTRIP
360
264
  0
DICTIONARY
  5
25F
330
16B
100
AcDbDictionary
280
     1
281
     1
  3
ACAD_XREC_ROUNDTRIP
360
260
  0
DICTIONARY
  5
261
330
16D
100
AcDbDictionary
280
     1
281
     1
  3
ACAD_XREC_ROUNDTRIP
360
262
  0
DICTIONARY
  5
220
330
16A
100
AcDbDictionary
280
     1
281
     1
  3
ACAD_ROUNDTRIP_2008_TABLESTYLE_CELLSTYLEMAP
360
221
  0
DICTIONARY
  5
233
330
2F
100
AcDbDictionary
280
     1
281
     1
  3
ACAD_XREC_ROUNDTRIP
360
234
  0
DICTIONARY
  5
237
330
31
100
AcDbDictionary
280
     1
281
     1
  3
ACAD_XREC_ROUNDTRIP
360
238
  0
DICTIONARY
  5
235
330
30
100
AcDbDictionary
280
     1
281
     1
  3
ACAD_XREC_ROUNDTRIP
360
236
  0
DICTIONARY
  5
239
330
32
100
AcDbDictionary
280
     1
281
     1
  3
ACAD_XREC_ROUNDTRIP
360
23A
  0
DICTIONARY
  5
241
330
36
100
AcDbDictionary
280
     1
281
     1
  3
ACAD_XREC_ROUNDTRIP
360
242
  0
DICTIONARY
  5
249
330
3A
100
AcDbDictionary
280
     1
281
     1
  3
ACAD_XREC_ROUNDTRIP
360
24A
  0
DICTIONARY
  5
23D
330
34
100
AcDbDictionary
280
     1
281
     1
  3
ACAD_XREC_ROUNDTRIP
360
23E
  0
DICTIONARY
  5
23F
330
35
100
AcDbDictionary
280
     1
281
     1
  3
ACAD_XREC_ROUNDTRIP
360
240
  0
DICTIONARY
  5
25D
330
168
100
AcDbDictionary
280
     1
281
     1
  3
ACAD_XREC_ROUNDTRIP
360
25E
  0
DICTIONARY
  5
247
330
39
100
AcDbDictionary
280
     1
281
     1
  3
ACAD_XREC_ROUNDTRIP
360
248
  0
DICTIONARY
  5
22B
330
2B
100
AcDbDictionary
280
     1
281
     1
  3
ACAD_XREC_ROUNDTRIP
360
22C
  0
DICTIONARY
  5
22D
330
2C
100
AcDbDictionary
280
     1
281
     1
  3
ACAD_XREC_ROUNDTRIP
360
22E
  0
DICTIONARY
  5
22F
330
2D
100
AcDbDictionary
280
     1
281
     1
  3
ACAD_XREC_ROUNDTRIP
360
230
  0
DICTIONARY
  5
231
330
2E
100
AcDbDictionary
280
     1
281
     1
  3
ACAD_XREC_ROUNDTRIP
360
232
  0
DICTIONARY
  5
24D
330
160
100
AcDbDictionary
280
     1
281
     1
  3
ACAD_XREC_ROUNDTRIP
360
24E
  0
DICTIONARY
  5
259
330
166
100
AcDbDictionary
280
     1
281
     1
  3
ACAD_XREC_ROUNDTRIP
360
25A
  0
DICTIONARY
  5
245
330
38
100
AcDbDictionary
280
     1
281
     1
  3
ACAD_XREC_ROUNDTRIP
360
246
  0
DICTIONARY
  5
25B
330
167
100
AcDbDictionary
280
     1
281
     1
  3
ACAD_XREC_ROUNDTRIP
360
25C
  0
DICTIONARY
  5
23B
330
33
100
AcDbDictionary
280
     1
281
     1
  3
ACAD_XREC_ROUNDTRIP
360
23C
  0
DICTIONARY
  5
257
330
165
100
AcDbDictionary
280
     1
281
     1
  3
ACAD_XREC_ROUNDTRIP
360
258
  0
DICTIONARY
  5
255
330
164
100
AcDbDictionary
280
     1
281
     1
  3
ACAD_XREC_ROUNDTRIP
360
256
  0
DICTIONARY
  5
24F
330
161
100
AcDbDictionary
280
     1
281
     1
  3
ACAD_XREC_ROUNDTRIP
360
250
  0
DICTIONARY
  5
251
330
162
100
AcDbDictionary
280
     1
281
     1
  3
ACAD_XREC_ROUNDTRIP
360
252
  0
DICTIONARY
  5
243
330
37
100
AcDbDictionary
280
     1
281
     1
  3
ACAD_XREC_ROUNDTRIP
360
244
  0
DICTIONARY
  5
24B
330
15F
100
AcDbDictionary
280
     1
281
     1
  3
ACAD_XREC_ROUNDTRIP
360
24C
  0
DICTIONARY
  5
253
330
163
100
AcDbDictionary
280
     1
281
     1
  3
ACAD_XREC_ROUNDTRIP
360
254
  0
XRECORD
  5
223
102
{ACAD_REACTORS
330
229
102
}
330
229
100
AcDbXrecord
280
     1
  1
AcDb_Thumbnail_Schema
102
{ATTRRECORD
341
224
  2
AcDbDs::TreatedAsObjectData
280
     1
291
     1
102
ATTRRECORD}
102
{ATTRRECORD
341
225
  2
AcDbDs::Legacy
280
     1
291
     1
102
ATTRRECORD}
  2
AcDbDs::ID
280
    10
 91
        8
102
{ATTRRECORD
341
226
  2
AcDs:Indexable
280
     1
291
     1
102
ATTRRECORD}
102
{ATTRRECORD
341
227
  2
AcDbDs::HandleAttribute
280
     7
282
     1
102
ATTRRECORD}
  2
Thumbnail_Data
280
    15
 91
        0
  0
XRECORD
  5
224
102
{ACAD_REACTORS
330
229
102
}
330
229
100
AcDbXrecord
280
     1
  1
AcDbDs::TreatedAsObjectDataSchema
  2
AcDbDs::TreatedAsObjectData
280
     1
 91
        0
  0
XRECORD
  5
225
102
{ACAD_REACTORS
330
229
102
}
330
229
100
AcDbXrecord
280
     1
  1
AcDbDs::LegacySchema
  2
AcDbDs::Legacy
280
     1
 91
        0
  0
XRECORD
  5
226
102
{ACAD_REACTORS
330
229
102
}
330
229
100
AcDbXrecord
280
     1
  1
AcDbDs::IndexedPropertySchema
  2
AcDs:Indexable
280
     1
 91
        0
  0
XRECORD
  5
227
102
{ACAD_REACTORS
330
229
102
}
330
229
100
AcDbXrecord
280
     1
  1
AcDbDs::HandleAttributeSchema
  2
AcDbDs::HandleAttribute
280
     7
 91
        1
284
     1
  0
XRECORD
  5
264
102
{ACAD_REACTORS
330
263
102
}
330
263
100
AcDbXrecord
280
     1
102
DISPLAYNAME
  1
Metric50
102
FLAGS
 90
        0
  0
XRECORD
  5
260
102
{ACAD_REACTORS
330
25F
102
}
330
25F
100
AcDbXrecord
280
     1
102
ACAD_ROUNDTRIP_2012_MLEADER_STYLE
298
     1
  0
XRECORD
  5
262
102
{ACAD_REACTORS
330
261
102
}
330
261
100
AcDbXrecord
280
     1
102
DISPLAYNAME
  1
Metric50
102
FLAGS
 90
        0
  0
CELLSTYLEMAP
  5
221
102
{ACAD_REACTORS
330
220
102
}
330
220
100
AcDbCellStyleMap
 90
        3
300
CELLSTYLE
  1
TABLEFORMAT_BEGIN
 90
        5
170
     1
 91
        0
 92
    32768
 62
   257
 93
        1
300
CONTENTFORMAT
  1
CONTENTFORMAT_BEGIN
 90
        0
 91
        0
 92
      512
 93
        0
300

 40
0.0
140
1.0
 94
        5
 62
     0
340
11
144
6.0
309
CONTENTFORMAT_END
171
     1
301
MARGIN
  1
CELLMARGIN_BEGIN
 40
1.5
 40
1.5
 40
1.5
 40
1.5
 40
4.5
 40
4.5
309
CELLMARGIN_END
 94
        6
 95
        1
302
GRIDFORMAT
  1
GRIDFORMAT_BEGIN
 90
        0
 91
        1
 62
     0
 92
       -2
340
0
 93
        0
 40
1.125
309
GRIDFORMAT_END
 95
        2
302
GRIDFORMAT
  1
GRIDFORMAT_BEGIN
 90
        0
 91
        1
 62
     0
 92
       -2
340
0
 93
        0
 40
1.125
309
GRIDFORMAT_END
 95
        4
302
GRIDFORMAT
  1
GRIDFORMAT_BEGIN
 90
        0
 91
        1
 62
     0
 92
       -2
340
0
 93
        0
 40
1.125
309
GRIDFORMAT_END
 95
        8
302
GRIDFORMAT
  1
GRIDFORMAT_BEGIN
 90
        0
 91
        1
 62
     0
 92
       -2
340
0
 93
        0
 40
1.125
309
GRIDFORMAT_END
 95
       16
302
GRIDFORMAT
  1
GRIDFORMAT_BEGIN
 90
        0
 91
        1
 62
     0
 92
       -2
340
0
 93
        0
 40
1.125
309
GRIDFORMAT_END
 95
       32
302
GRIDFORMAT
  1
GRIDFORMAT_BEGIN
 90
        0
 91
        1
 62
     0
 92
       -2
340
0
 93
        0
 40
1.125
309
GRIDFORMAT_END
309
TABLEFORMAT_END
  1
CELLSTYLE_BEGIN
 90
        1
 91
        1
300
_TITLE
309
CELLSTYLE_END
300
CELLSTYLE
  1
TABLEFORMAT_BEGIN
 90
        5
170
     1
 91
        0
 92
        0
 62
   257
 93
        1
300
CONTENTFORMAT
  1
CONTENTFORMAT_BEGIN
 90
        0
 91
        0
 92
      512
 93
        0
300

 40
0.0
140
1.0
 94
        5
 62
     0
340
11
144
4.5
309
CONTENTFORMAT_END
171
     1
301
MARGIN
  1
CELLMARGIN_BEGIN
 40
1.5
 40
1.5
 40
1.5
 40
1.5
 40
4.5
 40
4.5
309
CELLMARGIN_END
 94
        6
 95
        1
302
GRIDFORMAT
  1
GRIDFORMAT_BEGIN
 90
        0
 91
        1
 62
     0
 92
       -2
340
0
 93
        0
 40
1.125
309
GRIDFORMAT_END
 95
        2
302
GRIDFORMAT
  1
GRIDFORMAT_BEGIN
 90
        0
 91
        1
 62
     0
 92
       -2
340
0
 93
        0
 40
1.125
309
GRIDFORMAT_END
 95
        4
302
GRIDFORMAT
  1
GRIDFORMAT_BEGIN
 90
        0
 91
        1
 62
     0
 92
       -2
340
0
 93
        0
 40
1.125
309
GRIDFORMAT_END
 95
        8
302
GRIDFORMAT
  1
GRIDFORMAT_BEGIN
 90
        0
 91
        1
 62
     0
 92
       -2
340
0
 93
        0
 40
1.125
309
GRIDFORMAT_END
 95
       16
302
GRIDFORMAT
  1
GRIDFORMAT_BEGIN
 90
        0
 91
        1
 62
     0
 92
       -2
340
0
 93
        0
 40
1.125
309
GRIDFORMAT_END
 95
       32
302
GRIDFORMAT
  1
GRIDFORMAT_BEGIN
 90
        0
 91
        1
 62
     0
 92
       -2
340
0
 93
        0
 40
1.125
309
GRIDFORMAT_END
309
TABLEFORMAT_END
  1
CELLSTYLE_BEGIN
 90
        2
 91
        1
300
_HEADER
309
CELLSTYLE_END
300
CELLSTYLE
  1
TABLEFORMAT_BEGIN
 90
        5
170
     1
 91
        0
 92
        0
 62
   257
 93
        1
300
CONTENTFORMAT
  1
CONTENTFORMAT_BEGIN
 90
        0
 91
        0
 92
      512
 93
        0
300

 40
0.0
140
1.0
 94
        2
 62
     0
340
11
144
4.5
309
CONTENTFORMAT_END
171
     1
301
MARGIN
  1
CELLMARGIN_BEGIN
 40
1.5
 40
1.5
 40
1.5
 40
1.5
 40
4.5
 40
4.5
309
CELLMARGIN_END
 94
        6
 95
        1
302
GRIDFORMAT
  1
GRIDFORMAT_BEGIN
 90
        0
 91
        1
 62
     0
 92
       -2
340
0
 93
        0
 40
1.125
309
GRIDFORMAT_END
 95
        2
302
GRIDFORMAT
  1
GRIDFORMAT_BEGIN
 90
        0
 91
        1
 62
     0
 92
       -2
340
0
 93
        0
 40
1.125
309
GRIDFORMAT_END
 95
        4
302
GRIDFORMAT
  1
GRIDFORMAT_BEGIN
 90
        0
 91
        1
 62
     0
 92
       -2
340
0
 93
        0
 40
1.125
309
GRIDFORMAT_END
 95
        8
302
GRIDFORMAT
  1
GRIDFORMAT_BEGIN
 90
        0
 91
        1
 62
     0
 92
       -2
340
0
 93
        0
 40
1.125
309
GRIDFORMAT_END
 95
       16
302
GRIDFORMAT
  1
GRIDFORMAT_BEGIN
 90
        0
 91
        1
 62
     0
 92
       -2
340
0
 93
        0
 40
1.125
309
GRIDFORMAT_END
 95
       32
302
GRIDFORMAT
  1
GRIDFORMAT_BEGIN
 90
        0
 91
        1
 62
     0
 92
       -2
340
0
 93
        0
 40
1.125
309
GRIDFORMAT_END
309
TABLEFORMAT_END
  1
CELLSTYLE_BEGIN
 90
        3
 91
        2
300
_DATA
309
CELLSTYLE_END
  0
XRECORD
  5
234
102
{ACAD_REACTORS
330
233
102
}
330
233
100
AcDbXrecord
280
     1
102
RTVSPost2010Prop28
280
     1
102
RTVSPost2010PropOp28
 70
     1
102
RTVSPost2010Prop29
280
     1
102
RTVSPost2010PropOp29
 70
     1
102
RTVSPost2010Prop30
280
     0
102
RTVSPost2010PropOp30
 70
     1
102
RTVSPost2010Prop31
280
     0
102
RTVSPost2010PropOp31
 70
     1
102
RTVSPost2010Prop32
280
     0
102
RTVSPost2010PropOp32
 70
     1
102
RTVSPost2010Prop33
280
     0
102
RTVSPost2010PropOp33
 70
     1
102
RTVSPost2010Prop34
280
     0
102
RTVSPost2010PropOp34
 70
     1
102
RTVSPost2010Prop35
280
     0
102
RTVSPost2010PropOp35
 70
     1
102
RTVSPost2010Prop36
280
     0
102
RTVSPost2010PropOp36
 70
     1
102
RTVSPost2010Prop37
 90
       50
102
RTVSPost2010PropOp37
 70
     1
102
RTVSPost2010Prop38
140
0.0
102
RTVSPost2010PropOp38
 70
     1
102
RTVSPost2010Prop39
140
1.0
102
RTVSPost2010PropOp39
 70
     1
102
RTVSPost2010Prop40
 90
        0
102
RTVSPost2010PropOp40
 70
     1
102
RTVSPost2010Prop41ColorIndex
 90
       18
102
RTVSPost2010Prop41ColorRGB
 90
        0
102
RTVSPost2010PropOp41
 70
     1
102
RTVSPost2010Prop42
 90
       50
102
RTVSPost2010PropOp42
 70
     1
102
RTVSPost2010Prop43
 90
        3
102
RTVSPost2010PropOp43
 70
     1
102
RTVSPost2010Prop44ColorIndex
 90
        5
102
RTVSPost2010Prop44ColorRGB
 90
      255
102
RTVSPost2010PropOp44
 70
     1
102
RTVSPost2010Prop45
280
     0
102
RTVSPost2010PropOp45
 70
     1
102
RTVSPost2010Prop46
 90
       50
102
RTVSPost2010PropOp46
 70
     1
102
RTVSPost2010Prop47
 90
       50
102
RTVSPost2010PropOp47
 70
     1
102
RTVSPost2010Prop48
 90
       50
102
RTVSPost2010PropOp48
 70
     1
102
RTVSPost2010Prop49
280
     0
102
RTVSPost2010PropOp49
 70
     1
102
RTVSPost2010Prop50
 90
       50
102
RTVSPost2010PropOp50
 70
     1
102
RTVSPost2010Prop51ColorIndex
 90
      256
102
RTVSPost2010Prop51ColorRGB
 90
-16777216
102
RTVSPost2010PropOp51
 70
     0
102
RTVSPost2010Prop52
140
1.0
102
RTVSPost2010PropOp52
 70
     0
102
RTVSPost2010Prop53
 90
        2
102
RTVSPost2010PropOp53
 70
     1
102
RTVSPost2010Prop54
  1
strokes_ogs.tif
102
RTVSPost2010PropOp54
 70
     1
102
RTVSPost2010Prop55
280
     0
102
RTVSPost2010PropOp55
 70
     1
102
RTVSPost2010Prop56
140
1.0
102
RTVSPost2010PropOp56
 70
     1
102
RTVSPost2010Prop57
140
1.0
102
RTVSPost2010PropOp57
 70
     1
  0
XRECORD
  5
238
102
{ACAD_REACTORS
330
237
102
}
330
237
100
AcDbXrecord
280
     1
102
RTVSPost2010Prop28
280
     0
102
RTVSPost2010PropOp28
 70
     1
102
RTVSPost2010Prop29
280
     1
102
RTVSPost2010PropOp29
 70
     1
102
RTVSPost2010Prop30
280
     1
102
RTVSPost2010PropOp30
 70
     1
102
RTVSPost2010Prop31
280
     0
102
RTVSPost2010PropOp31
 70
     1
102
RTVSPost2010Prop32
280
     0
102
RTVSPost2010PropOp32
 70
     1
102
RTVSPost2010Prop33
280
     0
102
RTVSPost2010PropOp33
 70
     1
102
RTVSPost2010Prop34
280
     0
102
RTVSPost2010PropOp34
 70
     1
102
RTVSPost2010Prop35
280
     0
102
RTVSPost2010PropOp35
 70
     1
102
RTVSPost2010Prop36
280
     0
102
RTVSPost2010PropOp36
 70
     1
102
RTVSPost2010Prop37
 90
       50
102
RTVSPost2010PropOp37
 70
     1
102
RTVSPost2010Prop38
140
0.0
102
RTVSPost2010PropOp38
 70
     1
102
RTVSPost2010Prop39
140
1.0
102
RTVSPost2010PropOp39
 70
     1
102
RTVSPost2010Prop40
 90
        0
102
RTVSPost2010PropOp40
 70
     1
102
RTVSPost2010Prop41ColorIndex
 90
       18
102
RTVSPost2010Prop41ColorRGB
 90
        0
102
RTVSPost2010PropOp41
 70
     1
102
RTVSPost2010Prop42
 90
       50
102
RTVSPost2010PropOp42
 70
     1
102
RTVSPost2010Prop43
 90
        3
102
RTVSPost2010PropOp43
 70
     1
102
RTVSPost2010Prop44ColorIndex
 90
        5
102
RTVSPost2010Prop44ColorRGB
 90
      255
102
RTVSPost2010PropOp44
 70
     1
102
RTVSPost2010Prop45
280
     0
102
RTVSPost2010PropOp45
 70
     1
102
RTVSPost2010Prop46
 90
       50
102
RTVSPost2010PropOp46
 70
     1
102
RTVSPost2010Prop47
 90
       50
102
RTVSPost2010PropOp47
 70
     1
102
RTVSPost2010Prop48
 90
       50
102
RTVSPost2010PropOp48
 70
     1
102
RTVSPost2010Prop49
280
     0
102
RTVSPost2010PropOp49
 70
     1
102
RTVSPost2010Prop50
 90
       50
102
RTVSPost2010PropOp50
 70
     1
102
RTVSPost2010Prop51ColorIndex
 90
      256
102
RTVSPost2010Prop51ColorRGB
 90
-16777216
102
RTVSPost2010PropOp51
 70
     0
102
RTVSPost2010Prop52
140
1.0
102
RTVSPost2010PropOp52
 70
     0
102
RTVSPost2010Prop53
 90
        2
102
RTVSPost2010PropOp53
 70
     1
102
RTVSPost2010Prop54
  1
strokes_ogs.tif
102
RTVSPost2010PropOp54
 70
     1
102
RTVSPost2010Prop55
280
     0
102
RTVSPost2010PropOp55
 70
     1
102
RTVSPost2010Prop56
140
1.0
102
RTVSPost2010PropOp56
 70
     1
102
RTVSPost2010Prop57
140
1.0
102
RTVSPost2010PropOp57
 70
     1
  0
XRECORD
  5
236
102
{ACAD_REACTORS
330
235
102
}
330
235
100
AcDbXrecord
280
     1
102
RTVSPost2010Prop28
280
     0
102
RTVSPost2010PropOp28
 70
     1
102
RTVSPost2010Prop29
280
     1
102
RTVSPost2010PropOp29
 70
     1
102
RTVSPost2010Prop30
280
     1
102
RTVSPost2010PropOp30
 70
     1
102
RTVSPost2010Prop31
280
     0
102
RTVSPost2010PropOp31
 70
     1
102
RTVSPost2010Prop32
280
     0
102
RTVSPost2010PropOp32
 70
     1
102
RTVSPost2010Prop33
280
     0
102
RTVSPost2010PropOp33
 70
     1
102
RTVSPost2010Prop34
280
     0
102
RTVSPost2010PropOp34
 70
     1
102
RTVSPost2010Prop35
280
     0
102
RTVSPost2010PropOp35
 70
     1
102
RTVSPost2010Prop36
280
     0
102
RTVSPost2010PropOp36
 70
     1
102
RTVSPost2010Prop37
 90
       50
102
RTVSPost2010PropOp37
 70
     1
102
RTVSPost2010Prop38
140
0.0
102
RTVSPost2010PropOp38
 70
     1
102
RTVSPost2010Prop39
140
1.0
102
RTVSPost2010PropOp39
 70
     1
102
RTVSPost2010Prop40
 90
        0
102
RTVSPost2010PropOp40
 70
     1
102
RTVSPost2010Prop41ColorIndex
 90
       18
102
RTVSPost2010Prop41ColorRGB
 90
        0
102
RTVSPost2010PropOp41
 70
     1
102
RTVSPost2010Prop42
 90
       50
102
RTVSPost2010PropOp42
 70
     1
102
RTVSPost2010Prop43
 90
        3
102
RTVSPost2010PropOp43
 70
     1
102
RTVSPost2010Prop44ColorIndex
 90
        5
102
RTVSPost2010Prop44ColorRGB
 90
      255
102
RTVSPost2010PropOp44
 70
     1
102
RTVSPost2010Prop45
280
     0
102
RTVSPost2010PropOp45
 70
     1
102
RTVSPost2010Prop46
 90
       50
102
RTVSPost2010PropOp46
 70
     1
102
RTVSPost2010Prop47
 90
       50
102
RTVSPost2010PropOp47
 70
     1
102
RTVSPost2010Prop48
 90
       50
102
RTVSPost2010PropOp48
 70
     1
102
RTVSPost2010Prop49
280
     0
102
RTVSPost2010PropOp49
 70
     1
102
RTVSPost2010Prop50
 90
       50
102
RTVSPost2010PropOp50
 70
     1
102
RTVSPost2010Prop51ColorIndex
 90
      256
102
RTVSPost2010Prop51ColorRGB
 90
-16777216
102
RTVSPost2010PropOp51
 70
     0
102
RTVSPost2010Prop52
140
1.0
102
RTVSPost2010PropOp52
 70
     0
102
RTVSPost2010Prop53
 90
        2
102
RTVSPost2010PropOp53
 70
     1
102
RTVSPost2010Prop54
  1
strokes_ogs.tif
102
RTVSPost2010PropOp54
 70
     1
102
RTVSPost2010Prop55
280
     0
102
RTVSPost2010PropOp55
 70
     1
102
RTVSPost2010Prop56
140
1.0
102
RTVSPost2010PropOp56
 70
     1
102
RTVSPost2010Prop57
140
1.0
102
RTVSPost2010PropOp57
 70
     1
  0
XRECORD
  5
23A
102
{ACAD_REACTORS
330
239
102
}
330
239
100
AcDbXrecord
280
     1
102
RTVSPost2010Prop28
280
     0
102
RTVSPost2010PropOp28
 70
     1
102
RTVSPost2010Prop29
280
     1
102
RTVSPost2010PropOp29
 70
     1
102
RTVSPost2010Prop30
280
     1
102
RTVSPost2010PropOp30
 70
     1
102
RTVSPost2010Prop31
280
     0
102
RTVSPost2010PropOp31
 70
     1
102
RTVSPost2010Prop32
280
     0
102
RTVSPost2010PropOp32
 70
     1
102
RTVSPost2010Prop33
280
     0
102
RTVSPost2010PropOp33
 70
     1
102
RTVSPost2010Prop34
280
     0
102
RTVSPost2010PropOp34
 70
     1
102
RTVSPost2010Prop35
280
     0
102
RTVSPost2010PropOp35
 70
     1
102
RTVSPost2010Prop36
280
     0
102
RTVSPost2010PropOp36
 70
     1
102
RTVSPost2010Prop37
 90
       50
102
RTVSPost2010PropOp37
 70
     1
102
RTVSPost2010Prop38
140
0.0
102
RTVSPost2010PropOp38
 70
     1
102
RTVSPost2010Prop39
140
1.0
102
RTVSPost2010PropOp39
 70
     1
102
RTVSPost2010Prop40
 90
        0
102
RTVSPost2010PropOp40
 70
     1
102
RTVSPost2010Prop41ColorIndex
 90
       18
102
RTVSPost2010Prop41ColorRGB
 90
        0
102
RTVSPost2010PropOp41
 70
     1
102
RTVSPost2010Prop42
 90
       50
102
RTVSPost2010PropOp42
 70
     1
102
RTVSPost2010Prop43
 90
        3
102
RTVSPost2010PropOp43
 70
     1
102
RTVSPost2010Prop44ColorIndex
 90
        5
102
RTVSPost2010Prop44ColorRGB
 90
      255
102
RTVSPost2010PropOp44
 70
     1
102
RTVSPost2010Prop45
280
     0
102
RTVSPost2010PropOp45
 70
     1
102
RTVSPost2010Prop46
 90
       50
102
RTVSPost2010PropOp46
 70
     1
102
RTVSPost2010Prop47
 90
       50
102
RTVSPost2010PropOp47
 70
     1
102
RTVSPost2010Prop48
 90
       50
102
RTVSPost2010PropOp48
 70
     1
102
RTVSPost2010Prop49
280
     0
102
RTVSPost2010PropOp49
 70
     1
102
RTVSPost2010Prop50
 90
       50
102
RTVSPost2010PropOp50
 70
     1
102
RTVSPost2010Prop51ColorIndex
 90
      256
102
RTVSPost2010Prop51ColorRGB
 90
-16777216
102
RTVSPost2010PropOp51
 70
     0
102
RTVSPost2010Prop52
140
1.0
102
RTVSPost2010PropOp52
 70
     0
102
RTVSPost2010Prop53
 90
        2
102
RTVSPost2010PropOp53
 70
     1
102
RTVSPost2010Prop54
  1
strokes_ogs.tif
102
RTVSPost2010PropOp54
 70
     1
102
RTVSPost2010Prop55
280
     0
102
RTVSPost2010PropOp55
 70
     1
102
RTVSPost2010Prop56
140
1.0
102
RTVSPost2010PropOp56
 70
     1
102
RTVSPost2010Prop57
140
1.0
102
RTVSPost2010PropOp57
 70
     1
  0
XRECORD
  5
242
102
{ACAD_REACTORS
330
241
102
}
330
241
100
AcDbXrecord
280
     1
102
RTVSPost2010Prop28
280
     0
102
RTVSPost2010PropOp28
 70
     1
102
RTVSPost2010Prop29
280
     1
102
RTVSPost2010PropOp29
 70
     1
102
RTVSPost2010Prop30
280
     1
102
RTVSPost2010PropOp30
 70
     1
102
RTVSPost2010Prop31
280
     0
102
RTVSPost2010PropOp31
 70
     1
102
RTVSPost2010Prop32
280
     0
102
RTVSPost2010PropOp32
 70
     1
102
RTVSPost2010Prop33
280
     0
102
RTVSPost2010PropOp33
 70
     1
102
RTVSPost2010Prop34
280
     0
102
RTVSPost2010PropOp34
 70
     1
102
RTVSPost2010Prop35
280
     0
102
RTVSPost2010PropOp35
 70
     1
102
RTVSPost2010Prop36
280
     0
102
RTVSPost2010PropOp36
 70
     1
102
RTVSPost2010Prop37
 90
       50
102
RTVSPost2010PropOp37
 70
     1
102
RTVSPost2010Prop38
140
0.0
102
RTVSPost2010PropOp38
 70
     1
102
RTVSPost2010Prop39
140
1.0
102
RTVSPost2010PropOp39
 70
     1
102
RTVSPost2010Prop40
 90
        0
102
RTVSPost2010PropOp40
 70
     1
102
RTVSPost2010Prop41ColorIndex
 90
       18
102
RTVSPost2010Prop41ColorRGB
 90
        0
102
RTVSPost2010PropOp41
 70
     1
102
RTVSPost2010Prop42
 90
       50
102
RTVSPost2010PropOp42
 70
     1
102
RTVSPost2010Prop43
 90
        3
102
RTVSPost2010PropOp43
 70
     1
102
RTVSPost2010Prop44ColorIndex
 90
        5
102
RTVSPost2010Prop44ColorRGB
 90
      255
102
RTVSPost2010PropOp44
 70
     1
102
RTVSPost2010Prop45
280
     0
102
RTVSPost2010PropOp45
 70
     1
102
RTVSPost2010Prop46
 90
       50
102
RTVSPost2010PropOp46
 70
     1
102
RTVSPost2010Prop47
 90
       50
102
RTVSPost2010PropOp47
 70
     1
102
RTVSPost2010Prop48
 90
       50
102
RTVSPost2010PropOp48
 70
     1
102
RTVSPost2010Prop49
280
     0
102
RTVSPost2010PropOp49
 70
     1
102
RTVSPost2010Prop50
 90
       50
102
RTVSPost2010PropOp50
 70
     1
102
RTVSPost2010Prop51ColorIndex
 90
      256
102
RTVSPost2010Prop51ColorRGB
 90
-16777216
102
RTVSPost2010PropOp51
 70
     0
102
RTVSPost2010Prop52
140
1.0
102
RTVSPost2010PropOp52
 70
     0
102
RTVSPost2010Prop53
 90
        2
102
RTVSPost2010PropOp53
 70
     1
102
RTVSPost2010Prop54
  1
strokes_ogs.tif
102
RTVSPost2010PropOp54
 70
     1
102
RTVSPost2010Prop55
280
     0
102
RTVSPost2010PropOp55
 70
     1
102
RTVSPost2010Prop56
140
1.0
102
RTVSPost2010PropOp56
 70
     1
102
RTVSPost2010Prop57
140
1.0
102
RTVSPost2010PropOp57
 70
     1
  0
XRECORD
  5
24A
102
{ACAD_REACTORS
330
249
102
}
330
249
100
AcDbXrecord
280
     1
102
RTVSPost2010Prop28
280
     0
102
RTVSPost2010PropOp28
 70
     1
102
RTVSPost2010Prop29
280
     1
102
RTVSPost2010PropOp29
 70
     1
102
RTVSPost2010Prop30
280
     1
102
RTVSPost2010PropOp30
 70
     1
102
RTVSPost2010Prop31
280
     0
102
RTVSPost2010PropOp31
 70
     1
102
RTVSPost2010Prop32
280
     0
102
RTVSPost2010PropOp32
 70
     1
102
RTVSPost2010Prop33
280
     0
102
RTVSPost2010PropOp33
 70
     1
102
RTVSPost2010Prop34
280
     0
102
RTVSPost2010PropOp34
 70
     1
102
RTVSPost2010Prop35
280
     0
102
RTVSPost2010PropOp35
 70
     1
102
RTVSPost2010Prop36
280
     0
102
RTVSPost2010PropOp36
 70
     1
102
RTVSPost2010Prop37
 90
       50
102
RTVSPost2010PropOp37
 70
     1
102
RTVSPost2010Prop38
140
0.0
102
RTVSPost2010PropOp38
 70
     1
102
RTVSPost2010Prop39
140
1.0
102
RTVSPost2010PropOp39
 70
     1
102
RTVSPost2010Prop40
 90
        0
102
RTVSPost2010PropOp40
 70
     1
102
RTVSPost2010Prop41ColorIndex
 90
       18
102
RTVSPost2010Prop41ColorRGB
 90
        0
102
RTVSPost2010PropOp41
 70
     1
102
RTVSPost2010Prop42
 90
       50
102
RTVSPost2010PropOp42
 70
     1
102
RTVSPost2010Prop43
 90
        3
102
RTVSPost2010PropOp43
 70
     1
102
RTVSPost2010Prop44ColorIndex
 90
        5
102
RTVSPost2010Prop44ColorRGB
 90
      255
102
RTVSPost2010PropOp44
 70
     1
102
RTVSPost2010Prop45
280
     0
102
RTVSPost2010PropOp45
 70
     1
102
RTVSPost2010Prop46
 90
       50
102
RTVSPost2010PropOp46
 70
     1
102
RTVSPost2010Prop47
 90
       50
102
RTVSPost2010PropOp47
 70
     1
102
RTVSPost2010Prop48
 90
       50
102
RTVSPost2010PropOp48
 70
     1
102
RTVSPost2010Prop49
280
     0
102
RTVSPost2010PropOp49
 70
     1
102
RTVSPost2010Prop50
 90
       50
102
RTVSPost2010PropOp50
 70
     1
102
RTVSPost2010Prop51ColorIndex
 90
      256
102
RTVSPost2010Prop51ColorRGB
 90
-16777216
102
RTVSPost2010PropOp51
 70
     0
102
RTVSPost2010Prop52
140
1.0
102
RTVSPost2010PropOp52
 70
     0
102
RTVSPost2010Prop53
 90
        2
102
RTVSPost2010PropOp53
 70
     1
102
RTVSPost2010Prop54
  1
strokes_ogs.tif
102
RTVSPost2010PropOp54
 70
     1
102
RTVSPost2010Prop55
280
     0
102
RTVSPost2010PropOp55
 70
     1
102
RTVSPost2010Prop56
140
1.0
102
RTVSPost2010PropOp56
 70
     1
102
RTVSPost2010Prop57
140
1.0
102
RTVSPost2010PropOp57
 70
     1
  0
XRECORD
  5
23E
102
{ACAD_REACTORS
330
23D
102
}
330
23D
100
AcDbXrecord
280
     1
102
RTVSPost2010Prop28
280
     0
102
RTVSPost2010PropOp28
 70
     1
102
RTVSPost2010Prop29
280
     1
102
RTVSPost2010PropOp29
 70
     1
102
RTVSPost2010Prop30
280
     1
102
RTVSPost2010PropOp30
 70
     1
102
RTVSPost2010Prop31
280
     0
102
RTVSPost2010PropOp31
 70
     1
102
RTVSPost2010Prop32
280
     0
102
RTVSPost2010PropOp32
 70
     1
102
RTVSPost2010Prop33
280
     0
102
RTVSPost2010PropOp33
 70
     1
102
RTVSPost2010Prop34
280
     0
102
RTVSPost2010PropOp34
 70
     1
102
RTVSPost2010Prop35
280
     0
102
RTVSPost2010PropOp35
 70
     1
102
RTVSPost2010Prop36
280
     0
102
RTVSPost2010PropOp36
 70
     1
102
RTVSPost2010Prop37
 90
       50
102
RTVSPost2010PropOp37
 70
     1
102
RTVSPost2010Prop38
140
0.0
102
RTVSPost2010PropOp38
 70
     1
102
RTVSPost2010Prop39
140
1.0
102
RTVSPost2010PropOp39
 70
     1
102
RTVSPost2010Prop40
 90
        0
102
RTVSPost2010PropOp40
 70
     1
102
RTVSPost2010Prop41ColorIndex
 90
       18
102
RTVSPost2010Prop41ColorRGB
 90
        0
102
RTVSPost2010PropOp41
 70
     1
102
RTVSPost2010Prop42
 90
       50
102
RTVSPost2010PropOp42
 70
     1
102
RTVSPost2010Prop43
 90
        3
102
RTVSPost2010PropOp43
 70
     1
102
RTVSPost2010Prop44ColorIndex
 90
        5
102
RTVSPost2010Prop44ColorRGB
 90
      255
102
RTVSPost2010PropOp44
 70
     1
102
RTVSPost2010Prop45
280
     0
102
RTVSPost2010PropOp45
 70
     1
102
RTVSPost2010Prop46
 90
       50
102
RTVSPost2010PropOp46
 70
     1
102
RTVSPost2010Prop47
 90
       50
102
RTVSPost2010PropOp47
 70
     1
102
RTVSPost2010Prop48
 90
       50
102
RTVSPost2010PropOp48
 70
     1
102
RTVSPost2010Prop49
280
     0
102
RTVSPost2010PropOp49
 70
     1
102
RTVSPost2010Prop50
 90
       50
102
RTVSPost2010PropOp50
 70
     1
102
RTVSPost2010Prop51ColorIndex
 90
      256
102
RTVSPost2010Prop51ColorRGB
 90
-16777216
102
RTVSPost2010PropOp51
 70
     0
102
RTVSPost2010Prop52
140
1.0
102
RTVSPost2010PropOp52
 70
     0
102
RTVSPost2010Prop53
 90
        2
102
RTVSPost2010PropOp53
 70
     1
102
RTVSPost2010Prop54
  1
strokes_ogs.tif
102
RTVSPost2010PropOp54
 70
     1
102
RTVSPost2010Prop55
280
     0
102
RTVSPost2010PropOp55
 70
     1
102
RTVSPost2010Prop56
140
1.0
102
RTVSPost2010PropOp56
 70
     1
102
RTVSPost2010Prop57
140
1.0
102
RTVSPost2010PropOp57
 70
     1
  0
XRECORD
  5
240
102
{ACAD_REACTORS
330
23F
102
}
330
23F
100
AcDbXrecord
280
     1
102
RTVSPost2010Prop28
280
     0
102
RTVSPost2010PropOp28
 70
     1
102
RTVSPost2010Prop29
280
     1
102
RTVSPost2010PropOp29
 70
     1
102
RTVSPost2010Prop30
280
     1
102
RTVSPost2010PropOp30
 70
     1
102
RTVSPost2010Prop31
280
     0
102
RTVSPost2010PropOp31
 70
     1
102
RTVSPost2010Prop32
280
     0
102
RTVSPost2010PropOp32
 70
     1
102
RTVSPost2010Prop33
280
     0
102
RTVSPost2010PropOp33
 70
     1
102
RTVSPost2010Prop34
280
     0
102
RTVSPost2010PropOp34
 70
     1
102
RTVSPost2010Prop35
280
     0
102
RTVSPost2010PropOp35
 70
     1
102
RTVSPost2010Prop36
280
     0
102
RTVSPost2010PropOp36
 70
     1
102
RTVSPost2010Prop37
 90
       50
102
RTVSPost2010PropOp37
 70
     1
102
RTVSPost2010Prop38
140
0.0
102
RTVSPost2010PropOp38
 70
     1
102
RTVSPost2010Prop39
140
1.0
102
RTVSPost2010PropOp39
 70
     1
102
RTVSPost2010Prop40
 90
        0
102
RTVSPost2010PropOp40
 70
     1
102
RTVSPost2010Prop41ColorIndex
 90
       18
102
RTVSPost2010Prop41ColorRGB
 90
        0
102
RTVSPost2010PropOp41
 70
     1
102
RTVSPost2010Prop42
 90
       50
102
RTVSPost2010PropOp42
 70
     1
102
RTVSPost2010Prop43
 90
        3
102
RTVSPost2010PropOp43
 70
     1
102
RTVSPost2010Prop44ColorIndex
 90
        5
102
RTVSPost2010Prop44ColorRGB
 90
      255
102
RTVSPost2010PropOp44
 70
     1
102
RTVSPost2010Prop45
280
     0
102
RTVSPost2010PropOp45
 70
     1
102
RTVSPost2010Prop46
 90
       50
102
RTVSPost2010PropOp46
 70
     1
102
RTVSPost2010Prop47
 90
       50
102
RTVSPost2010PropOp47
 70
     1
102
RTVSPost2010Prop48
 90
       50
102
RTVSPost2010PropOp48
 70
     1
102
RTVSPost2010Prop49
280
     0
102
RTVSPost2010PropOp49
 70
     1
102
RTVSPost2010Prop50
 90
       50
102
RTVSPost2010PropOp50
 70
     1
102
RTVSPost2010Prop51ColorIndex
 90
      256
102
RTVSPost2010Prop51ColorRGB
 90
-16777216
102
RTVSPost2010PropOp51
 70
     0
102
RTVSPost2010Prop52
140
1.0
102
RTVSPost2010PropOp52
 70
     0
102
RTVSPost2010Prop53
 90
        2
102
RTVSPost2010PropOp53
 70
     1
102
RTVSPost2010Prop54
  1
strokes_ogs.tif
102
RTVSPost2010PropOp54
 70
     1
102
RTVSPost2010Prop55
280
     0
102
RTVSPost2010PropOp55
 70
     1
102
RTVSPost2010Prop56
140
1.0
102
RTVSPost2010PropOp56
 70
     1
102
RTVSPost2010Prop57
140
1.0
102
RTVSPost2010PropOp57
 70
     1
  0
XRECORD
  5
25E
102
{ACAD_REACTORS
330
25D
102
}
330
25D
100
AcDbXrecord
280
     1
102
RTVSPost2010Prop28
280
     0
102
RTVSPost2010PropOp28
 70
     0
102
RTVSPost2010Prop29
280
     1
102
RTVSPost2010PropOp29
 70
     0
102
RTVSPost2010Prop30
280
     1
102
RTVSPost2010PropOp30
 70
     0
102
RTVSPost2010Prop31
280
     0
102
RTVSPost2010PropOp31
 70
     0
102
RTVSPost2010Prop32
280
     0
102
RTVSPost2010PropOp32
 70
     0
102
RTVSPost2010Prop33
280
     0
102
RTVSPost2010PropOp33
 70
     0
102
RTVSPost2010Prop34
280
     0
102
RTVSPost2010PropOp34
 70
     0
102
RTVSPost2010Prop35
280
     0
102
RTVSPost2010PropOp35
 70
     0
102
RTVSPost2010Prop36
280
     0
102
RTVSPost2010PropOp36
 70
     0
102
RTVSPost2010Prop37
 90
       50
102
RTVSPost2010PropOp37
 70
     0
102
RTVSPost2010Prop38
140
0.0
102
RTVSPost2010PropOp38
 70
     0
102
RTVSPost2010Prop39
140
1.0
102
RTVSPost2010PropOp39
 70
     0
102
RTVSPost2010Prop40
 90
        0
102
RTVSPost2010PropOp40
 70
     0
102
RTVSPost2010Prop41ColorIndex
 90
       18
102
RTVSPost2010Prop41ColorRGB
 90
        0
102
RTVSPost2010PropOp41
 70
     0
102
RTVSPost2010Prop42
 90
       50
102
RTVSPost2010PropOp42
 70
     0
102
RTVSPost2010Prop43
 90
        3
102
RTVSPost2010PropOp43
 70
     0
102
RTVSPost2010Prop44ColorIndex
 90
        5
102
RTVSPost2010Prop44ColorRGB
 90
      255
102
RTVSPost2010PropOp44
 70
     0
102
RTVSPost2010Prop45
280
     0
102
RTVSPost2010PropOp45
 70
     0
102
RTVSPost2010Prop46
 90
       50
102
RTVSPost2010PropOp46
 70
     0
102
RTVSPost2010Prop47
 90
       50
102
RTVSPost2010PropOp47
 70
     0
102
RTVSPost2010Prop48
 90
       50
102
RTVSPost2010PropOp48
 70
     0
102
RTVSPost2010Prop49
280
     0
102
RTVSPost2010PropOp49
 70
     0
102
RTVSPost2010Prop50
 90
       50
102
RTVSPost2010PropOp50
 70
     0
102
RTVSPost2010Prop51ColorIndex
 90
      256
102
RTVSPost2010Prop51ColorRGB
 90
-16777216
102
RTVSPost2010PropOp51
 70
     0
102
RTVSPost2010Prop52
140
1.0
102
RTVSPost2010PropOp52
 70
     0
102
RTVSPost2010Prop53
 90
        2
102
RTVSPost2010PropOp53
 70
     0
102
RTVSPost2010Prop54
  1
strokes_ogs.tif
102
RTVSPost2010PropOp54
 70
     0
102
RTVSPost2010Prop55
280
     0
102
RTVSPost2010PropOp55
 70
     0
102
RTVSPost2010Prop56
140
1.0
102
RTVSPost2010PropOp56
 70
     0
102
RTVSPost2010Prop57
140
1.0
102
RTVSPost2010PropOp57
 70
     0
  0
XRECORD
  5
248
102
{ACAD_REACTORS
330
247
102
}
330
247
100
AcDbXrecord
280
     1
102
RTVSPost2010Prop28
280
     0
102
RTVSPost2010PropOp28
 70
     1
102
RTVSPost2010Prop29
280
     1
102
RTVSPost2010PropOp29
 70
     1
102
RTVSPost2010Prop30
280
     1
102
RTVSPost2010PropOp30
 70
     1
102
RTVSPost2010Prop31
280
     0
102
RTVSPost2010PropOp31
 70
     1
102
RTVSPost2010Prop32
280
     0
102
RTVSPost2010PropOp32
 70
     1
102
RTVSPost2010Prop33
280
     0
102
RTVSPost2010PropOp33
 70
     1
102
RTVSPost2010Prop34
280
     0
102
RTVSPost2010PropOp34
 70
     1
102
RTVSPost2010Prop35
280
     0
102
RTVSPost2010PropOp35
 70
     1
102
RTVSPost2010Prop36
280
     0
102
RTVSPost2010PropOp36
 70
     1
102
RTVSPost2010Prop37
 90
       50
102
RTVSPost2010PropOp37
 70
     1
102
RTVSPost2010Prop38
140
0.0
102
RTVSPost2010PropOp38
 70
     1
102
RTVSPost2010Prop39
140
1.0
102
RTVSPost2010PropOp39
 70
     1
102
RTVSPost2010Prop40
 90
        0
102
RTVSPost2010PropOp40
 70
     1
102
RTVSPost2010Prop41ColorIndex
 90
       18
102
RTVSPost2010Prop41ColorRGB
 90
        0
102
RTVSPost2010PropOp41
 70
     1
102
RTVSPost2010Prop42
 90
       50
102
RTVSPost2010PropOp42
 70
     1
102
RTVSPost2010Prop43
 90
        3
102
RTVSPost2010PropOp43
 70
     1
102
RTVSPost2010Prop44ColorIndex
 90
        5
102
RTVSPost2010Prop44ColorRGB
 90
      255
102
RTVSPost2010PropOp44
 70
     1
102
RTVSPost2010Prop45
280
     0
102
RTVSPost2010PropOp45
 70
     1
102
RTVSPost2010Prop46
 90
       50
102
RTVSPost2010PropOp46
 70
     1
102
RTVSPost2010Prop47
 90
       50
102
RTVSPost2010PropOp47
 70
     1
102
RTVSPost2010Prop48
 90
       50
102
RTVSPost2010PropOp48
 70
     1
102
RTVSPost2010Prop49
280
     0
102
RTVSPost2010PropOp49
 70
     1
102
RTVSPost2010Prop50
 90
       50
102
RTVSPost2010PropOp50
 70
     1
102
RTVSPost2010Prop51ColorIndex
 90
      256
102
RTVSPost2010Prop51ColorRGB
 90
-16777216
102
RTVSPost2010PropOp51
 70
     0
102
RTVSPost2010Prop52
140
1.0
102
RTVSPost2010PropOp52
 70
     0
102
RTVSPost2010Prop53
 90
        2
102
RTVSPost2010PropOp53
 70
     1
102
RTVSPost2010Prop54
  1
strokes_ogs.tif
102
RTVSPost2010PropOp54
 70
     1
102
RTVSPost2010Prop55
280
     0
102
RTVSPost2010PropOp55
 70
     1
102
RTVSPost2010Prop56
140
1.0
102
RTVSPost2010PropOp56
 70
     1
102
RTVSPost2010Prop57
140
1.0
102
RTVSPost2010PropOp57
 70
     1
  0
XRECORD
  5
22C
102
{ACAD_REACTORS
330
22B
102
}
330
22B
100
AcDbXrecord
280
     1
102
RTVSPost2010Prop28
280
     0
102
RTVSPost2010PropOp28
 70
     1
102
RTVSPost2010Prop29
280
     1
102
RTVSPost2010PropOp29
 70
     1
102
RTVSPost2010Prop30
280
     1
102
RTVSPost2010PropOp30
 70
     1
102
RTVSPost2010Prop31
280
     0
102
RTVSPost2010PropOp31
 70
     1
102
RTVSPost2010Prop32
280
     0
102
RTVSPost2010PropOp32
 70
     1
102
RTVSPost2010Prop33
280
     0
102
RTVSPost2010PropOp33
 70
     1
102
RTVSPost2010Prop34
280
     0
102
RTVSPost2010PropOp34
 70
     1
102
RTVSPost2010Prop35
280
     0
102
RTVSPost2010PropOp35
 70
     1
102
RTVSPost2010Prop36
280
     0
102
RTVSPost2010PropOp36
 70
     1
102
RTVSPost2010Prop37
 90
       50
102
RTVSPost2010PropOp37
 70
     1
102
RTVSPost2010Prop38
140
0.0
102
RTVSPost2010PropOp38
 70
     1
102
RTVSPost2010Prop39
140
1.0
102
RTVSPost2010PropOp39
 70
     1
102
RTVSPost2010Prop40
 90
        0
102
RTVSPost2010PropOp40
 70
     1
102
RTVSPost2010Prop41ColorIndex
 90
       18
102
RTVSPost2010Prop41ColorRGB
 90
        0
102
RTVSPost2010PropOp41
 70
     1
102
RTVSPost2010Prop42
 90
       50
102
RTVSPost2010PropOp42
 70
     1
102
RTVSPost2010Prop43
 90
        3
102
RTVSPost2010PropOp43
 70
     1
102
RTVSPost2010Prop44ColorIndex
 90
        5
102
RTVSPost2010Prop44ColorRGB
 90
      255
102
RTVSPost2010PropOp44
 70
     1
102
RTVSPost2010Prop45
280
     0
102
RTVSPost2010PropOp45
 70
     1
102
RTVSPost2010Prop46
 90
       50
102
RTVSPost2010PropOp46
 70
     1
102
RTVSPost2010Prop47
 90
       50
102
RTVSPost2010PropOp47
 70
     1
102
RTVSPost2010Prop48
 90
       50
102
RTVSPost2010PropOp48
 70
     1
102
RTVSPost2010Prop49
280
     0
102
RTVSPost2010PropOp49
 70
     1
102
RTVSPost2010Prop50
 90
       50
102
RTVSPost2010PropOp50
 70
     1
102
RTVSPost2010Prop51ColorIndex
 90
      256
102
RTVSPost2010Prop51ColorRGB
 90
-16777216
102
RTVSPost2010PropOp51
 70
     0
102
RTVSPost2010Prop52
140
1.0
102
RTVSPost2010PropOp52
 70
     0
102
RTVSPost2010Prop53
 90
        2
102
RTVSPost2010PropOp53
 70
     1
102
RTVSPost2010Prop54
  1
strokes_ogs.tif
102
RTVSPost2010PropOp54
 70
     1
102
RTVSPost2010Prop55
280
     0
102
RTVSPost2010PropOp55
 70
     1
102
RTVSPost2010Prop56
140
1.0
102
RTVSPost2010PropOp56
 70
     1
102
RTVSPost2010Prop57
140
1.0
102
RTVSPost2010PropOp57
 70
     1
  0
XRECORD
  5
22E
102
{ACAD_REACTORS
330
22D
102
}
330
22D
100
AcDbXrecord
280
     1
102
RTVSPost2010Prop28
280
     0
102
RTVSPost2010PropOp28
 70
     1
102
RTVSPost2010Prop29
280
     1
102
RTVSPost2010PropOp29
 70
     1
102
RTVSPost2010Prop30
280
     1
102
RTVSPost2010PropOp30
 70
     1
102
RTVSPost2010Prop31
280
     0
102
RTVSPost2010PropOp31
 70
     1
102
RTVSPost2010Prop32
280
     0
102
RTVSPost2010PropOp32
 70
     1
102
RTVSPost2010Prop33
280
     0
102
RTVSPost2010PropOp33
 70
     1
102
RTVSPost2010Prop34
280
     0
102
RTVSPost2010PropOp34
 70
     1
102
RTVSPost2010Prop35
280
     0
102
RTVSPost2010PropOp35
 70
     1
102
RTVSPost2010Prop36
280
     0
102
RTVSPost2010PropOp36
 70
     1
102
RTVSPost2010Prop37
 90
       50
102
RTVSPost2010PropOp37
 70
     1
102
RTVSPost2010Prop38
140
0.0
102
RTVSPost2010PropOp38
 70
     1
102
RTVSPost2010Prop39
140
1.0
102
RTVSPost2010PropOp39
 70
     1
102
RTVSPost2010Prop40
 90
        0
102
RTVSPost2010PropOp40
 70
     1
102
RTVSPost2010Prop41ColorIndex
 90
       18
102
RTVSPost2010Prop41ColorRGB
 90
        0
102
RTVSPost2010PropOp41
 70
     1
102
RTVSPost2010Prop42
 90
       50
102
RTVSPost2010PropOp42
 70
     1
102
RTVSPost2010Prop43
 90
        3
102
RTVSPost2010PropOp43
 70
     1
102
RTVSPost2010Prop44ColorIndex
 90
        5
102
RTVSPost2010Prop44ColorRGB
 90
      255
102
RTVSPost2010PropOp44
 70
     1
102
RTVSPost2010Prop45
280
     0
102
RTVSPost2010PropOp45
 70
     1
102
RTVSPost2010Prop46
 90
       50
102
RTVSPost2010PropOp46
 70
     1
102
RTVSPost2010Prop47
 90
       50
102
RTVSPost2010PropOp47
 70
     1
102
RTVSPost2010Prop48
 90
       50
102
RTVSPost2010PropOp48
 70
     1
102
RTVSPost2010Prop49
280
     0
102
RTVSPost2010PropOp49
 70
     1
102
RTVSPost2010Prop50
 90
       50
102
RTVSPost2010PropOp50
 70
     1
102
RTVSPost2010Prop51ColorIndex
 90
      256
102
RTVSPost2010Prop51ColorRGB
 90
-16777216
102
RTVSPost2010PropOp51
 70
     0
102
RTVSPost2010Prop52
140
1.0
102
RTVSPost2010PropOp52
 70
     0
102
RTVSPost2010Prop53
 90
        2
102
RTVSPost2010PropOp53
 70
     1
102
RTVSPost2010Prop54
  1
strokes_ogs.tif
102
RTVSPost2010PropOp54
 70
     1
102
RTVSPost2010Prop55
280
     0
102
RTVSPost2010PropOp55
 70
     1
102
RTVSPost2010Prop56
140
1.0
102
RTVSPost2010PropOp56
 70
     1
102
RTVSPost2010Prop57
140
1.0
102
RTVSPost2010PropOp57
 70
     1
  0
XRECORD
  5
230
102
{ACAD_REACTORS
330
22F
102
}
330
22F
100
AcDbXrecord
280
     1
102
RTVSPost2010Prop28
280
     0
102
RTVSPost2010PropOp28
 70
     1
102
RTVSPost2010Prop29
280
     1
102
RTVSPost2010PropOp29
 70
     1
102
RTVSPost2010Prop30
280
     1
102
RTVSPost2010PropOp30
 70
     1
102
RTVSPost2010Prop31
280
     0
102
RTVSPost2010PropOp31
 70
     1
102
RTVSPost2010Prop32
280
     0
102
RTVSPost2010PropOp32
 70
     1
102
RTVSPost2010Prop33
280
     0
102
RTVSPost2010PropOp33
 70
     1
102
RTVSPost2010Prop34
280
     0
102
RTVSPost2010PropOp34
 70
     1
102
RTVSPost2010Prop35
280
     0
102
RTVSPost2010PropOp35
 70
     1
102
RTVSPost2010Prop36
280
     0
102
RTVSPost2010PropOp36
 70
     1
102
RTVSPost2010Prop37
 90
       50
102
RTVSPost2010PropOp37
 70
     1
102
RTVSPost2010Prop38
140
0.0
102
RTVSPost2010PropOp38
 70
     1
102
RTVSPost2010Prop39
140
1.0
102
RTVSPost2010PropOp39
 70
     1
102
RTVSPost2010Prop40
 90
        0
102
RTVSPost2010PropOp40
 70
     1
102
RTVSPost2010Prop41ColorIndex
 90
       18
102
RTVSPost2010Prop41ColorRGB
 90
        0
102
RTVSPost2010PropOp41
 70
     1
102
RTVSPost2010Prop42
 90
       50
102
RTVSPost2010PropOp42
 70
     1
102
RTVSPost2010Prop43
 90
        3
102
RTVSPost2010PropOp43
 70
     1
102
RTVSPost2010Prop44ColorIndex
 90
        5
102
RTVSPost2010Prop44ColorRGB
 90
      255
102
RTVSPost2010PropOp44
 70
     1
102
RTVSPost2010Prop45
280
     0
102
RTVSPost2010PropOp45
 70
     1
102
RTVSPost2010Prop46
 90
       50
102
RTVSPost2010PropOp46
 70
     1
102
RTVSPost2010Prop47
 90
       50
102
RTVSPost2010PropOp47
 70
     1
102
RTVSPost2010Prop48
 90
       50
102
RTVSPost2010PropOp48
 70
     1
102
RTVSPost2010Prop49
280
     0
102
RTVSPost2010PropOp49
 70
     1
102
RTVSPost2010Prop50
 90
       50
102
RTVSPost2010PropOp50
 70
     1
102
RTVSPost2010Prop51ColorIndex
 90
      256
102
RTVSPost2010Prop51ColorRGB
 90
-16777216
102
RTVSPost2010PropOp51
 70
     0
102
RTVSPost2010Prop52
140
1.0
102
RTVSPost2010PropOp52
 70
     0
102
RTVSPost2010Prop53
 90
        2
102
RTVSPost2010PropOp53
 70
     1
102
RTVSPost2010Prop54
  1
strokes_ogs.tif
102
RTVSPost2010PropOp54
 70
     1
102
RTVSPost2010Prop55
280
     0
102
RTVSPost2010PropOp55
 70
     1
102
RTVSPost2010Prop56
140
1.0
102
RTVSPost2010PropOp56
 70
     1
102
RTVSPost2010Prop57
140
1.0
102
RTVSPost2010PropOp57
 70
     1
  0
XRECORD
  5
232
102
{ACAD_REACTORS
330
231
102
}
330
231
100
AcDbXrecord
280
     1
102
RTVSPost2010Prop28
280
     0
102
RTVSPost2010PropOp28
 70
     1
102
RTVSPost2010Prop29
280
     1
102
RTVSPost2010PropOp29
 70
     1
102
RTVSPost2010Prop30
280
     1
102
RTVSPost2010PropOp30
 70
     1
102
RTVSPost2010Prop31
280
     0
102
RTVSPost2010PropOp31
 70
     1
102
RTVSPost2010Prop32
280
     0
102
RTVSPost2010PropOp32
 70
     1
102
RTVSPost2010Prop33
280
     0
102
RTVSPost2010PropOp33
 70
     1
102
RTVSPost2010Prop34
280
     0
102
RTVSPost2010PropOp34
 70
     1
102
RTVSPost2010Prop35
280
     0
102
RTVSPost2010PropOp35
 70
     1
102
RTVSPost2010Prop36
280
     0
102
RTVSPost2010PropOp36
 70
     1
102
RTVSPost2010Prop37
 90
       50
102
RTVSPost2010PropOp37
 70
     1
102
RTVSPost2010Prop38
140
0.0
102
RTVSPost2010PropOp38
 70
     1
102
RTVSPost2010Prop39
140
1.0
102
RTVSPost2010PropOp39
 70
     1
102
RTVSPost2010Prop40
 90
        0
102
RTVSPost2010PropOp40
 70
     1
102
RTVSPost2010Prop41ColorIndex
 90
       18
102
RTVSPost2010Prop41ColorRGB
 90
        0
102
RTVSPost2010PropOp41
 70
     1
102
RTVSPost2010Prop42
 90
       50
102
RTVSPost2010PropOp42
 70
     1
102
RTVSPost2010Prop43
 90
        3
102
RTVSPost2010PropOp43
 70
     1
102
RTVSPost2010Prop44ColorIndex
 90
        5
102
RTVSPost2010Prop44ColorRGB
 90
      255
102
RTVSPost2010PropOp44
 70
     1
102
RTVSPost2010Prop45
280
     0
102
RTVSPost2010PropOp45
 70
     1
102
RTVSPost2010Prop46
 90
       50
102
RTVSPost2010PropOp46
 70
     1
102
RTVSPost2010Prop47
 90
       50
102
RTVSPost2010PropOp47
 70
     1
102
RTVSPost2010Prop48
 90
       50
102
RTVSPost2010PropOp48
 70
     1
102
RTVSPost2010Prop49
280
     0
102
RTVSPost2010PropOp49
 70
     1
102
RTVSPost2010Prop50
 90
       50
102
RTVSPost2010PropOp50
 70
     1
102
RTVSPost2010Prop51ColorIndex
 90
      256
102
RTVSPost2010Prop51ColorRGB
 90
-16777216
102
RTVSPost2010PropOp51
 70
     0
102
RTVSPost2010Prop52
140
1.0
102
RTVSPost2010PropOp52
 70
     0
102
RTVSPost2010Prop53
 90
        2
102
RTVSPost2010PropOp53
 70
     1
102
RTVSPost2010Prop54
  1
strokes_ogs.tif
102
RTVSPost2010PropOp54
 70
     1
102
RTVSPost2010Prop55
280
     0
102
RTVSPost2010PropOp55
 70
     1
102
RTVSPost2010Prop56
140
1.0
102
RTVSPost2010PropOp56
 70
     1
102
RTVSPost2010Prop57
140
1.0
102
RTVSPost2010PropOp57
 70
     1
  0
XRECORD
  5
24E
102
{ACAD_REACTORS
330
24D
102
}
330
24D
100
AcDbXrecord
280
     1
102
RTVSPost2010Prop28
280
     0
102
RTVSPost2010PropOp28
 70
     1
102
RTVSPost2010Prop29
280
     1
102
RTVSPost2010PropOp29
 70
     1
102
RTVSPost2010Prop30
280
     1
102
RTVSPost2010PropOp30
 70
     1
102
RTVSPost2010Prop31
280
     0
102
RTVSPost2010PropOp31
 70
     1
102
RTVSPost2010Prop32
280
     0
102
RTVSPost2010PropOp32
 70
     1
102
RTVSPost2010Prop33
280
     0
102
RTVSPost2010PropOp33
 70
     1
102
RTVSPost2010Prop34
280
     0
102
RTVSPost2010PropOp34
 70
     1
102
RTVSPost2010Prop35
280
     0
102
RTVSPost2010PropOp35
 70
     1
102
RTVSPost2010Prop36
280
     0
102
RTVSPost2010PropOp36
 70
     1
102
RTVSPost2010Prop37
 90
       50
102
RTVSPost2010PropOp37
 70
     1
102
RTVSPost2010Prop38
140
0.0
102
RTVSPost2010PropOp38
 70
     1
102
RTVSPost2010Prop39
140
1.0
102
RTVSPost2010PropOp39
 70
     1
102
RTVSPost2010Prop40
 90
        0
102
RTVSPost2010PropOp40
 70
     1
102
RTVSPost2010Prop41ColorIndex
 90
       18
102
RTVSPost2010Prop41ColorRGB
 90
        0
102
RTVSPost2010PropOp41
 70
     1
102
RTVSPost2010Prop42
 90
       50
102
RTVSPost2010PropOp42
 70
     1
102
RTVSPost2010Prop43
 90
        3
102
RTVSPost2010PropOp43
 70
     1
102
RTVSPost2010Prop44ColorIndex
 90
        5
102
RTVSPost2010Prop44ColorRGB
 90
      255
102
RTVSPost2010PropOp44
 70
     1
102
RTVSPost2010Prop45
280
     0
102
RTVSPost2010PropOp45
 70
     1
102
RTVSPost2010Prop46
 90
       50
102
RTVSPost2010PropOp46
 70
     1
102
RTVSPost2010Prop47
 90
       50
102
RTVSPost2010PropOp47
 70
     1
102
RTVSPost2010Prop48
 90
       50
102
RTVSPost2010PropOp48
 70
     1
102
RTVSPost2010Prop49
280
     0
102
RTVSPost2010PropOp49
 70
     1
102
RTVSPost2010Prop50
 90
       50
102
RTVSPost2010PropOp50
 70
     1
102
RTVSPost2010Prop51ColorIndex
 90
      256
102
RTVSPost2010Prop51ColorRGB
 90
-16777216
102
RTVSPost2010PropOp51
 70
     0
102
RTVSPost2010Prop52
140
1.0
102
RTVSPost2010PropOp52
 70
     0
102
RTVSPost2010Prop53
 90
        2
102
RTVSPost2010PropOp53
 70
     1
102
RTVSPost2010Prop54
  1
strokes_ogs.tif
102
RTVSPost2010PropOp54
 70
     1
102
RTVSPost2010Prop55
280
     0
102
RTVSPost2010PropOp55
 70
     1
102
RTVSPost2010Prop56
140
1.0
102
RTVSPost2010PropOp56
 70
     1
102
RTVSPost2010Prop57
140
1.0
102
RTVSPost2010PropOp57
 70
     1
  0
XRECORD
  5
25A
102
{ACAD_REACTORS
330
259
102
}
330
259
100
AcDbXrecord
280
     1
102
RTVSPost2010Prop28
280
     0
102
RTVSPost2010PropOp28
 70
     0
102
RTVSPost2010Prop29
280
     1
102
RTVSPost2010PropOp29
 70
     0
102
RTVSPost2010Prop30
280
     1
102
RTVSPost2010PropOp30
 70
     0
102
RTVSPost2010Prop31
280
     0
102
RTVSPost2010PropOp31
 70
     0
102
RTVSPost2010Prop32
280
     0
102
RTVSPost2010PropOp32
 70
     0
102
RTVSPost2010Prop33
280
     0
102
RTVSPost2010PropOp33
 70
     0
102
RTVSPost2010Prop34
280
     0
102
RTVSPost2010PropOp34
 70
     0
102
RTVSPost2010Prop35
280
     0
102
RTVSPost2010PropOp35
 70
     0
102
RTVSPost2010Prop36
280
     0
102
RTVSPost2010PropOp36
 70
     0
102
RTVSPost2010Prop37
 90
       50
102
RTVSPost2010PropOp37
 70
     0
102
RTVSPost2010Prop38
140
0.0
102
RTVSPost2010PropOp38
 70
     0
102
RTVSPost2010Prop39
140
1.0
102
RTVSPost2010PropOp39
 70
     0
102
RTVSPost2010Prop40
 90
        0
102
RTVSPost2010PropOp40
 70
     0
102
RTVSPost2010Prop41ColorIndex
 90
       18
102
RTVSPost2010Prop41ColorRGB
 90
        0
102
RTVSPost2010PropOp41
 70
     0
102
RTVSPost2010Prop42
 90
       50
102
RTVSPost2010PropOp42
 70
     0
102
RTVSPost2010Prop43
 90
        3
102
RTVSPost2010PropOp43
 70
     0
102
RTVSPost2010Prop44ColorIndex
 90
        5
102
RTVSPost2010Prop44ColorRGB
 90
      255
102
RTVSPost2010PropOp44
 70
     0
102
RTVSPost2010Prop45
280
     0
102
RTVSPost2010PropOp45
 70
     0
102
RTVSPost2010Prop46
 90
       50
102
RTVSPost2010PropOp46
 70
     0
102
RTVSPost2010Prop47
 90
       50
102
RTVSPost2010PropOp47
 70
     0
102
RTVSPost2010Prop48
 90
       50
102
RTVSPost2010PropOp48
 70
     0
102
RTVSPost2010Prop49
280
     0
102
RTVSPost2010PropOp49
 70
     0
102
RTVSPost2010Prop50
 90
       50
102
RTVSPost2010PropOp50
 70
     0
102
RTVSPost2010Prop51ColorIndex
 90
      256
102
RTVSPost2010Prop51ColorRGB
 90
-16777216
102
RTVSPost2010PropOp51
 70
     0
102
RTVSPost2010Prop52
140
1.0
102
RTVSPost2010PropOp52
 70
     0
102
RTVSPost2010Prop53
 90
        2
102
RTVSPost2010PropOp53
 70
     0
102
RTVSPost2010Prop54
  1
strokes_ogs.tif
102
RTVSPost2010PropOp54
 70
     0
102
RTVSPost2010Prop55
280
     0
102
RTVSPost2010PropOp55
 70
     0
102
RTVSPost2010Prop56
140
1.0
102
RTVSPost2010PropOp56
 70
     0
102
RTVSPost2010Prop57
140
1.0
102
RTVSPost2010PropOp57
 70
     0
  0
XRECORD
  5
246
102
{ACAD_REACTORS
330
245
102
}
330
245
100
AcDbXrecord
280
     1
102
RTVSPost2010Prop28
280
     0
102
RTVSPost2010PropOp28
 70
     1
102
RTVSPost2010Prop29
280
     1
102
RTVSPost2010PropOp29
 70
     1
102
RTVSPost2010Prop30
280
     1
102
RTVSPost2010PropOp30
 70
     1
102
RTVSPost2010Prop31
280
     0
102
RTVSPost2010PropOp31
 70
     1
102
RTVSPost2010Prop32
280
     0
102
RTVSPost2010PropOp32
 70
     1
102
RTVSPost2010Prop33
280
     0
102
RTVSPost2010PropOp33
 70
     1
102
RTVSPost2010Prop34
280
     0
102
RTVSPost2010PropOp34
 70
     1
102
RTVSPost2010Prop35
280
     0
102
RTVSPost2010PropOp35
 70
     1
102
RTVSPost2010Prop36
280
     0
102
RTVSPost2010PropOp36
 70
     1
102
RTVSPost2010Prop37
 90
       50
102
RTVSPost2010PropOp37
 70
     1
102
RTVSPost2010Prop38
140
0.0
102
RTVSPost2010PropOp38
 70
     1
102
RTVSPost2010Prop39
140
1.0
102
RTVSPost2010PropOp39
 70
     1
102
RTVSPost2010Prop40
 90
        0
102
RTVSPost2010PropOp40
 70
     1
102
RTVSPost2010Prop41ColorIndex
 90
       18
102
RTVSPost2010Prop41ColorRGB
 90
        0
102
RTVSPost2010PropOp41
 70
     1
102
RTVSPost2010Prop42
 90
       50
102
RTVSPost2010PropOp42
 70
     1
102
RTVSPost2010Prop43
 90
        3
102
RTVSPost2010PropOp43
 70
     1
102
RTVSPost2010Prop44ColorIndex
 90
        5
102
RTVSPost2010Prop44ColorRGB
 90
      255
102
RTVSPost2010PropOp44
 70
     1
102
RTVSPost2010Prop45
280
     0
102
RTVSPost2010PropOp45
 70
     1
102
RTVSPost2010Prop46
 90
       50
102
RTVSPost2010PropOp46
 70
     1
102
RTVSPost2010Prop47
 90
       50
102
RTVSPost2010PropOp47
 70
     1
102
RTVSPost2010Prop48
 90
       50
102
RTVSPost2010PropOp48
 70
     1
102
RTVSPost2010Prop49
280
     0
102
RTVSPost2010PropOp49
 70
     1
102
RTVSPost2010Prop50
 90
       50
102
RTVSPost2010PropOp50
 70
     1
102
RTVSPost2010Prop51ColorIndex
 90
      256
102
RTVSPost2010Prop51ColorRGB
 90
-16777216
102
RTVSPost2010PropOp51
 70
     0
102
RTVSPost2010Prop52
140
1.0
102
RTVSPost2010PropOp52
 70
     0
102
RTVSPost2010Prop53
 90
        2
102
RTVSPost2010PropOp53
 70
     1
102
RTVSPost2010Prop54
  1
strokes_ogs.tif
102
RTVSPost2010PropOp54
 70
     1
102
RTVSPost2010Prop55
280
     0
102
RTVSPost2010PropOp55
 70
     1
102
RTVSPost2010Prop56
140
1.0
102
RTVSPost2010PropOp56
 70
     1
102
RTVSPost2010Prop57
140
1.0
102
RTVSPost2010PropOp57
 70
     1
  0
XRECORD
  5
25C
102
{ACAD_REACTORS
330
25B
102
}
330
25B
100
AcDbXrecord
280
     1
102
RTVSPost2010Prop28
280
     0
102
RTVSPost2010PropOp28
 70
     0
102
RTVSPost2010Prop29
280
     1
102
RTVSPost2010PropOp29
 70
     0
102
RTVSPost2010Prop30
280
     1
102
RTVSPost2010PropOp30
 70
     0
102
RTVSPost2010Prop31
280
     0
102
RTVSPost2010PropOp31
 70
     0
102
RTVSPost2010Prop32
280
     0
102
RTVSPost2010PropOp32
 70
     0
102
RTVSPost2010Prop33
280
     0
102
RTVSPost2010PropOp33
 70
     0
102
RTVSPost2010Prop34
280
     0
102
RTVSPost2010PropOp34
 70
     0
102
RTVSPost2010Prop35
280
     0
102
RTVSPost2010PropOp35
 70
     0
102
RTVSPost2010Prop36
280
     0
102
RTVSPost2010PropOp36
 70
     0
102
RTVSPost2010Prop37
 90
       50
102
RTVSPost2010PropOp37
 70
     0
102
RTVSPost2010Prop38
140
0.0
102
RTVSPost2010PropOp38
 70
     0
102
RTVSPost2010Prop39
140
1.0
102
RTVSPost2010PropOp39
 70
     0
102
RTVSPost2010Prop40
 90
        0
102
RTVSPost2010PropOp40
 70
     0
102
RTVSPost2010Prop41ColorIndex
 90
       18
102
RTVSPost2010Prop41ColorRGB
 90
        0
102
RTVSPost2010PropOp41
 70
     0
102
RTVSPost2010Prop42
 90
       50
102
RTVSPost2010PropOp42
 70
     0
102
RTVSPost2010Prop43
 90
        3
102
RTVSPost2010PropOp43
 70
     0
102
RTVSPost2010Prop44ColorIndex
 90
        5
102
RTVSPost2010Prop44ColorRGB
 90
      255
102
RTVSPost2010PropOp44
 70
     0
102
RTVSPost2010Prop45
280
     0
102
RTVSPost2010PropOp45
 70
     0
102
RTVSPost2010Prop46
 90
       50
102
RTVSPost2010PropOp46
 70
     0
102
RTVSPost2010Prop47
 90
       50
102
RTVSPost2010PropOp47
 70
     0
102
RTVSPost2010Prop48
 90
       50
102
RTVSPost2010PropOp48
 70
     0
102
RTVSPost2010Prop49
280
     0
102
RTVSPost2010PropOp49
 70
     0
102
RTVSPost2010Prop50
 90
       50
102
RTVSPost2010PropOp50
 70
     0
102
RTVSPost2010Prop51ColorIndex
 90
      256
102
RTVSPost2010Prop51ColorRGB
 90
-16777216
102
RTVSPost2010PropOp51
 70
     0
102
RTVSPost2010Prop52
140
1.0
102
RTVSPost2010PropOp52
 70
     0
102
RTVSPost2010Prop53
 90
        2
102
RTVSPost2010PropOp53
 70
     0
102
RTVSPost2010Prop54
  1
strokes_ogs.tif
102
RTVSPost2010PropOp54
 70
     0
102
RTVSPost2010Prop55
280
     0
102
RTVSPost2010PropOp55
 70
     0
102
RTVSPost2010Prop56
140
1.0
102
RTVSPost2010PropOp56
 70
     0
102
RTVSPost2010Prop57
140
1.0
102
RTVSPost2010PropOp57
 70
     0
  0
XRECORD
  5
23C
102
{ACAD_REACTORS
330
23B
102
}
330
23B
100
AcDbXrecord
280
     1
102
RTVSPost2010Prop28
280
     0
102
RTVSPost2010PropOp28
 70
     1
102
RTVSPost2010Prop29
280
     1
102
RTVSPost2010PropOp29
 70
     1
102
RTVSPost2010Prop30
280
     1
102
RTVSPost2010PropOp30
 70
     1
102
RTVSPost2010Prop31
280
     0
102
RTVSPost2010PropOp31
 70
     1
102
RTVSPost2010Prop32
280
     0
102
RTVSPost2010PropOp32
 70
     1
102
RTVSPost2010Prop33
280
     0
102
RTVSPost2010PropOp33
 70
     1
102
RTVSPost2010Prop34
280
     0
102
RTVSPost2010PropOp34
 70
     1
102
RTVSPost2010Prop35
280
     0
102
RTVSPost2010PropOp35
 70
     1
102
RTVSPost2010Prop36
280
     0
102
RTVSPost2010PropOp36
 70
     1
102
RTVSPost2010Prop37
 90
       50
102
RTVSPost2010PropOp37
 70
     1
102
RTVSPost2010Prop38
140
0.0
102
RTVSPost2010PropOp38
 70
     1
102
RTVSPost2010Prop39
140
1.0
102
RTVSPost2010PropOp39
 70
     1
102
RTVSPost2010Prop40
 90
        0
102
RTVSPost2010PropOp40
 70
     1
102
RTVSPost2010Prop41ColorIndex
 90
       18
102
RTVSPost2010Prop41ColorRGB
 90
        0
102
RTVSPost2010PropOp41
 70
     1
102
RTVSPost2010Prop42
 90
       50
102
RTVSPost2010PropOp42
 70
     1
102
RTVSPost2010Prop43
 90
        3
102
RTVSPost2010PropOp43
 70
     1
102
RTVSPost2010Prop44ColorIndex
 90
        5
102
RTVSPost2010Prop44ColorRGB
 90
      255
102
RTVSPost2010PropOp44
 70
     1
102
RTVSPost2010Prop45
280
     0
102
RTVSPost2010PropOp45
 70
     1
102
RTVSPost2010Prop46
 90
       50
102
RTVSPost2010PropOp46
 70
     1
102
RTVSPost2010Prop47
 90
       50
102
RTVSPost2010PropOp47
 70
     1
102
RTVSPost2010Prop48
 90
       50
102
RTVSPost2010PropOp48
 70
     1
102
RTVSPost2010Prop49
280
     0
102
RTVSPost2010PropOp49
 70
     1
102
RTVSPost2010Prop50
 90
       50
102
RTVSPost2010PropOp50
 70
     1
102
RTVSPost2010Prop51ColorIndex
 90
      256
102
RTVSPost2010Prop51ColorRGB
 90
-16777216
102
RTVSPost2010PropOp51
 70
     0
102
RTVSPost2010Prop52
140
1.0
102
RTVSPost2010PropOp52
 70
     0
102
RTVSPost2010Prop53
 90
        2
102
RTVSPost2010PropOp53
 70
     1
102
RTVSPost2010Prop54
  1
strokes_ogs.tif
102
RTVSPost2010PropOp54
 70
     1
102
RTVSPost2010Prop55
280
     0
102
RTVSPost2010PropOp55
 70
     1
102
RTVSPost2010Prop56
140
1.0
102
RTVSPost2010PropOp56
 70
     1
102
RTVSPost2010Prop57
140
1.0
102
RTVSPost2010PropOp57
 70
     1
  0
XRECORD
  5
258
102
{ACAD_REACTORS
330
257
102
}
330
257
100
AcDbXrecord
280
     1
102
RTVSPost2010Prop28
280
     0
102
RTVSPost2010PropOp28
 70
     1
102
RTVSPost2010Prop29
280
     1
102
RTVSPost2010PropOp29
 70
     1
102
RTVSPost2010Prop30
280
     1
102
RTVSPost2010PropOp30
 70
     1
102
RTVSPost2010Prop31
280
     0
102
RTVSPost2010PropOp31
 70
     1
102
RTVSPost2010Prop32
280
     0
102
RTVSPost2010PropOp32
 70
     1
102
RTVSPost2010Prop33
280
     0
102
RTVSPost2010PropOp33
 70
     1
102
RTVSPost2010Prop34
280
     0
102
RTVSPost2010PropOp34
 70
     1
102
RTVSPost2010Prop35
280
     0
102
RTVSPost2010PropOp35
 70
     1
102
RTVSPost2010Prop36
280
     0
102
RTVSPost2010PropOp36
 70
     1
102
RTVSPost2010Prop37
 90
       50
102
RTVSPost2010PropOp37
 70
     1
102
RTVSPost2010Prop38
140
0.0
102
RTVSPost2010PropOp38
 70
     1
102
RTVSPost2010Prop39
140
1.0
102
RTVSPost2010PropOp39
 70
     1
102
RTVSPost2010Prop40
 90
        0
102
RTVSPost2010PropOp40
 70
     1
102
RTVSPost2010Prop41ColorIndex
 90
       18
102
RTVSPost2010Prop41ColorRGB
 90
        0
102
RTVSPost2010PropOp41
 70
     1
102
RTVSPost2010Prop42
 90
       50
102
RTVSPost2010PropOp42
 70
     1
102
RTVSPost2010Prop43
 90
        3
102
RTVSPost2010PropOp43
 70
     1
102
RTVSPost2010Prop44ColorIndex
 90
        5
102
RTVSPost2010Prop44ColorRGB
 90
      255
102
RTVSPost2010PropOp44
 70
     1
102
RTVSPost2010Prop45
280
     0
102
RTVSPost2010PropOp45
 70
     1
102
RTVSPost2010Prop46
 90
       50
102
RTVSPost2010PropOp46
 70
     1
102
RTVSPost2010Prop47
 90
       50
102
RTVSPost2010PropOp47
 70
     1
102
RTVSPost2010Prop48
 90
       50
102
RTVSPost2010PropOp48
 70
     1
102
RTVSPost2010Prop49
280
     0
102
RTVSPost2010PropOp49
 70
     1
102
RTVSPost2010Prop50
 90
       50
102
RTVSPost2010PropOp50
 70
     1
102
RTVSPost2010Prop51ColorIndex
 90
      256
102
RTVSPost2010Prop51ColorRGB
 90
-16777216
102
RTVSPost2010PropOp51
 70
     0
102
RTVSPost2010Prop52
140
1.0
102
RTVSPost2010PropOp52
 70
     0
102
RTVSPost2010Prop53
 90
        2
102
RTVSPost2010PropOp53
 70
     1
102
RTVSPost2010Prop54
  1
strokes_ogs.tif
102
RTVSPost2010PropOp54
 70
     1
102
RTVSPost2010Prop55
280
     0
102
RTVSPost2010PropOp55
 70
     1
102
RTVSPost2010Prop56
140
1.0
102
RTVSPost2010PropOp56
 70
     1
102
RTVSPost2010Prop57
140
1.0
102
RTVSPost2010PropOp57
 70
     1
  0
XRECORD
  5
256
102
{ACAD_REACTORS
330
255
102
}
330
255
100
AcDbXrecord
280
     1
102
RTVSPost2010Prop28
280
     0
102
RTVSPost2010PropOp28
 70
     1
102
RTVSPost2010Prop29
280
     1
102
RTVSPost2010PropOp29
 70
     1
102
RTVSPost2010Prop30
280
     1
102
RTVSPost2010PropOp30
 70
     1
102
RTVSPost2010Prop31
280
     0
102
RTVSPost2010PropOp31
 70
     1
102
RTVSPost2010Prop32
280
     0
102
RTVSPost2010PropOp32
 70
     1
102
RTVSPost2010Prop33
280
     0
102
RTVSPost2010PropOp33
 70
     1
102
RTVSPost2010Prop34
280
     0
102
RTVSPost2010PropOp34
 70
     1
102
RTVSPost2010Prop35
280
     0
102
RTVSPost2010PropOp35
 70
     1
102
RTVSPost2010Prop36
280
     0
102
RTVSPost2010PropOp36
 70
     1
102
RTVSPost2010Prop37
 90
       50
102
RTVSPost2010PropOp37
 70
     1
102
RTVSPost2010Prop38
140
0.0
102
RTVSPost2010PropOp38
 70
     1
102
RTVSPost2010Prop39
140
1.0
102
RTVSPost2010PropOp39
 70
     1
102
RTVSPost2010Prop40
 90
        0
102
RTVSPost2010PropOp40
 70
     1
102
RTVSPost2010Prop41ColorIndex
 90
       18
102
RTVSPost2010Prop41ColorRGB
 90
        0
102
RTVSPost2010PropOp41
 70
     1
102
RTVSPost2010Prop42
 90
       50
102
RTVSPost2010PropOp42
 70
     1
102
RTVSPost2010Prop43
 90
        3
102
RTVSPost2010PropOp43
 70
     1
102
RTVSPost2010Prop44ColorIndex
 90
        5
102
RTVSPost2010Prop44ColorRGB
 90
      255
102
RTVSPost2010PropOp44
 70
     1
102
RTVSPost2010Prop45
280
     0
102
RTVSPost2010PropOp45
 70
     1
102
RTVSPost2010Prop46
 90
       50
102
RTVSPost2010PropOp46
 70
     1
102
RTVSPost2010Prop47
 90
       50
102
RTVSPost2010PropOp47
 70
     1
102
RTVSPost2010Prop48
 90
       50
102
RTVSPost2010PropOp48
 70
     1
102
RTVSPost2010Prop49
280
     0
102
RTVSPost2010PropOp49
 70
     1
102
RTVSPost2010Prop50
 90
       50
102
RTVSPost2010PropOp50
 70
     1
102
RTVSPost2010Prop51ColorIndex
 90
      256
102
RTVSPost2010Prop51ColorRGB
 90
-16777216
102
RTVSPost2010PropOp51
 70
     0
102
RTVSPost2010Prop52
140
1.0
102
RTVSPost2010PropOp52
 70
     0
102
RTVSPost2010Prop53
 90
        2
102
RTVSPost2010PropOp53
 70
     1
102
RTVSPost2010Prop54
  1
strokes_ogs.tif
102
RTVSPost2010PropOp54
 70
     1
102
RTVSPost2010Prop55
280
     0
102
RTVSPost2010PropOp55
 70
     1
102
RTVSPost2010Prop56
140
1.0
102
RTVSPost2010PropOp56
 70
     1
102
RTVSPost2010Prop57
140
1.0
102
RTVSPost2010PropOp57
 70
     1
  0
XRECORD
  5
250
102
{ACAD_REACTORS
330
24F
102
}
330
24F
100
AcDbXrecord
280
     1
102
RTVSPost2010Prop28
280
     0
102
RTVSPost2010PropOp28
 70
     1
102
RTVSPost2010Prop29
280
     1
102
RTVSPost2010PropOp29
 70
     1
102
RTVSPost2010Prop30
280
     1
102
RTVSPost2010PropOp30
 70
     1
102
RTVSPost2010Prop31
280
     0
102
RTVSPost2010PropOp31
 70
     1
102
RTVSPost2010Prop32
280
     0
102
RTVSPost2010PropOp32
 70
     1
102
RTVSPost2010Prop33
280
     0
102
RTVSPost2010PropOp33
 70
     1
102
RTVSPost2010Prop34
280
     0
102
RTVSPost2010PropOp34
 70
     1
102
RTVSPost2010Prop35
280
     0
102
RTVSPost2010PropOp35
 70
     1
102
RTVSPost2010Prop36
280
     0
102
RTVSPost2010PropOp36
 70
     1
102
RTVSPost2010Prop37
 90
       50
102
RTVSPost2010PropOp37
 70
     1
102
RTVSPost2010Prop38
140
0.0
102
RTVSPost2010PropOp38
 70
     1
102
RTVSPost2010Prop39
140
1.0
102
RTVSPost2010PropOp39
 70
     1
102
RTVSPost2010Prop40
 90
        0
102
RTVSPost2010PropOp40
 70
     1
102
RTVSPost2010Prop41ColorIndex
 90
       18
102
RTVSPost2010Prop41ColorRGB
 90
        0
102
RTVSPost2010PropOp41
 70
     1
102
RTVSPost2010Prop42
 90
       50
102
RTVSPost2010PropOp42
 70
     1
102
RTVSPost2010Prop43
 90
        3
102
RTVSPost2010PropOp43
 70
     1
102
RTVSPost2010Prop44ColorIndex
 90
        5
102
RTVSPost2010Prop44ColorRGB
 90
      255
102
RTVSPost2010PropOp44
 70
     1
102
RTVSPost2010Prop45
280
     0
102
RTVSPost2010PropOp45
 70
     1
102
RTVSPost2010Prop46
 90
       50
102
RTVSPost2010PropOp46
 70
     1
102
RTVSPost2010Prop47
 90
       50
102
RTVSPost2010PropOp47
 70
     1
102
RTVSPost2010Prop48
 90
       50
102
RTVSPost2010PropOp48
 70
     1
102
RTVSPost2010Prop49
280
     0
102
RTVSPost2010PropOp49
 70
     1
102
RTVSPost2010Prop50
 90
       50
102
RTVSPost2010PropOp50
 70
     1
102
RTVSPost2010Prop51ColorIndex
 90
      256
102
RTVSPost2010Prop51ColorRGB
 90
-16777216
102
RTVSPost2010PropOp51
 70
     0
102
RTVSPost2010Prop52
140
1.0
102
RTVSPost2010PropOp52
 70
     0
102
RTVSPost2010Prop53
 90
        2
102
RTVSPost2010PropOp53
 70
     1
102
RTVSPost2010Prop54
  1
strokes_ogs.tif
102
RTVSPost2010PropOp54
 70
     1
102
RTVSPost2010Prop55
280
     0
102
RTVSPost2010PropOp55
 70
     1
102
RTVSPost2010Prop56
140
1.0
102
RTVSPost2010PropOp56
 70
     1
102
RTVSPost2010Prop57
140
1.0
102
RTVSPost2010PropOp57
 70
     1
  0
XRECORD
  5
252
102
{ACAD_REACTORS
330
251
102
}
330
251
100
AcDbXrecord
280
     1
102
RTVSPost2010Prop28
280
     0
102
RTVSPost2010PropOp28
 70
     1
102
RTVSPost2010Prop29
280
     1
102
RTVSPost2010PropOp29
 70
     1
102
RTVSPost2010Prop30
280
     1
102
RTVSPost2010PropOp30
 70
     1
102
RTVSPost2010Prop31
280
     0
102
RTVSPost2010PropOp31
 70
     1
102
RTVSPost2010Prop32
280
     0
102
RTVSPost2010PropOp32
 70
     1
102
RTVSPost2010Prop33
280
     0
102
RTVSPost2010PropOp33
 70
     1
102
RTVSPost2010Prop34
280
     0
102
RTVSPost2010PropOp34
 70
     1
102
RTVSPost2010Prop35
280
     0
102
RTVSPost2010PropOp35
 70
     1
102
RTVSPost2010Prop36
280
     0
102
RTVSPost2010PropOp36
 70
     1
102
RTVSPost2010Prop37
 90
       50
102
RTVSPost2010PropOp37
 70
     1
102
RTVSPost2010Prop38
140
0.0
102
RTVSPost2010PropOp38
 70
     1
102
RTVSPost2010Prop39
140
1.0
102
RTVSPost2010PropOp39
 70
     1
102
RTVSPost2010Prop40
 90
        0
102
RTVSPost2010PropOp40
 70
     1
102
RTVSPost2010Prop41ColorIndex
 90
       18
102
RTVSPost2010Prop41ColorRGB
 90
        0
102
RTVSPost2010PropOp41
 70
     1
102
RTVSPost2010Prop42
 90
       50
102
RTVSPost2010PropOp42
 70
     1
102
RTVSPost2010Prop43
 90
        3
102
RTVSPost2010PropOp43
 70
     1
102
RTVSPost2010Prop44ColorIndex
 90
        5
102
RTVSPost2010Prop44ColorRGB
 90
      255
102
RTVSPost2010PropOp44
 70
     1
102
RTVSPost2010Prop45
280
     0
102
RTVSPost2010PropOp45
 70
     1
102
RTVSPost2010Prop46
 90
       50
102
RTVSPost2010PropOp46
 70
     1
102
RTVSPost2010Prop47
 90
       50
102
RTVSPost2010PropOp47
 70
     1
102
RTVSPost2010Prop48
 90
       50
102
RTVSPost2010PropOp48
 70
     1
102
RTVSPost2010Prop49
280
     0
102
RTVSPost2010PropOp49
 70
     1
102
RTVSPost2010Prop50
 90
       50
102
RTVSPost2010PropOp50
 70
     1
102
RTVSPost2010Prop51ColorIndex
 90
      256
102
RTVSPost2010Prop51ColorRGB
 90
-16777216
102
RTVSPost2010PropOp51
 70
     0
102
RTVSPost2010Prop52
140
1.0
102
RTVSPost2010PropOp52
 70
     0
102
RTVSPost2010Prop53
 90
        2
102
RTVSPost2010PropOp53
 70
     1
102
RTVSPost2010Prop54
  1
strokes_ogs.tif
102
RTVSPost2010PropOp54
 70
     1
102
RTVSPost2010Prop55
280
     0
102
RTVSPost2010PropOp55
 70
     1
102
RTVSPost2010Prop56
140
1.0
102
RTVSPost2010PropOp56
 70
     1
102
RTVSPost2010Prop57
140
1.0
102
RTVSPost2010PropOp57
 70
     1
  0
XRECORD
  5
244
102
{ACAD_REACTORS
330
243
102
}
330
243
100
AcDbXrecord
280
     1
102
RTVSPost2010Prop28
280
     0
102
RTVSPost2010PropOp28
 70
     1
102
RTVSPost2010Prop29
280
     1
102
RTVSPost2010PropOp29
 70
     1
102
RTVSPost2010Prop30
280
     1
102
RTVSPost2010PropOp30
 70
     1
102
RTVSPost2010Prop31
280
     0
102
RTVSPost2010PropOp31
 70
     1
102
RTVSPost2010Prop32
280
     0
102
RTVSPost2010PropOp32
 70
     1
102
RTVSPost2010Prop33
280
     0
102
RTVSPost2010PropOp33
 70
     1
102
RTVSPost2010Prop34
280
     0
102
RTVSPost2010PropOp34
 70
     1
102
RTVSPost2010Prop35
280
     0
102
RTVSPost2010PropOp35
 70
     1
102
RTVSPost2010Prop36
280
     0
102
RTVSPost2010PropOp36
 70
     1
102
RTVSPost2010Prop37
 90
       50
102
RTVSPost2010PropOp37
 70
     1
102
RTVSPost2010Prop38
140
0.0
102
RTVSPost2010PropOp38
 70
     1
102
RTVSPost2010Prop39
140
1.0
102
RTVSPost2010PropOp39
 70
     1
102
RTVSPost2010Prop40
 90
        0
102
RTVSPost2010PropOp40
 70
     1
102
RTVSPost2010Prop41ColorIndex
 90
       18
102
RTVSPost2010Prop41ColorRGB
 90
        0
102
RTVSPost2010PropOp41
 70
     1
102
RTVSPost2010Prop42
 90
       50
102
RTVSPost2010PropOp42
 70
     1
102
RTVSPost2010Prop43
 90
        3
102
RTVSPost2010PropOp43
 70
     1
102
RTVSPost2010Prop44ColorIndex
 90
        5
102
RTVSPost2010Prop44ColorRGB
 90
      255
102
RTVSPost2010PropOp44
 70
     1
102
RTVSPost2010Prop45
280
     0
102
RTVSPost2010PropOp45
 70
     1
102
RTVSPost2010Prop46
 90
       50
102
RTVSPost2010PropOp46
 70
     1
102
RTVSPost2010Prop47
 90
       50
102
RTVSPost2010PropOp47
 70
     1
102
RTVSPost2010Prop48
 90
       50
102
RTVSPost2010PropOp48
 70
     1
102
RTVSPost2010Prop49
280
     0
102
RTVSPost2010PropOp49
 70
     1
102
RTVSPost2010Prop50
 90
       50
102
RTVSPost2010PropOp50
 70
     1
102
RTVSPost2010Prop51ColorIndex
 90
      256
102
RTVSPost2010Prop51ColorRGB
 90
-16777216
102
RTVSPost2010PropOp51
 70
     0
102
RTVSPost2010Prop52
140
1.0
102
RTVSPost2010PropOp52
 70
     0
102
RTVSPost2010Prop53
 90
        2
102
RTVSPost2010PropOp53
 70
     1
102
RTVSPost2010Prop54
  1
strokes_ogs.tif
102
RTVSPost2010PropOp54
 70
     1
102
RTVSPost2010Prop55
280
     0
102
RTVSPost2010PropOp55
 70
     1
102
RTVSPost2010Prop56
140
1.0
102
RTVSPost2010PropOp56
 70
     1
102
RTVSPost2010Prop57
140
1.0
102
RTVSPost2010PropOp57
 70
     1
  0
XRECORD
  5
24C
102
{ACAD_REACTORS
330
24B
102
}
330
24B
100
AcDbXrecord
280
     1
102
RTVSPost2010Prop28
280
     0
102
RTVSPost2010PropOp28
 70
     1
102
RTVSPost2010Prop29
280
     1
102
RTVSPost2010PropOp29
 70
     1
102
RTVSPost2010Prop30
280
     1
102
RTVSPost2010PropOp30
 70
     1
102
RTVSPost2010Prop31
280
     0
102
RTVSPost2010PropOp31
 70
     1
102
RTVSPost2010Prop32
280
     0
102
RTVSPost2010PropOp32
 70
     1
102
RTVSPost2010Prop33
280
     0
102
RTVSPost2010PropOp33
 70
     1
102
RTVSPost2010Prop34
280
     0
102
RTVSPost2010PropOp34
 70
     1
102
RTVSPost2010Prop35
280
     0
102
RTVSPost2010PropOp35
 70
     1
102
RTVSPost2010Prop36
280
     0
102
RTVSPost2010PropOp36
 70
     1
102
RTVSPost2010Prop37
 90
       50
102
RTVSPost2010PropOp37
 70
     1
102
RTVSPost2010Prop38
140
0.0
102
RTVSPost2010PropOp38
 70
     1
102
RTVSPost2010Prop39
140
1.0
102
RTVSPost2010PropOp39
 70
     1
102
RTVSPost2010Prop40
 90
        0
102
RTVSPost2010PropOp40
 70
     1
102
RTVSPost2010Prop41ColorIndex
 90
       18
102
RTVSPost2010Prop41ColorRGB
 90
        0
102
RTVSPost2010PropOp41
 70
     1
102
RTVSPost2010Prop42
 90
       50
102
RTVSPost2010PropOp42
 70
     1
102
RTVSPost2010Prop43
 90
        3
102
RTVSPost2010PropOp43
 70
     1
102
RTVSPost2010Prop44ColorIndex
 90
        5
102
RTVSPost2010Prop44ColorRGB
 90
      255
102
RTVSPost2010PropOp44
 70
     1
102
RTVSPost2010Prop45
280
     0
102
RTVSPost2010PropOp45
 70
     1
102
RTVSPost2010Prop46
 90
       50
102
RTVSPost2010PropOp46
 70
     1
102
RTVSPost2010Prop47
 90
       50
102
RTVSPost2010PropOp47
 70
     1
102
RTVSPost2010Prop48
 90
       50
102
RTVSPost2010PropOp48
 70
     1
102
RTVSPost2010Prop49
280
     0
102
RTVSPost2010PropOp49
 70
     1
102
RTVSPost2010Prop50
 90
       50
102
RTVSPost2010PropOp50
 70
     1
102
RTVSPost2010Prop51ColorIndex
 90
      256
102
RTVSPost2010Prop51ColorRGB
 90
-16777216
102
RTVSPost2010PropOp51
 70
     0
102
RTVSPost2010Prop52
140
1.0
102
RTVSPost2010PropOp52
 70
     0
102
RTVSPost2010Prop53
 90
        2
102
RTVSPost2010PropOp53
 70
     1
102
RTVSPost2010Prop54
  1
strokes_ogs.tif
102
RTVSPost2010PropOp54
 70
     1
102
RTVSPost2010Prop55
280
     0
102
RTVSPost2010PropOp55
 70
     1
102
RTVSPost2010Prop56
140
1.0
102
RTVSPost2010PropOp56
 70
     1
102
RTVSPost2010Prop57
140
1.0
102
RTVSPost2010PropOp57
 70
     1
  0
XRECORD
  5
254
102
{ACAD_REACTORS
330
253
102
}
330
253
100
AcDbXrecord
280
     1
102
RTVSPost2010Prop28
280
     0
102
RTVSPost2010PropOp28
 70
     1
102
RTVSPost2010Prop29
280
     1
102
RTVSPost2010PropOp29
 70
     1
102
RTVSPost2010Prop30
280
     1
102
RTVSPost2010PropOp30
 70
     1
102
RTVSPost2010Prop31
280
     0
102
RTVSPost2010PropOp31
 70
     1
102
RTVSPost2010Prop32
280
     0
102
RTVSPost2010PropOp32
 70
     1
102
RTVSPost2010Prop33
280
     0
102
RTVSPost2010PropOp33
 70
     1
102
RTVSPost2010Prop34
280
     0
102
RTVSPost2010PropOp34
 70
     1
102
RTVSPost2010Prop35
280
     0
102
RTVSPost2010PropOp35
 70
     1
102
RTVSPost2010Prop36
280
     0
102
RTVSPost2010PropOp36
 70
     1
102
RTVSPost2010Prop37
 90
       50
102
RTVSPost2010PropOp37
 70
     1
102
RTVSPost2010Prop38
140
0.0
102
RTVSPost2010PropOp38
 70
     1
102
RTVSPost2010Prop39
140
1.0
102
RTVSPost2010PropOp39
 70
     1
102
RTVSPost2010Prop40
 90
        0
102
RTVSPost2010PropOp40
 70
     1
102
RTVSPost2010Prop41ColorIndex
 90
       18
102
RTVSPost2010Prop41ColorRGB
 90
        0
102
RTVSPost2010PropOp41
 70
     1
102
RTVSPost2010Prop42
 90
       50
102
RTVSPost2010PropOp42
 70
     1
102
RTVSPost2010Prop43
 90
        3
102
RTVSPost2010PropOp43
 70
     1
102
RTVSPost2010Prop44ColorIndex
 90
        5
102
RTVSPost2010Prop44ColorRGB
 90
      255
102
RTVSPost2010PropOp44
 70
     1
102
RTVSPost2010Prop45
280
     0
102
RTVSPost2010PropOp45
 70
     1
102
RTVSPost2010Prop46
 90
       50
102
RTVSPost2010PropOp46
 70
     1
102
RTVSPost2010Prop47
 90
       50
102
RTVSPost2010PropOp47
 70
     1
102
RTVSPost2010Prop48
 90
       50
102
RTVSPost2010PropOp48
 70
     1
102
RTVSPost2010Prop49
280
     0
102
RTVSPost2010PropOp49
 70
     1
102
RTVSPost2010Prop50
 90
       50
102
RTVSPost2010PropOp50
 70
     1
102
RTVSPost2010Prop51ColorIndex
 90
      256
102
RTVSPost2010Prop51ColorRGB
 90
-16777216
102
RTVSPost2010PropOp51
 70
     0
102
RTVSPost2010Prop52
140
1.0
102
RTVSPost2010PropOp52
 70
     0
102
RTVSPost2010Prop53
 90
        2
102
RTVSPost2010PropOp53
 70
     1
102
RTVSPost2010Prop54
  1
strokes_ogs.tif
102
RTVSPost2010PropOp54
 70
     1
102
RTVSPost2010Prop55
280
     0
102
RTVSPost2010PropOp55
 70
     1
102
RTVSPost2010Prop56
140
1.0
102
RTVSPost2010PropOp56
 70
     1
102
RTVSPost2010Prop57
140
1.0
102
RTVSPost2010PropOp57
 70
     1
  0
ENDSEC
  0
EOF
